  0
SECTION
  2
HEADER
  9
$ACADVER
  1
AC1021
  9
$ACADMAINTVER
 70
    25
  9
$DWGCODEPAGE
  3
ANSI_1252
  9
$LASTSAVEDBY
  1
Josep Sancho
  9
$INSBASE
 10
0.0
 20
0.0
 30
0.0
  9
$EXTMIN
 10
176.8264998564
 20
49.9980727422
 30
0.0
  9
$EXTMAX
 10
2049.4323743066
 20
3864.0855574177
 30
0.1
  9
$LIMMIN
 10
0.0
 20
0.0
  9
$LIMMAX
 10
2100.0
 20
2970.0
  9
$ORTHOMODE
 70
     0
  9
$REGENMODE
 70
     1
  9
$FILLMODE
 70
     1
  9
$QTEXTMODE
 70
     0
  9
$MIRRTEXT
 70
     1
  9
$LTSCALE
 40
10.0
  9
$ATTMODE
 70
     1
  9
$TEXTSIZE
 40
35.0
  9
$TRACEWID
 40
1.0
  9
$TEXTSTYLE
  7
Standard
  9
$CLAYER
  8
0
  9
$CELTYPE
  6
ByLayer
  9
$CECOLOR
 62
   256
  9
$CELTSCALE
 40
1.0
  9
$DISPSILH
 70
     0
  9
$DIMSCALE
 40
1.0
  9
$DIMASZ
 40
33.02
  9
$DIMEXO
 40
10.0
  9
$DIMDLI
 40
3.75
  9
$DIMRND
 40
0.0
  9
$DIMDLE
 40
0.0
  9
$DIMEXE
 40
10.0
  9
$DIMTP
 40
0.0
  9
$DIMTM
 40
0.0
  9
$DIMTXT
 40
35.0
  9
$DIMCEN
 40
2.5
  9
$DIMTSZ
 40
0.0
  9
$DIMTOL
 70
     0
  9
$DIMLIM
 70
     0
  9
$DIMTIH
 70
     1
  9
$DIMTOH
 70
     1
  9
$DIMSE1
 70
     0
  9
$DIMSE2
 70
     0
  9
$DIMTAD
 70
     1
  9
$DIMZIN
 70
     0
  9
$DIMBLK
  1

  9
$DIMASO
 70
     1
  9
$DIMSHO
 70
     1
  9
$DIMPOST
  1

  9
$DIMAPOST
  1

  9
$DIMALT
 70
     0
  9
$DIMALTD
 70
     3
  9
$DIMALTF
 40
0.0393700787
  9
$DIMLFAC
 40
1.0
  9
$DIMTOFL
 70
     1
  9
$DIMTVP
 40
0.0
  9
$DIMTIX
 70
     0
  9
$DIMSOXD
 70
     0
  9
$DIMSAH
 70
     0
  9
$DIMBLK1
  1

  9
$DIMBLK2
  1

  9
$DIMSTYLE
  2
ISO-25
  9
$DIMCLRD
 70
     0
  9
$DIMCLRE
 70
     0
  9
$DIMCLRT
 70
     0
  9
$DIMTFAC
 40
1.0
  9
$DIMGAP
 40
15.24
  9
$DIMJUST
 70
     0
  9
$DIMSD1
 70
     0
  9
$DIMSD2
 70
     0
  9
$DIMTOLJ
 70
     0
  9
$DIMTZIN
 70
     0
  9
$DIMALTZ
 70
     0
  9
$DIMALTTZ
 70
     0
  9
$DIMUPT
 70
     0
  9
$DIMDEC
 70
     3
  9
$DIMTDEC
 70
     3
  9
$DIMALTU
 70
     2
  9
$DIMALTTD
 70
     3
  9
$DIMTXSTY
  7
Standard
  9
$DIMAUNIT
 70
     0
  9
$DIMADEC
 70
     2
  9
$DIMALTRND
 40
0.0
  9
$DIMAZIN
 70
     0
  9
$DIMDSEP
 70
    44
  9
$DIMATFIT
 70
     3
  9
$DIMFRAC
 70
     0
  9
$DIMLDRBLK
  1

  9
$DIMLUNIT
 70
     2
  9
$DIMLWD
 70
    -2
  9
$DIMLWE
 70
    -2
  9
$DIMTMOVE
 70
     0
  9
$DIMFXL
 40
1.0
  9
$DIMFXLON
 70
     0
  9
$DIMJOGANG
 40
0.7853981633974483
  9
$DIMTFILL
 70
     0
  9
$DIMTFILLCLR
 70
     0
  9
$DIMARCSYM
 70
     0
  9
$DIMLTYPE
  6

  9
$DIMLTEX1
  6

  9
$DIMLTEX2
  6

  9
$LUNITS
 70
     2
  9
$LUPREC
 70
     2
  9
$SKETCHINC
 40
1.0
  9
$FILLETRAD
 40
10.0
  9
$AUNITS
 70
     0
  9
$AUPREC
 70
     2
  9
$MENU
  1
.
  9
$ELEVATION
 40
0.0
  9
$PELEVATION
 40
0.0
  9
$THICKNESS
 40
0.0
  9
$LIMCHECK
 70
     0
  9
$CHAMFERA
 40
10.0
  9
$CHAMFERB
 40
10.0
  9
$CHAMFERC
 40
20.0
  9
$CHAMFERD
 40
0.0
  9
$SKPOLY
 70
     0
  9
$TDCREATE
 40
2453353.800459155
  9
$TDUCREATE
 40
2453353.717125822
  9
$TDUPDATE
 40
2457226.49691434
  9
$TDUUPDATE
 40
2457226.413581007
  9
$TDINDWG
 40
0.0430208449
  9
$TDUSRTIMER
 40
0.0430208449
  9
$USRTIMER
 70
     1
  9
$ANGBASE
 50
0.0
  9
$ANGDIR
 70
     0
  9
$PDMODE
 70
     0
  9
$PDSIZE
 40
-1.0
  9
$PLINEWID
 40
0.0
  9
$SPLFRAME
 70
     0
  9
$SPLINETYPE
 70
     6
  9
$SPLINESEGS
 70
     8
  9
$HANDSEED
  5
26A
  9
$SURFTAB1
 70
     6
  9
$SURFTAB2
 70
     6
  9
$SURFTYPE
 70
     6
  9
$SURFU
 70
     6
  9
$SURFV
 70
     6
  9
$UCSBASE
  2

  9
$UCSNAME
  2

  9
$UCSORG
 10
0.0
 20
0.0
 30
0.0
  9
$UCSXDIR
 10
1.0
 20
0.0
 30
0.0
  9
$UCSYDIR
 10
0.0
 20
1.0
 30
0.0
  9
$UCSORTHOREF
  2

  9
$UCSORTHOVIEW
 70
     0
  9
$UCSORGTOP
 10
0.0
 20
0.0
 30
0.0
  9
$UCSORGBOTTOM
 10
0.0
 20
0.0
 30
0.0
  9
$UCSORGLEFT
 10
0.0
 20
0.0
 30
0.0
  9
$UCSORGRIGHT
 10
0.0
 20
0.0
 30
0.0
  9
$UCSORGFRONT
 10
0.0
 20
0.0
 30
0.0
  9
$UCSORGBACK
 10
0.0
 20
0.0
 30
0.0
  9
$PUCSBASE
  2

  9
$PUCSNAME
  2

  9
$PUCSORG
 10
0.0
 20
0.0
 30
0.0
  9
$PUCSXDIR
 10
1.0
 20
0.0
 30
0.0
  9
$PUCSYDIR
 10
0.0
 20
1.0
 30
0.0
  9
$PUCSORTHOREF
  2

  9
$PUCSORTHOVIEW
 70
     0
  9
$PUCSORGTOP
 10
0.0
 20
0.0
 30
0.0
  9
$PUCSORGBOTTOM
 10
0.0
 20
0.0
 30
0.0
  9
$PUCSORGLEFT
 10
0.0
 20
0.0
 30
0.0
  9
$PUCSORGRIGHT
 10
0.0
 20
0.0
 30
0.0
  9
$PUCSORGFRONT
 10
0.0
 20
0.0
 30
0.0
  9
$PUCSORGBACK
 10
0.0
 20
0.0
 30
0.0
  9
$USERI1
 70
     0
  9
$USERI2
 70
     0
  9
$USERI3
 70
     0
  9
$USERI4
 70
     0
  9
$USERI5
 70
     0
  9
$USERR1
 40
0.0
  9
$USERR2
 40
0.0
  9
$USERR3
 40
0.0
  9
$USERR4
 40
0.0
  9
$USERR5
 40
0.0
  9
$WORLDVIEW
 70
     1
  9
$SHADEDGE
 70
     3
  9
$SHADEDIF
 70
    70
  9
$TILEMODE
 70
     1
  9
$MAXACTVP
 70
    64
  9
$PINSBASE
 10
0.0
 20
0.0
 30
0.0
  9
$PLIMCHECK
 70
     0
  9
$PEXTMIN
 10
1.000000000000000E+20
 20
1.000000000000000E+20
 30
1.000000000000000E+20
  9
$PEXTMAX
 10
-1.000000000000000E+20
 20
-1.000000000000000E+20
 30
-1.000000000000000E+20
  9
$PLIMMIN
 10
0.0
 20
0.0
  9
$PLIMMAX
 10
420.0
 20
297.0
  9
$UNITMODE
 70
     0
  9
$VISRETAIN
 70
     1
  9
$PLINEGEN
 70
     0
  9
$PSLTSCALE
 70
     1
  9
$TREEDEPTH
 70
  3020
  9
$CMLSTYLE
  2
Standard
  9
$CMLJUST
 70
     0
  9
$CMLSCALE
 40
20.0
  9
$PROXYGRAPHICS
 70
     1
  9
$MEASUREMENT
 70
     1
  9
$CELWEIGHT
370
    -1
  9
$ENDCAPS
280
     0
  9
$JOINSTYLE
280
     0
  9
$LWDISPLAY
290
     1
  9
$INSUNITS
 70
     4
  9
$HYPERLINKBASE
  1

  9
$STYLESHEET
  1

  9
$XEDIT
290
     0
  9
$CEPSNTYPE
380
     0
  9
$PSTYLEMODE
290
     1
  9
$FINGERPRINTGUID
  2
{FD8ED5F9-2900-4149-8873-94CD1BF7DD55}
  9
$VERSIONGUID
  2
{FAEB1C32-E019-11D5-929B-00C0DF256EC4}
  9
$EXTNAMES
290
     1
  9
$PSVPSCALE
 40
0.0
  9
$OLESTARTUP
290
     0
  9
$SORTENTS
280
   127
  9
$INDEXCTL
280
     0
  9
$HIDETEXT
280
     1
  9
$XCLIPFRAME
290
     0
  9
$HALOGAP
280
     0
  9
$OBSCOLOR
 70
   257
  9
$OBSLTYPE
280
     0
  9
$INTERSECTIONDISPLAY
280
     0
  9
$INTERSECTIONCOLOR
 70
   257
  9
$DIMASSOC
280
     2
  9
$PROJECTNAME
  1

  9
$CAMERADISPLAY
290
     0
  9
$LENSLENGTH
 40
50.0
  9
$CAMERAHEIGHT
 40
0.0
  9
$STEPSPERSEC
 40
2.0
  9
$STEPSIZE
 40
6.0
  9
$3DDWFPREC
 40
2.0
  9
$PSOLWIDTH
 40
0.25
  9
$PSOLHEIGHT
 40
4.0
  9
$LOFTANG1
 40
1.570796326794897
  9
$LOFTANG2
 40
1.570796326794897
  9
$LOFTMAG1
 40
0.0
  9
$LOFTMAG2
 40
0.0
  9
$LOFTPARAM
 70
     7
  9
$LOFTNORMALS
280
     1
  9
$LATITUDE
 40
37.795
  9
$LONGITUDE
 40
-122.394
  9
$NORTHDIRECTION
 40
0.0
  9
$TIMEZONE
 70
 -8000
  9
$LIGHTGLYPHDISPLAY
280
     1
  9
$TILEMODELIGHTSYNCH
280
     1
  9
$SOLIDHIST
280
     1
  9
$SHOWHIST
280
     1
  9
$DWFFRAME
280
     2
  9
$DGNFRAME
280
     2
  9
$REALWORLDSCALE
290
     1
  9
$INTERFERECOLOR
 62
   256
  9
$CSHADOW
280
     0
  9
$SHADOWPLANELOCATION
 40
0.0
  0
ENDSEC
  0
SECTION
  2
CLASSES
  0
CLASS
  1
ACDBDICTIONARYWDFLT
  2
AcDbDictionaryWithDefault
  3
ObjectDBX Classes
 90
        0
 91
        4
280
     0
281
     0
  0
CLASS
  1
ACDBPLACEHOLDER
  2
AcDbPlaceHolder
  3
ObjectDBX Classes
 90
        0
 91
        1
280
     0
281
     0
  0
CLASS
  1
LAYOUT
  2
AcDbLayout
  3
ObjectDBX Classes
 90
        0
 91
        1
280
     0
281
     0
  0
CLASS
  1
DICTIONARYVAR
  2
AcDbDictionaryVar
  3
ObjectDBX Classes
 90
        0
 91
        4
280
     0
281
     0
  0
CLASS
  1
TABLESTYLE
  2
AcDbTableStyle
  3
ObjectDBX Classes
 90
     4095
 91
        4
280
     0
281
     0
  0
CLASS
  1
SCALE
  2
AcDbScale
  3
ObjectDBX Classes
 90
     1153
 91
        4
280
     0
281
     0
  0
ENDSEC
  0
SECTION
  2
TABLES
  0
TABLE
  2
VPORT
  5
8
330
0
100
AcDbSymbolTable
 70
     2
  0
VPORT
  5
97
330
8
100
AcDbSymbolTableRecord
100
AcDbViewportTableRecord
  2
*Active
 70
     0
 10
0.0
 20
0.0
 11
1.0
 21
1.0
 12
900.0684869104697
 22
1641.582327302109
 13
0.0
 23
0.0
 14
10.0
 24
10.0
 15
10.0
 25
10.0
 16
0.0
 26
0.0
 36
1.0
 17
0.0
 27
0.0
 37
0.0
 40
2259.924597895345
 41
0.7070707071
 42
50.0
 43
0.0
 44
0.0
 50
0.0
 51
0.0
 71
    16
 72
  2000
 73
     1
 74
     3
 75
     0
 76
     0
 77
     0
 78
     0
281
     0
 65
     0
110
0.0
120
0.0
130
0.0
111
1.0
121
0.0
131
0.0
112
0.0
122
1.0
132
0.0
 79
     0
146
0.0
 60
     3
 61
     5
292
     1
282
     1
141
0.0
142
0.0
 63
   256
  0
ENDTAB
  0
TABLE
  2
LTYPE
  5
5
330
0
100
AcDbSymbolTable
 70
     6
  0
LTYPE
  5
14
330
5
100
AcDbSymbolTableRecord
100
AcDbLinetypeTableRecord
  2
ByBlock
 70
     0
  3

 72
    65
 73
     0
 40
0.0
  0
LTYPE
  5
15
330
5
100
AcDbSymbolTableRecord
100
AcDbLinetypeTableRecord
  2
ByLayer
 70
     0
  3

 72
    65
 73
     0
 40
0.0
  0
LTYPE
  5
16
330
5
100
AcDbSymbolTableRecord
100
AcDbLinetypeTableRecord
  2
Continuous
 70
     0
  3
Solid line
 72
    65
 73
     0
 40
0.0
  0
LTYPE
  5
22D
330
5
100
AcDbSymbolTableRecord
100
AcDbLinetypeTableRecord
  2
HIDDEN
 70
     0
  3
Hidden __ __ __ __ __ __ __ __ __ __ __ __ __ __
 72
    65
 73
     2
 40
1.905
 49
1.27
 74
     4
 75
     0
340
0
 46
1.0
 50
0.0
 44
0.0
 45
0.0
 49
-0.635
 74
     4
 75
     0
340
0
 46
1.0
 50
0.0
 44
0.0
 45
0.0
  0
LTYPE
  5
22E
330
5
100
AcDbSymbolTableRecord
100
AcDbLinetypeTableRecord
  2
PHANTOM
 70
     0
  3
Phantom ______  __  __  ______  __  __  ______
 72
    65
 73
     6
 40
12.7
 49
6.35
 74
     4
 75
     0
340
0
 46
1.0
 50
0.0
 44
0.0
 45
0.0
 49
-1.27
 74
     4
 75
     0
340
0
 46
1.0
 50
0.0
 44
0.0
 45
0.0
 49
1.27
 74
     4
 75
     0
340
0
 46
1.0
 50
0.0
 44
0.0
 45
0.0
 49
-1.27
 74
     4
 75
     0
340
0
 46
1.0
 50
0.0
 44
0.0
 45
0.0
 49
1.27
 74
     4
 75
     0
340
0
 46
1.0
 50
0.0
 44
0.0
 45
0.0
 49
-1.27
 74
     4
 75
     0
340
0
 46
1.0
 50
0.0
 44
0.0
 45
0.0
  0
LTYPE
  5
22F
330
5
100
AcDbSymbolTableRecord
100
AcDbLinetypeTableRecord
  2
CENTER
 70
     0
  3
Center ____ _ ____ _ ____ _ ____ _ ____ _ ____
 72
    65
 73
     4
 40
10.16
 49
6.35
 74
     4
 75
     0
340
0
 46
1.0
 50
0.0
 44
0.0
 45
0.0
 49
-1.27
 74
     4
 75
     0
340
0
 46
1.0
 50
0.0
 44
0.0
 45
0.0
 49
1.27
 74
     4
 75
     0
340
0
 46
1.0
 50
0.0
 44
0.0
 45
0.0
 49
-1.27
 74
     4
 75
     0
340
0
 46
1.0
 50
0.0
 44
0.0
 45
0.0
  0
LTYPE
  5
230
330
5
100
AcDbSymbolTableRecord
100
AcDbLinetypeTableRecord
  2
CENTERX2
 70
     0
  3
Center (2x) ________  __  ________  __  _____
 72
    65
 73
     4
 40
20.32
 49
12.7
 74
     4
 75
     0
340
0
 46
1.0
 50
0.0
 44
0.0
 45
0.0
 49
-2.54
 74
     4
 75
     0
340
0
 46
1.0
 50
0.0
 44
0.0
 45
0.0
 49
2.54
 74
     4
 75
     0
340
0
 46
1.0
 50
0.0
 44
0.0
 45
0.0
 49
-2.54
 74
     4
 75
     0
340
0
 46
1.0
 50
0.0
 44
0.0
 45
0.0
  0
LTYPE
  5
231
330
5
100
AcDbSymbolTableRecord
100
AcDbLinetypeTableRecord
  2
DOT2
 70
     0
  3
Dot (.5x) ........................................
 72
    65
 73
     2
 40
0.635
 49
0.0
 74
     4
 75
     0
340
0
 46
1.0
 50
0.0
 44
0.0
 45
0.0
 49
-0.635
 74
     4
 75
     0
340
0
 46
1.0
 50
0.0
 44
0.0
 45
0.0
  0
ENDTAB
  0
TABLE
  2
LAYER
  5
2
330
0
100
AcDbSymbolTable
 70
     1
  0
LAYER
  5
10
330
2
100
AcDbSymbolTableRecord
100
AcDbLayerTableRecord
  2
0
 70
     0
 62
     7
  6
Continuous
370
    -3
390
F
347
0
  0
ENDTAB
  0
TABLE
  2
STYLE
  5
3
330
0
100
AcDbSymbolTable
 70
     4
  0
STYLE
  5
11
330
3
100
AcDbSymbolTableRecord
100
AcDbTextStyleTableRecord
  2
Standard
 70
     0
 40
0.0
 41
1.0
 50
0.0
 71
     0
 42
35.0
  3
txt
  4

  0
STYLE
  5
65
330
3
100
AcDbSymbolTableRecord
100
AcDbTextStyleTableRecord
  2
SLDTEXTSTYLE0
 70
     0
 40
0.0
 41
0.75
 50
0.0
 71
     0
 42
0.2
  3
TXT
  4

  0
STYLE
  5
69
330
3
100
AcDbSymbolTableRecord
100
AcDbTextStyleTableRecord
  2
SLDTEXTSTYLE1
 70
     0
 40
0.0
 41
0.6944444444
 50
0.0
 71
     0
 42
0.2
  3
TXT
  4

  0
STYLE
  5
78
330
3
100
AcDbSymbolTableRecord
100
AcDbTextStyleTableRecord
  2
SLDTEXTSTYLE2
 70
     0
 40
0.0
 41
0.605
 50
0.0
 71
     0
 42
0.2
  3
TXT
  4

  0
ENDTAB
  0
TABLE
  2
VIEW
  5
6
330
0
100
AcDbSymbolTable
 70
     0
  0
ENDTAB
  0
TABLE
  2
UCS
  5
7
330
0
100
AcDbSymbolTable
 70
     0
  0
ENDTAB
  0
TABLE
  2
APPID
  5
9
330
0
100
AcDbSymbolTable
 70
     1
  0
APPID
  5
12
330
9
100
AcDbSymbolTableRecord
100
AcDbRegAppTableRecord
  2
ACAD
 70
     0
  0
ENDTAB
  0
TABLE
  2
DIMSTYLE
  5
A
330
0
100
AcDbSymbolTable
 70
     5
100
AcDbDimStyleTable
  0
DIMSTYLE
105
27
330
A
100
AcDbSymbolTableRecord
100
AcDbDimStyleTableRecord
  2
Standard
 70
     0
278
     0
340
11
  0
DIMSTYLE
105
232
330
A
100
AcDbSymbolTableRecord
100
AcDbDimStyleTableRecord
  2
ISO-25
 70
     0
 41
2.5
 42
0.625
 43
3.75
 44
1.25
 73
     0
 74
     0
 77
     1
 78
     8
140
2.5
141
2.5
143
0.0393700787
147
0.625
171
     3
172
     1
271
     2
272
     2
274
     3
278
    44
283
     0
284
     8
340
11
  0
DIMSTYLE
105
1C5
102
{ACAD_REACTORS
330
1C4
330
1DD
330
1F1
330
1FB
102
}
330
A
100
AcDbSymbolTableRecord
100
AcDbDimStyleTableRecord
  2
SLDDIMSTYLE0
 70
     0
 41
33.02
 44
0.0
 45
0.000000001
 73
     0
 74
     0
 77
     1
 78
    12
 79
     3
140
35.0
147
8.75
173
     1
271
     3
272
     3
276
     2
284
    12
340
65
  0
DIMSTYLE
105
1D0
102
{ACAD_REACTORS
330
1CF
102
}
330
A
100
AcDbSymbolTableRecord
100
AcDbDimStyleTableRecord
  2
SLDDIMSTYLE1
 70
     0
 41
33.02
 44
0.0
 45
0.000000001
 73
     0
 74
     0
 77
     1
 78
    12
 79
     3
140
35.0
147
8.75
172
     1
173
     1
271
     3
272
     3
276
     2
284
    12
289
     0
340
65
  0
DIMSTYLE
105
1E8
102
{ACAD_REACTORS
330
1E7
102
}
330
A
100
AcDbSymbolTableRecord
100
AcDbDimStyleTableRecord
  2
SLDDIMSTYLE2
 70
     0
 41
33.02
 44
0.0
 45
0.000000001
 78
    12
 79
     3
140
35.0
141
0.0
147
8.75
173
     1
271
     3
272
     3
276
     2
284
    12
340
65
  0
ENDTAB
  0
TABLE
  2
BLOCK_RECORD
  5
1
330
0
100
AcDbSymbolTable
 70
     7
  0
BLOCK_RECORD
  5
1F
102
{ACAD_XDICTIONARY
360
267
102
}
330
1
100
AcDbSymbolTableRecord
100
AcDbBlockTableRecord
  2
*Model_Space
340
22
 70
     0
280
     1
281
     0
  0
BLOCK_RECORD
  5
73
330
1
100
AcDbSymbolTableRecord
100
AcDbBlockTableRecord
  2
*Paper_Space
340
74
 70
     0
280
     1
281
     0
  0
BLOCK_RECORD
  5
23
330
1
100
AcDbSymbolTableRecord
100
AcDbBlockTableRecord
  2
*Paper_Space0
340
26
 70
     0
280
     1
281
     0
  0
BLOCK_RECORD
  5
1C6
330
1
100
AcDbSymbolTableRecord
100
AcDbBlockTableRecord
  2
_D
340
0
 70
     0
280
     1
281
     0
  0
BLOCK_RECORD
  5
1D1
330
1
100
AcDbSymbolTableRecord
100
AcDbBlockTableRecord
  2
_D_1
340
0
 70
     0
280
     1
281
     0
  0
BLOCK_RECORD
  5
1DE
330
1
100
AcDbSymbolTableRecord
100
AcDbBlockTableRecord
  2
_D_2
340
0
 70
     0
280
     1
281
     0
  0
BLOCK_RECORD
  5
1E9
330
1
100
AcDbSymbolTableRecord
100
AcDbBlockTableRecord
  2
_D_3
340
0
 70
     0
280
     1
281
     0
  0
BLOCK_RECORD
  5
1F2
330
1
100
AcDbSymbolTableRecord
100
AcDbBlockTableRecord
  2
_D_4
340
0
 70
     0
280
     1
281
     0
  0
BLOCK_RECORD
  5
1FC
330
1
100
AcDbSymbolTableRecord
100
AcDbBlockTableRecord
  2
_D_5
340
0
 70
     0
280
     1
281
     0
  0
ENDTAB
  0
ENDSEC
  0
SECTION
  2
BLOCKS
  0
BLOCK
  5
20
330
1F
100
AcDbEntity
  8
0
100
AcDbBlockBegin
  2
*Model_Space
 70
     0
 10
0.0
 20
0.0
 30
0.0
  3
*Model_Space
  1

  0
ENDBLK
  5
21
330
1F
100
AcDbEntity
  8
0
100
AcDbBlockEnd
  0
BLOCK
  5
75
330
73
100
AcDbEntity
 67
     1
  8
0
100
AcDbBlockBegin
  2
*Paper_Space
 70
     0
 10
0.0
 20
0.0
 30
0.0
  3
*Paper_Space
  1

  0
ENDBLK
  5
76
330
73
100
AcDbEntity
 67
     1
  8
0
100
AcDbBlockEnd
  0
BLOCK
  5
233
330
23
100
AcDbEntity
  8
0
100
AcDbBlockBegin
  2
*Paper_Space0
 70
     0
 10
0.0
 20
0.0
 30
0.0
  3
*Paper_Space0
  1

  0
ENDBLK
  5
234
330
23
100
AcDbEntity
  8
0
100
AcDbBlockEnd
  0
BLOCK
  5
235
330
1C6
100
AcDbEntity
  8
0
100
AcDbBlockBegin
  2
_D
 70
     0
 10
0.0
 20
0.0
 30
0.0
  3
_D
  1

  0
SOLID
  5
1C9
330
1C6
100
AcDbEntity
  8
0
  6
Continuous
 62
     7
370
     0
100
AcDbTrace
 10
1751.7826487171
 20
897.8501997077
 30
0.0
 11
1756.8626487171
 21
930.8701997077
 31
0.0
 12
1746.7026487171
 22
930.8701997077
 32
0.0
 13
1746.7026487171
 23
930.8701997077
 33
0.0
  0
SOLID
  5
1CA
330
1C6
100
AcDbEntity
  8
0
  6
Continuous
 62
     7
370
     0
100
AcDbTrace
 10
1751.7826487171
 20
1422.8501997077
 30
0.0
 11
1746.7026487171
 21
1389.8301997077
 31
0.0
 12
1756.8626487171
 22
1389.8301997077
 32
0.0
 13
1756.8626487171
 23
1389.8301997077
 33
0.0
  0
LINE
  5
1CB
330
1C6
100
AcDbEntity
  8
0
  6
Continuous
 62
     7
370
     0
100
AcDbLine
 10
1661.7826487171
 20
897.8501997077
 30
0.0
 11
1761.7826487171
 21
897.8501997077
 31
0.0
  0
LINE
  5
1CC
330
1C6
100
AcDbEntity
  8
0
  6
Continuous
 62
     7
370
     0
100
AcDbLine
 10
1633.4410602888
 20
1422.8501997077
 30
0.0
 11
1761.7826487171
 21
1422.8501997077
 31
0.0
  0
LINE
  5
1CD
330
1C6
100
AcDbEntity
  8
0
  6
Continuous
 62
     7
370
     0
100
AcDbLine
 10
1751.7826487171
 20
897.8501997077
 30
0.0
 11
1751.7826487171
 21
1422.8501997077
 31
0.0
  0
MTEXT
  5
1CE
330
1C6
100
AcDbEntity
  8
0
  6
Continuous
 62
     7
370
     0
100
AcDbMText
 10
1706.6652795713
 20
1137.3252908854
 30
0.1
 40
35.0
 41
0.0
 46
0.0
 71
     1
 72
     1
  1
525
  7
SLDTEXTSTYLE0
 11
6.123233995736766E-17
 21
1.0
 31
0.0
 73
     1
 44
1.0
  0
ENDBLK
  5
236
330
1C6
100
AcDbEntity
  8
0
100
AcDbBlockEnd
  0
BLOCK
  5
237
330
1D1
100
AcDbEntity
  8
0
100
AcDbBlockBegin
  2
_D_1
 70
     0
 10
0.0
 20
0.0
 30
0.0
  3
_D_1
  1

  0
SOLID
  5
1D4
330
1D1
100
AcDbEntity
  8
0
  6
Continuous
 62
     7
370
     0
100
AcDbTrace
 10
624.6910602888
 20
2527.7641234448
 30
0.0
 11
591.6710602888
 21
2532.8441234448
 31
0.0
 12
591.6710602888
 22
2522.6841234448
 32
0.0
 13
591.6710602888
 23
2522.6841234448
 33
0.0
  0
SOLID
  5
1D5
330
1D1
100
AcDbEntity
  8
0
  6
Continuous
 62
     7
370
     0
100
AcDbTrace
 10
792.6910602888
 20
2527.7641234448
 30
0.0
 11
825.7110602888
 21
2522.6841234448
 31
0.0
 12
825.7110602888
 22
2532.8441234448
 32
0.0
 13
825.7110602888
 23
2532.8441234448
 33
0.0
  0
LINE
  5
1D6
330
1D1
100
AcDbEntity
  8
0
  6
Continuous
 62
     7
370
     0
100
AcDbLine
 10
624.6910602888
 20
2416.9731620635
 30
0.0
 11
624.6910602888
 21
2537.7641234448
 31
0.0
  0
LINE
  5
1D7
330
1D1
100
AcDbEntity
  8
0
  6
Continuous
 62
     7
370
     0
100
AcDbLine
 10
792.6910602888
 20
2416.9731620635
 30
0.0
 11
792.6910602888
 21
2537.7641234448
 31
0.0
  0
LINE
  5
1D8
330
1D1
100
AcDbEntity
  8
0
  6
Continuous
 62
     7
370
     0
100
AcDbLine
 10
624.6910602888
 20
2527.7641234448
 30
0.0
 11
561.1910602888
 21
2527.7641234448
 31
0.0
  0
LINE
  5
1D9
330
1D1
100
AcDbEntity
  8
0
  6
Continuous
 62
     7
370
     0
100
AcDbLine
 10
624.6910602888
 20
2527.7641234448
 30
0.0
 11
792.6910602888
 21
2527.7641234448
 31
0.0
  0
LINE
  5
1DA
330
1D1
100
AcDbEntity
  8
0
  6
Continuous
 62
     7
370
     0
100
AcDbLine
 10
792.6910602888
 20
2527.7641234448
 30
0.0
 11
856.1910602888
 21
2527.7641234448
 31
0.0
  0
MTEXT
  5
1DB
330
1D1
100
AcDbEntity
  8
0
  6
Continuous
 62
     7
370
     0
100
AcDbMText
 10
611.5412337913
 20
2572.8814943368
 30
0.1
 40
35.0
 41
0.0
 46
0.0
 71
     1
 72
     1
  1
%%c
  7
SLDTEXTSTYLE0
 73
     1
 44
1.0
  0
MTEXT
  5
1DC
330
1D1
100
AcDbEntity
  8
0
  6
Continuous
 62
     7
370
     0
100
AcDbMText
 10
664.3256077751
 20
2573.4162161034
 30
0.1
 40
35.0
 41
0.0
 46
0.0
 71
     1
 72
     1
  1
168
  7
SLDTEXTSTYLE0
 73
     1
 44
1.0
  0
ENDBLK
  5
238
330
1D1
100
AcDbEntity
  8
0
100
AcDbBlockEnd
  0
BLOCK
  5
239
330
1DE
100
AcDbEntity
  8
0
100
AcDbBlockBegin
  2
_D_2
 70
     0
 10
0.0
 20
0.0
 30
0.0
  3
_D_2
  1

  0
SOLID
  5
1E1
330
1DE
100
AcDbEntity
  8
0
  6
Continuous
 62
     7
370
     0
100
AcDbTrace
 10
1615.6910602888
 20
738.8246466639
 30
0.0
 11
1582.6710602888
 21
743.9046466639
 31
0.0
 12
1582.6710602888
 22
733.7446466639
 32
0.0
 13
1582.6710602888
 23
733.7446466639
 33
0.0
  0
SOLID
  5
1E2
330
1DE
100
AcDbEntity
  8
0
  6
Continuous
 62
     7
370
     0
100
AcDbTrace
 10
701.6910602888
 20
738.8246466639
 30
0.0
 11
734.7110602888
 21
733.7446466639
 31
0.0
 12
734.7110602888
 22
743.9046466639
 32
0.0
 13
734.7110602888
 23
743.9046466639
 33
0.0
  0
LINE
  5
1E3
330
1DE
100
AcDbEntity
  8
0
  6
Continuous
 62
     7
370
     0
100
AcDbLine
 10
1615.6910602888
 20
1171.3501997077
 30
0.0
 11
1615.6910602888
 21
728.8246466639
 31
0.0
  0
LINE
  5
1E4
330
1DE
100
AcDbEntity
  8
0
  6
Continuous
 62
     7
370
     0
100
AcDbLine
 10
701.6910602888
 20
1171.3501997077
 30
0.0
 11
701.6910602888
 21
728.8246466639
 31
0.0
  0
LINE
  5
1E5
330
1DE
100
AcDbEntity
  8
0
  6
Continuous
 62
     7
370
     0
100
AcDbLine
 10
1615.6910602888
 20
738.8246466639
 30
0.0
 11
701.6910602888
 21
738.8246466639
 31
0.0
  0
MTEXT
  5
1E6
330
1DE
100
AcDbEntity
  8
0
  6
Continuous
 62
     7
370
     0
100
AcDbMText
 10
1120.4736467504
 20
783.9420158097
 30
0.1
 40
35.0
 41
0.0
 46
0.0
 71
     1
 72
     1
  1
914
  7
SLDTEXTSTYLE0
 73
     1
 44
1.0
  0
ENDBLK
  5
23A
330
1DE
100
AcDbEntity
  8
0
100
AcDbBlockEnd
  0
BLOCK
  5
23B
330
1E9
100
AcDbEntity
  8
0
100
AcDbBlockBegin
  2
_D_3
 70
     0
 10
0.0
 20
0.0
 30
0.0
  3
_D_3
  1

  0
SOLID
  5
1EC
330
1E9
100
AcDbEntity
  8
0
  6
Continuous
 62
     7
370
     0
100
AcDbTrace
 10
767.7794887853
 20
965.4499009157
 30
0.0
 11
734.573224347
 21
961.7796417894
 31
0.0
 12
737.2119734226
 22
951.9682910507
 32
0.0
 13
737.2119734226
 23
951.9682910507
 33
0.0
  0
LINE
  5
1ED
330
1E9
100
AcDbEntity
  8
0
  6
Continuous
 62
     7
370
     0
100
AcDbLine
 10
767.7794887853
 20
965.4499009157
 30
0.0
 11
509.3176682165
 21
895.9369553215
 31
0.0
  0
LINE
  5
1EE
330
1E9
100
AcDbEntity
  8
0
  6
Continuous
 62
     7
370
     0
100
AcDbLine
 10
854.6910602888
 20
988.8246466639
 30
0.0
 11
767.7794887853
 21
965.4499009157
 31
0.0
  0
LINE
  5
1EF
330
1E9
100
AcDbEntity
  8
0
  6
Continuous
 62
     7
370
     0
100
AcDbLine
 10
509.3176682165
 20
895.9369553215
 30
0.0
 11
384.9426662645
 21
895.9369553215
 31
0.0
  0
MTEXT
  5
1F0
330
1E9
100
AcDbEntity
  8
0
  6
Continuous
 62
     7
370
     0
100
AcDbMText
 10
384.9426662645
 20
941.0543244673
 30
0.1
 40
35.0
 41
0.0
 46
0.0
 71
     1
 72
     1
  1
R90
  7
SLDTEXTSTYLE0
 73
     1
 44
1.0
  0
ENDBLK
  5
23C
330
1E9
100
AcDbEntity
  8
0
100
AcDbBlockEnd
  0
BLOCK
  5
23D
330
1F2
100
AcDbEntity
  8
0
100
AcDbBlockBegin
  2
_D_4
 70
     0
 10
0.0
 20
0.0
 30
0.0
  3
_D_4
  1

  0
SOLID
  5
1F5
330
1F2
100
AcDbEntity
  8
0
  6
Continuous
 62
     7
370
     0
100
AcDbTrace
 10
854.6910602888
 20
798.8246466639
 30
0.0
 11
887.7110602888
 21
793.7446466639
 31
0.0
 12
887.7110602888
 22
803.9046466639
 32
0.0
 13
887.7110602888
 23
803.9046466639
 33
0.0
  0
SOLID
  5
1F6
330
1F2
100
AcDbEntity
  8
0
  6
Continuous
 62
     7
370
     0
100
AcDbTrace
 10
1462.6910602888
 20
798.8246466639
 30
0.0
 11
1429.6710602888
 21
803.9046466639
 31
0.0
 12
1429.6710602888
 22
793.7446466639
 32
0.0
 13
1429.6710602888
 23
793.7446466639
 33
0.0
  0
LINE
  5
1F7
330
1F2
100
AcDbEntity
  8
0
  6
Continuous
 62
     7
370
     0
100
AcDbLine
 10
854.6910602888
 20
978.8246466639
 30
0.0
 11
854.6910602888
 21
788.8246466639
 31
0.0
  0
LINE
  5
1F8
330
1F2
100
AcDbEntity
  8
0
  6
Continuous
 62
     7
370
     0
100
AcDbLine
 10
1462.6910602888
 20
979.0571732052
 30
0.0
 11
1462.6910602888
 21
788.8246466639
 31
0.0
  0
LINE
  5
1F9
330
1F2
100
AcDbEntity
  8
0
  6
Continuous
 62
     7
370
     0
100
AcDbLine
 10
854.6910602888
 20
798.8246466639
 30
0.0
 11
1462.6910602888
 21
798.8246466639
 31
0.0
  0
MTEXT
  5
1FA
330
1F2
100
AcDbEntity
  8
0
  6
Continuous
 62
     7
370
     0
100
AcDbMText
 10
1096.2469882344
 20
843.9420158097
 30
0.1
 40
35.0
 41
0.0
 46
0.0
 71
     1
 72
     1
  1
608
  7
SLDTEXTSTYLE0
 73
     1
 44
1.0
  0
ENDBLK
  5
23E
330
1F2
100
AcDbEntity
  8
0
100
AcDbBlockEnd
  0
BLOCK
  5
23F
330
1FC
100
AcDbEntity
  8
0
100
AcDbBlockBegin
  2
_D_5
 70
     0
 10
0.0
 20
0.0
 30
0.0
  3
_D_5
  1

  0
SOLID
  5
1FF
330
1FC
100
AcDbEntity
  8
0
  6
Continuous
 62
     7
370
     0
100
AcDbTrace
 10
1751.7826487171
 20
1422.8501997077
 30
0.0
 11
1756.8626487171
 21
1455.8701997077
 31
0.0
 12
1746.7026487171
 22
1455.8701997077
 32
0.0
 13
1746.7026487171
 23
1455.8701997077
 33
0.0
  0
SOLID
  5
200
330
1FC
100
AcDbEntity
  8
0
  6
Continuous
 62
     7
370
     0
100
AcDbTrace
 10
1751.7826487171
 20
2406.9731620635
 30
0.0
 11
1746.7026487171
 21
2373.9531620635
 31
0.0
 12
1756.8626487171
 22
2373.9531620635
 32
0.0
 13
1756.8626487171
 23
2373.9531620635
 33
0.0
  0
LINE
  5
201
330
1FC
100
AcDbEntity
  8
0
  6
Continuous
 62
     7
370
     0
100
AcDbLine
 10
1633.4410602888
 20
1422.8501997077
 30
0.0
 11
1761.7826487171
 21
1422.8501997077
 31
0.0
  0
LINE
  5
202
330
1FC
100
AcDbEntity
  8
0
  6
Continuous
 62
     7
370
     0
100
AcDbLine
 10
1626.6910602888
 20
2406.9731620635
 30
0.0
 11
1761.7826487171
 21
2406.9731620635
 31
0.0
  0
LINE
  5
203
330
1FC
100
AcDbEntity
  8
0
  6
Continuous
 62
     7
370
     0
100
AcDbLine
 10
1751.7826487171
 20
1422.8501997077
 30
0.0
 11
1751.7826487171
 21
2406.9731620635
 31
0.0
  0
MTEXT
  5
204
330
1FC
100
AcDbEntity
  8
0
  6
Continuous
 62
     7
370
     0
100
AcDbMText
 10
1706.6652795713
 20
1866.2581448789
 30
0.1
 40
35.0
 41
0.0
 46
0.0
 71
     1
 72
     1
  1
MAX.2,5M
  7
SLDTEXTSTYLE0
 11
6.123233995736766E-17
 21
1.0
 31
0.0
 73
     1
 44
1.0
  0
ENDBLK
  5
240
330
1FC
100
AcDbEntity
  8
0
100
AcDbBlockEnd
  0
ENDSEC
  0
SECTION
  2
ENTITIES
  0
LINE
  5
80
330
1F
100
AcDbEntity
  8
0
  6
Continuous
 62
     7
370
    15
100
AcDbLine
 10
1466.6910602888
 20
1129.0537621977
 30
0.0
 11
1466.6910602888
 21
1137.9772787131
 31
0.0
  0
LINE
  5
81
330
1F
100
AcDbEntity
  8
0
  6
Continuous
 62
     7
370
    15
100
AcDbLine
 10
1458.6910602888
 20
1137.9772787131
 30
0.0
 11
1458.6910602888
 21
1129.0537621977
 31
0.0
  0
LINE
  5
82
330
1F
100
AcDbEntity
  8
0
  6
Continuous
 62
     7
370
    15
100
AcDbLine
 10
1466.6910602888
 20
1137.9772787131
 30
0.0
 11
1466.5858325485
 21
1138.0825064515
 31
0.0
  0
LINE
  5
83
330
1F
100
AcDbEntity
  8
0
  6
Continuous
 62
     7
370
    15
100
AcDbLine
 10
1458.9410602888
 20
1138.2272787086
 30
0.0
 11
1458.6910602888
 21
1137.9772787131
 31
0.0
  0
LINE
  5
84
330
1F
100
AcDbEntity
  8
0
  6
Continuous
 62
     7
370
    15
100
AcDbLine
 10
1458.8181392919
 20
1138.3501997077
 30
0.0
 11
1458.9410602888
 21
1138.2272787086
 31
0.0
  0
LINE
  5
85
330
1F
100
AcDbEntity
  8
0
  6
Continuous
 62
     7
370
    15
100
AcDbLine
 10
858.6910602888
 20
1128.8212356565
 30
0.0
 11
858.6910602888
 21
1138.3501997077
 31
0.0
  0
LINE
  5
86
330
1F
100
AcDbEntity
  8
0
  6
Continuous
 62
     7
370
    15
100
AcDbLine
 10
850.6910602888
 20
1138.3501997077
 30
0.0
 11
850.6910602888
 21
1128.8212356565
 31
0.0
  0
LINE
  5
87
330
1F
100
AcDbEntity
  8
0
  6
Continuous
 62
     7
370
    15
100
AcDbLine
 10
861.9858112709
 20
1143.8501997077
 30
0.0
 11
860.6910602888
 21
1143.8501997077
 31
0.0
  0
LINE
  5
88
330
1F
100
AcDbEntity
  8
0
  6
Continuous
 62
     7
370
    15
100
AcDbLine
 10
860.6910602888
 20
1139.8501997077
 30
0.0
 11
861.9858112709
 21
1139.8501997077
 31
0.0
  0
SPLINE
  5
89
330
1F
100
AcDbEntity
  8
0
  6
Continuous
 62
     7
370
    15
100
AcDbSpline
210
0.0
220
0.0
230
1.0
 70
     8
 71
     3
 72
    11
 73
     7
 74
     0
 42
0.00000001
 43
0.00000001
 40
0.0
 40
0.0
 40
0.0
 40
0.0
 40
0.243163144641384
 40
0.6145171809320092
 40
0.9299008269780102
 40
1.0
 40
1.0
 40
1.0
 40
1.0
 10
1460.209371296199
 20
1165.497560498152
 30
0.0
 10
1460.149789400953
 20
1165.482701726324
 30
0.0
 10
1459.99921519138
 20
1165.445150926472
 30
0.0
 10
1459.814204908854
 20
1165.299531700726
 30
0.0
 10
1459.684060894027
 20
1165.158464333236
 30
0.0
 10
1459.643862406524
 20
1165.081768218299
 30
0.0
 10
1459.636552403091
 20
1165.067821204412
 30
0.0
  0
SPLINE
  5
8A
330
1F
100
AcDbEntity
  8
0
  6
Continuous
 62
     7
370
    15
100
AcDbSpline
210
0.0
220
0.0
230
1.0
 70
     8
 71
     3
 72
    10
 73
     6
 74
     0
 42
0.00000001
 43
0.00000001
 40
0.0
 40
0.0
 40
0.0
 40
0.0
 40
0.2784433032684671
 40
0.6422386632305409
 40
1.0
 40
1.0
 40
1.0
 40
1.0
 10
1465.78676092048
 20
1164.994859670393
 30
0.0
 10
1465.75138942076
 20
1165.057866791704
 30
0.0
 10
1465.669803889955
 20
1165.203194795252
 30
0.0
 10
1465.458228155358
 20
1165.402956429893
 30
0.0
 10
1465.266082239945
 20
1165.472265783233
 30
0.0
 10
1465.170812693056
 20
1165.506630659914
 30
0.0
  0
LINE
  5
8B
330
1F
100
AcDbEntity
  8
0
  6
Continuous
 62
     7
370
    15
100
AcDbLine
 10
1459.503364304
 20
1164.7191226319
 30
0.0
 11
1458.8886003641
 21
1161.2313901775
 31
0.0
  0
LINE
  5
8C
330
1F
100
AcDbEntity
  8
0
  6
Continuous
 62
     7
370
    15
100
AcDbLine
 10
1466.4935202134
 20
1161.2313901775
 30
0.0
 11
1465.8787562735
 21
1164.7191226319
 31
0.0
  0
LINE
  5
8D
330
1F
100
AcDbEntity
  8
0
  6
Continuous
 62
     7
370
    15
100
AcDbLine
 10
1454.1910602888
 20
1100.0537621977
 30
0.0
 11
1454.1910602888
 21
1096.0537621977
 31
0.0
  0
LINE
  5
8E
330
1F
100
AcDbEntity
  8
0
  6
Continuous
 62
     7
370
    15
100
AcDbLine
 10
1471.1910602888
 20
1096.0537621977
 30
0.0
 11
1471.1910602888
 21
1100.0537621977
 31
0.0
  0
ARC
  5
8F
330
1F
100
AcDbEntity
  8
0
  6
Continuous
 62
     7
370
    15
100
AcDbCircle
 10
1454.1910602888
 20
1102.0537621977
 30
0.0
 40
2.000000000000227
100
AcDbArc
 50
270.0
 51
0.0
  0
ARC
  5
90
330
1F
100
AcDbEntity
  8
0
  6
Continuous
 62
     7
370
    15
100
AcDbCircle
 10
1471.1910602888
 20
1102.0537621977
 30
0.0
 40
2.0
100
AcDbArc
 50
180.0
 51
270.0
  0
LINE
  5
91
330
1F
100
AcDbEntity
  8
0
  6
Continuous
 62
     7
370
    15
100
AcDbLine
 10
1456.1910602888
 20
1128.5537621977
 30
0.0
 11
1456.1910602888
 21
1102.0537621977
 31
0.0
  0
LINE
  5
241
330
1F
100
AcDbEntity
  8
0
  6
Continuous
 62
     7
370
    15
100
AcDbLine
 10
1469.1910602888
 20
1102.0537621977
 30
0.0
 11
1469.1910602888
 21
1128.5537621977
 31
0.0
  0
ARC
  5
242
330
1F
100
AcDbEntity
  8
0
  6
Continuous
 62
     7
370
    15
100
AcDbCircle
 10
1456.6910602888
 20
1128.5537621977
 30
0.0
 40
0.5000000000002274
100
AcDbArc
 50
90.0
 51
180.0
  0
ARC
  5
94
330
1F
100
AcDbEntity
  8
0
  6
Continuous
 62
     7
370
    15
100
AcDbCircle
 10
1468.6910602888
 20
1128.5537621977
 30
0.0
 40
0.5000000000002274
100
AcDbArc
 50
0.0
 51
90.0
  0
ARC
  5
95
330
1F
100
AcDbEntity
  8
0
  6
Continuous
 62
     7
370
    15
100
AcDbCircle
 10
856.8910602888
 20
1164.3212356565
 30
0.0
 40
1.000000000000057
100
AcDbArc
 50
10.0
 51
73.7081502238
  0
ARC
  5
96
330
1F
100
AcDbEntity
  8
0
  6
Continuous
 62
     7
370
    15
100
AcDbCircle
 10
852.4910602888
 20
1164.3212356565
 30
0.0
 40
1.000000000000138
100
AcDbArc
 50
106.2890366682
 51
170.0
  0
LINE
  5
243
330
1F
100
AcDbEntity
  8
0
  6
Continuous
 62
     7
370
    15
100
AcDbLine
 10
858.4910602888
 20
1161.0059552282
 30
0.0
 11
857.8758680418
 21
1164.4948838341
 31
0.0
  0
LINE
  5
244
330
1F
100
AcDbEntity
  8
0
  6
Continuous
 62
     7
370
    15
100
AcDbLine
 10
851.5062525358
 20
1164.4948838341
 30
0.0
 11
850.8910602888
 21
1161.0059552282
 31
0.0
  0
ARC
  5
245
330
1F
100
AcDbEntity
  8
0
  6
Continuous
 62
     7
370
    15
100
AcDbCircle
 10
846.1910602888
 20
1101.8212356565
 30
0.0
 40
2.000000000000114
100
AcDbArc
 50
270.0
 51
0.0
  0
ARC
  5
246
330
1F
100
AcDbEntity
  8
0
  6
Continuous
 62
     7
370
    15
100
AcDbCircle
 10
863.1910602888
 20
1101.8212356565
 30
0.0
 40
2.0
100
AcDbArc
 50
180.0
 51
270.0
  0
LINE
  5
247
330
1F
100
AcDbEntity
  8
0
  6
Continuous
 62
     7
370
    15
100
AcDbLine
 10
846.1910602888
 20
1099.8212356565
 30
0.0
 11
846.1910602888
 21
1095.8212356565
 31
0.0
  0
LINE
  5
248
330
1F
100
AcDbEntity
  8
0
  6
Continuous
 62
     7
370
    15
100
AcDbLine
 10
863.1910602888
 20
1095.8212356565
 30
0.0
 11
863.1910602888
 21
1099.8212356565
 31
0.0
  0
LINE
  5
249
330
1F
100
AcDbEntity
  8
0
  6
Continuous
 62
     7
370
    15
100
AcDbLine
 10
848.1910602888
 20
1128.3212356565
 30
0.0
 11
848.1910602888
 21
1101.8212356565
 31
0.0
  0
LINE
  5
24A
330
1F
100
AcDbEntity
  8
0
  6
Continuous
 62
     7
370
    15
100
AcDbLine
 10
861.1910602888
 20
1101.8212356565
 30
0.0
 11
861.1910602888
 21
1128.3212356565
 31
0.0
  0
ARC
  5
24B
330
1F
100
AcDbEntity
  8
0
  6
Continuous
 62
     7
370
    15
100
AcDbCircle
 10
848.6910602888
 20
1128.3212356565
 30
0.0
 40
0.4999999999998863
100
AcDbArc
 50
90.0
 51
180.0
  0
ARC
  5
24C
330
1F
100
AcDbEntity
  8
0
  6
Continuous
 62
     7
370
    15
100
AcDbCircle
 10
860.6910602888
 20
1128.3212356565
 30
0.0
 40
0.5000000000001137
100
AcDbArc
 50
0.0
 51
90.0
  0
LINE
  5
24D
330
1F
100
AcDbEntity
  8
0
  6
Continuous
 62
     7
370
    15
100
AcDbLine
 10
903.7368223036
 20
1084.3212356565
 30
0.0
 11
897.1591255189
 21
1084.3212356565
 31
0.0
  0
LINE
  5
24E
330
1F
100
AcDbEntity
  8
0
  6
Continuous
 62
     7
370
    15
100
AcDbLine
 10
897.1591806986
 20
1079.3212356565
 30
0.0
 11
903.7368223036
 21
1079.3212356565
 31
0.0
  0
LINE
  5
24F
330
1F
100
AcDbEntity
  8
0
  6
Continuous
 62
     7
370
    15
100
AcDbLine
 10
903.7368223036
 20
1079.3212356565
 30
0.0
 11
903.9868223036
 21
1079.5712356565
 31
0.0
  0
LINE
  5
250
330
1F
100
AcDbEntity
  8
0
  6
Continuous
 62
     7
370
    15
100
AcDbLine
 10
903.9868223036
 20
1084.0712356565
 30
0.0
 11
903.7368223036
 21
1084.3212356565
 31
0.0
  0
LINE
  5
251
330
1F
100
AcDbEntity
  8
0
  6
Continuous
 62
     7
370
    15
100
AcDbLine
 10
805.645298274
 20
1079.3212356565
 30
0.0
 11
812.2223320172
 21
1079.3212356565
 31
0.0
  0
LINE
  5
252
330
1F
100
AcDbEntity
  8
0
  6
Continuous
 62
     7
370
    15
100
AcDbLine
 10
812.2230593709
 20
1084.3212356565
 30
0.0
 11
805.645298274
 21
1084.3212356565
 31
0.0
  0
LINE
  5
253
330
1F
100
AcDbEntity
  8
0
  6
Continuous
 62
     7
370
    15
100
AcDbLine
 10
805.645298274
 20
1084.3212356565
 30
0.0
 11
805.395298274
 21
1084.0712356565
 31
0.0
  0
LINE
  5
254
330
1F
100
AcDbEntity
  8
0
  6
Continuous
 62
     7
370
    15
100
AcDbLine
 10
805.395298274
 20
1079.5712356565
 30
0.0
 11
805.645298274
 21
1079.3212356565
 31
0.0
  0
LINE
  5
255
330
1F
100
AcDbEntity
  8
0
  6
Continuous
 62
     7
370
    15
100
AcDbLine
 10
1462.9174936705
 20
1084.5537621977
 30
0.0
 11
1462.8540129767
 21
1084.5537621977
 31
0.0
  0
LINE
  5
256
330
1F
100
AcDbEntity
  8
0
  6
Continuous
 62
     7
370
    15
100
AcDbLine
 10
1462.8540129767
 20
1079.5537621977
 30
0.0
 11
1462.9174936705
 21
1079.5537621977
 31
0.0
  0
LINE
  5
257
330
1F
100
AcDbEntity
  8
0
  6
Continuous
 62
     7
370
    15
100
AcDbLine
 10
1511.7362996045
 20
1084.5537621977
 30
0.0
 11
1505.1660347648
 21
1084.5537621977
 31
0.0
  0
LINE
  5
258
330
1F
100
AcDbEntity
  8
0
  6
Continuous
 62
     7
370
    15
100
AcDbLine
 10
1505.1662835974
 20
1079.5537621977
 30
0.0
 11
1511.7362996045
 21
1079.5537621977
 31
0.0
  0
LINE
  5
259
330
1F
100
AcDbEntity
  8
0
  6
Continuous
 62
     7
370
    15
100
AcDbLine
 10
1511.7363528916
 20
1079.5537888417
 30
0.0
 11
1511.9863448986
 21
1079.8037861773
 31
0.0
  0
LINE
  5
25A
330
1F
100
AcDbEntity
  8
0
  6
Continuous
 62
     7
370
    15
100
AcDbLine
 10
1511.9863448986
 20
1084.3037382181
 30
0.0
 11
1511.7363528916
 21
1084.5537355537
 31
0.0
  0
LINE
  5
25B
330
1F
100
AcDbEntity
  8
0
  6
Continuous
 62
     7
370
    15
100
AcDbLine
 10
1413.6457676859
 20
1084.5537355537
 30
0.0
 11
1413.395775679
 21
1084.3037382181
 31
0.0
  0
LINE
  5
25C
330
1F
100
AcDbEntity
  8
0
  6
Continuous
 62
     7
370
    15
100
AcDbLine
 10
1413.395775679
 20
1079.8037861773
 30
0.0
 11
1413.6457676859
 21
1079.5537888417
 31
0.0
  0
LINE
  5
25D
330
1F
100
AcDbEntity
  8
0
  6
Continuous
 62
     7
370
    15
100
AcDbLine
 10
1413.6458209731
 20
1079.5537621977
 30
0.0
 11
1420.2300952739
 21
1079.5537621977
 31
0.0
  0
LINE
  5
25E
330
1F
100
AcDbEntity
  8
0
  6
Continuous
 62
     7
370
    15
100
AcDbLine
 10
1420.2308934815
 20
1084.5537621977
 30
0.0
 11
1413.6458209731
 21
1084.5537621977
 31
0.0
  0
LINE
  5
25F
330
1F
100
AcDbEntity
  8
0
  6
Continuous
 62
     7
370
    15
100
AcDbLine
 10
904.1910602888
 20
1094.8212356565
 30
0.0
 11
903.1910602888
 21
1095.8212356565
 31
0.0
  0
LINE
  5
260
330
1F
100
AcDbEntity
  8
0
  6
Continuous
 62
     7
370
    15
100
AcDbLine
 10
806.1910602888
 20
1095.8212356565
 30
0.0
 11
805.1910602888
 21
1094.8212356565
 31
0.0
  0
LINE
  5
261
330
1F
100
AcDbEntity
  8
0
  6
Continuous
 62
     7
370
    15
100
AcDbLine
 10
904.1910602888
 20
1092.8212356565
 30
0.0
 11
904.1910602888
 21
1094.8212356565
 31
0.0
  0
LINE
  5
262
330
1F
100
AcDbEntity
  8
0
  6
Continuous
 62
     7
370
    15
100
AcDbLine
 10
805.1910602888
 20
1094.8212356565
 30
0.0
 11
805.1910602888
 21
1092.8212356565
 31
0.0
  0
LINE
  5
263
330
1F
100
AcDbEntity
  8
0
  6
Continuous
 62
     7
370
    15
100
AcDbLine
 10
889.6910602888
 20
1091.8246466639
 30
0.0
 11
889.6910602888
 21
1092.8212356565
 31
0.0
  0
LINE
  5
264
330
1F
100
AcDbEntity
  8
0
  6
Continuous
 62
     7
370
    15
100
AcDbLine
 10
819.6910602888
 20
1092.8212356565
 30
0.0
 11
819.6910602888
 21
1091.8246466639
 31
0.0
  0
LINE
  5
265
330
1F
100
AcDbEntity
  8
0
  6
Continuous
 62
     7
370
    15
100
AcDbLine
 10
1512.1910602888
 20
1093.0537621977
 30
0.0
 11
1512.1910602888
 21
1095.0537621977
 31
0.0
  0
LINE
  5
266
330
1F
100
AcDbEntity
  8
0
  6
Continuous
 62
     7
370
    15
100
AcDbLine
 10
1413.1910602888
 20
1095.0537621977
 30
0.0
 11
1413.1910602888
 21
1093.0537621977
 31
0.0
  0
LINE
  5
BB
330
1F
100
AcDbEntity
  8
0
  6
Continuous
 62
     7
370
    15
100
AcDbLine
 10
1512.1910602888
 20
1095.0537621977
 30
0.0
 11
1511.1910602888
 21
1096.0537621977
 31
0.0
  0
LINE
  5
BC
330
1F
100
AcDbEntity
  8
0
  6
Continuous
 62
     7
370
    15
100
AcDbLine
 10
1414.1910602888
 20
1096.0537621977
 30
0.0
 11
1413.1910602888
 21
1095.0537621977
 31
0.0
  0
LINE
  5
BD
330
1F
100
AcDbEntity
  8
0
  6
Continuous
 62
     7
370
    15
100
AcDbLine
 10
1497.6910602888
 20
1092.0571732052
 30
0.0
 11
1497.6910602888
 21
1093.0537621977
 31
0.0
  0
LINE
  5
BE
330
1F
100
AcDbEntity
  8
0
  6
Continuous
 62
     7
370
    15
100
AcDbLine
 10
1427.6910602888
 20
1093.0537621977
 30
0.0
 11
1427.6910602888
 21
1092.0571732052
 31
0.0
  0
ARC
  5
BF
330
1F
100
AcDbEntity
  8
0
  6
Continuous
 62
     7
370
    15
100
AcDbCircle
 10
1462.6910602888
 20
989.0571732052
 30
0.0
 40
90.00000000000014
100
AcDbArc
 50
121.6682432535
 51
0.0
  0
ARC
  5
C0
330
1F
100
AcDbEntity
  8
0
  6
Continuous
 62
     7
370
    15
100
AcDbCircle
 10
1462.6910602888
 20
989.0571732052
 30
0.0
 40
90.00000000000014
100
AcDbArc
 50
0.0
 51
58.33175674649999
  0
ARC
  5
C1
330
1F
100
AcDbEntity
  8
0
  6
Continuous
 62
     7
370
    15
100
AcDbCircle
 10
1410.1910602888
 20
1074.1673958579
 30
0.0
 40
10.0
100
AcDbArc
 50
301.6682432535
 51
0.0
  0
ARC
  5
C2
330
1F
100
AcDbEntity
  8
0
  6
Continuous
 62
     7
370
    15
100
AcDbCircle
 10
1515.1910602888
 20
1074.1673958579
 30
0.0
 40
10.0
100
AcDbArc
 50
180.0
 51
238.3317567465
  0
LINE
  5
C3
330
1F
100
AcDbEntity
  8
0
  6
Continuous
 62
     7
370
    15
100
AcDbLine
 10
1420.1910602888
 20
1079.105984082
 30
0.0
 11
1420.1910602888
 21
1074.1673958579
 31
0.0
  0
LINE
  5
C4
330
1F
100
AcDbEntity
  8
0
  6
Continuous
 62
     7
370
    15
100
AcDbLine
 10
1420.1910602888
 20
1091.5571732052
 30
0.0
 11
1420.1910602888
 21
1085.0260123823
 31
0.0
  0
LINE
  5
C5
330
1F
100
AcDbEntity
  8
0
  6
Continuous
 62
     7
370
    15
100
AcDbLine
 10
1505.1910602888
 20
1085.0260123823
 30
0.0
 11
1505.1910602888
 21
1091.5571732052
 31
0.0
  0
LINE
  5
C6
330
1F
100
AcDbEntity
  8
0
  6
Continuous
 62
     7
370
    15
100
AcDbLine
 10
1505.1910602888
 20
1074.1673958579
 30
0.0
 11
1505.1910602888
 21
1079.105984082
 31
0.0
  0
LINE
  5
C7
330
1F
100
AcDbEntity
  8
0
  6
Continuous
 62
     7
370
    15
100
AcDbLine
 10
1505.1910602888
 20
1091.5571732052
 30
0.0
 11
1504.6910602888
 21
1092.0571732052
 31
0.0
  0
LINE
  5
C8
330
1F
100
AcDbEntity
  8
0
  6
Continuous
 62
     7
370
    15
100
AcDbLine
 10
1420.6910602888
 20
1092.0571732052
 30
0.0
 11
1420.1910602888
 21
1091.5571732052
 31
0.0
  0
ARC
  5
C9
330
1F
100
AcDbEntity
  8
0
  6
Continuous
 62
     7
370
    15
100
AcDbCircle
 10
854.6910602888
 20
988.8246466639
 30
0.0
 40
90.0000000000002
100
AcDbArc
 50
121.6682432535
 51
58.33175674649999
  0
ARC
  5
CA
330
1F
100
AcDbEntity
  8
0
  6
Continuous
 62
     7
370
    15
100
AcDbCircle
 10
802.1910602888
 20
1073.9348693167
 30
0.0
 40
9.999999999999886
100
AcDbArc
 50
301.6682432535
 51
0.0
  0
ARC
  5
CB
330
1F
100
AcDbEntity
  8
0
  6
Continuous
 62
     7
370
    15
100
AcDbCircle
 10
907.1910602888
 20
1073.9348693167
 30
0.0
 40
10.0
100
AcDbArc
 50
180.0
 51
238.3317567465
  0
LINE
  5
CC
330
1F
100
AcDbEntity
  8
0
  6
Continuous
 62
     7
370
    15
100
AcDbLine
 10
812.1910602888
 20
1078.8629017574
 30
0.0
 11
812.1910602888
 21
1073.9348693167
 31
0.0
  0
LINE
  5
CD
330
1F
100
AcDbEntity
  8
0
  6
Continuous
 62
     7
370
    15
100
AcDbLine
 10
812.1910602888
 20
1091.3246466639
 30
0.0
 11
812.1910602888
 21
1084.8212238338
 31
0.0
  0
LINE
  5
CE
330
1F
100
AcDbEntity
  8
0
  6
Continuous
 62
     7
370
    15
100
AcDbLine
 10
897.1910602888
 20
1084.8212238338
 30
0.0
 11
897.1910602888
 21
1091.3246466639
 31
0.0
  0
LINE
  5
CF
330
1F
100
AcDbEntity
  8
0
  6
Continuous
 62
     7
370
    15
100
AcDbLine
 10
897.1910602888
 20
1073.9348693167
 30
0.0
 11
897.1910602888
 21
1078.8629017574
 31
0.0
  0
LINE
  5
D0
330
1F
100
AcDbEntity
  8
0
  6
Continuous
 62
     7
370
    15
100
AcDbLine
 10
897.1910602888
 20
1091.3246466639
 30
0.0
 11
896.6910602888
 21
1091.8246466639
 31
0.0
  0
LINE
  5
D1
330
1F
100
AcDbEntity
  8
0
  6
Continuous
 62
     7
370
    15
100
AcDbLine
 10
812.6910602888
 20
1091.8246466639
 30
0.0
 11
812.1910602888
 21
1091.3246466639
 31
0.0
  0
LINE
  5
D2
330
1F
100
AcDbEntity
  8
0
  6
Continuous
 62
     7
370
    15
100
AcDbLine
 10
1602.6910602888
 20
2380.9731620635
 30
0.0
 11
1602.6910602888
 21
2378.9731620635
 31
0.0
  0
LINE
  5
D3
330
1F
100
AcDbEntity
  8
0
  6
Continuous
 62
     7
370
    15
100
AcDbLine
 10
1614.6910602888
 20
2378.9731620635
 30
0.0
 11
1614.6910602888
 21
2380.9731620635
 31
0.0
  0
LINE
  5
D4
330
1F
100
AcDbEntity
  8
0
  6
Continuous
 62
     7
370
    15
100
AcDbLine
 10
1605.5660602888
 20
2375.9731620635
 30
0.0
 11
1605.5660602888
 21
2370.9731620635
 31
0.0
  0
LINE
  5
D5
330
1F
100
AcDbEntity
  8
0
  6
Continuous
 62
     7
370
    15
100
AcDbLine
 10
1611.8160602888
 20
2370.9731620635
 30
0.0
 11
1611.8160602888
 21
2375.9731620635
 31
0.0
  0
LINE
  5
D6
330
1F
100
AcDbEntity
  8
0
  6
Continuous
 62
     7
370
    15
100
AcDbLine
 10
1605.9410602888
 20
2378.9731620635
 30
0.0
 11
1605.9410602888
 21
2375.9731620635
 31
0.0
  0
LINE
  5
D7
330
1F
100
AcDbEntity
  8
0
  6
Continuous
 62
     7
370
    15
100
AcDbLine
 10
1611.4410602888
 20
2375.9731620635
 30
0.0
 11
1611.4410602888
 21
2378.9731620635
 31
0.0
  0
LINE
  5
D8
330
1F
100
AcDbEntity
  8
0
  6
Continuous
 62
     7
370
    15
100
AcDbLine
 10
1600.6910602888
 20
2406.9731620635
 30
0.0
 11
1600.6910602888
 21
2404.9731620635
 31
0.0
  0
LINE
  5
D9
330
1F
100
AcDbEntity
  8
0
  6
Continuous
 62
     7
370
    15
100
AcDbLine
 10
1616.6910602888
 20
2404.9731620635
 30
0.0
 11
1616.6910602888
 21
2406.9731620635
 31
0.0
  0
LINE
  5
DA
330
1F
100
AcDbEntity
  8
0
  6
Continuous
 62
     7
370
    15
100
AcDbLine
 10
1602.6910602888
 20
2404.9731620635
 30
0.0
 11
1602.6910602888
 21
2380.9731620635
 31
0.0
  0
LINE
  5
DB
330
1F
100
AcDbEntity
  8
0
  6
Continuous
 62
     7
370
    15
100
AcDbLine
 10
1614.6910602888
 20
2380.9731620635
 30
0.0
 11
1614.6910602888
 21
2404.9731620635
 31
0.0
  0
LINE
  5
DC
330
1F
100
AcDbEntity
  8
0
  6
Continuous
 62
     7
370
    15
100
AcDbLine
 10
1593.9410602888
 20
1422.8501997077
 30
0.0
 11
1593.9410602888
 21
1420.3501997077
 31
0.0
  0
LINE
  5
DD
330
1F
100
AcDbEntity
  8
0
  6
Continuous
 62
     7
370
    15
100
AcDbLine
 10
1623.4410602888
 20
1420.3501997077
 30
0.0
 11
1623.4410602888
 21
1422.8501997077
 31
0.0
  0
LINE
  5
DE
330
1F
100
AcDbEntity
  8
0
  6
Continuous
 62
     7
370
    15
100
AcDbLine
 10
1623.4410602888
 20
1422.8501997077
 30
0.0
 11
1622.9410602888
 21
1423.3501997077
 31
0.0
  0
LINE
  5
DF
330
1F
100
AcDbEntity
  8
0
  6
Continuous
 62
     7
370
    15
100
AcDbLine
 10
1594.4410602888
 20
1423.3501997077
 30
0.0
 11
1593.9410602888
 21
1422.8501997077
 31
0.0
  0
LINE
  5
E0
330
1F
100
AcDbEntity
  8
0
  6
Continuous
 62
     7
370
    15
100
AcDbLine
 10
1615.6910602888
 20
1401.3501997077
 30
0.0
 11
1615.6910602888
 21
1420.3501997077
 31
0.0
  0
LINE
  5
E1
330
1F
100
AcDbEntity
  8
0
  6
Continuous
 62
     7
370
    15
100
AcDbLine
 10
1601.6910602888
 20
1420.3501997077
 30
0.0
 11
1601.6910602888
 21
1401.3501997077
 31
0.0
  0
LINE
  5
E2
330
1F
100
AcDbEntity
  8
0
  6
Continuous
 62
     7
370
    15
100
AcDbLine
 10
723.4410602888
 20
1422.8501997077
 30
0.0
 11
722.9410602888
 21
1423.3501997077
 31
0.0
  0
LINE
  5
E3
330
1F
100
AcDbEntity
  8
0
  6
Continuous
 62
     7
370
    15
100
AcDbLine
 10
694.4410602888
 20
1423.3501997077
 30
0.0
 11
693.9410602888
 21
1422.8501997077
 31
0.0
  0
LINE
  5
E4
330
1F
100
AcDbEntity
  8
0
  6
Continuous
 62
     7
370
    15
100
AcDbLine
 10
693.9410602888
 20
1422.8501997077
 30
0.0
 11
693.9410602888
 21
1420.3501997077
 31
0.0
  0
LINE
  5
E5
330
1F
100
AcDbEntity
  8
0
  6
Continuous
 62
     7
370
    15
100
AcDbLine
 10
723.4410602888
 20
1420.3501997077
 30
0.0
 11
723.4410602888
 21
1422.8501997077
 31
0.0
  0
LINE
  5
E6
330
1F
100
AcDbEntity
  8
0
  6
Continuous
 62
     7
370
    15
100
AcDbLine
 10
715.6910602888
 20
1401.3501997077
 30
0.0
 11
715.6910602888
 21
1420.3501997077
 31
0.0
  0
LINE
  5
E7
330
1F
100
AcDbEntity
  8
0
  6
Continuous
 62
     7
370
    15
100
AcDbLine
 10
701.6910602888
 20
1420.3501997077
 30
0.0
 11
701.6910602888
 21
1401.3501997077
 31
0.0
  0
LINE
  5
E8
330
1F
100
AcDbEntity
  8
0
  6
Continuous
 62
     7
370
    15
100
AcDbLine
 10
1609.3160602888
 20
1423.3501997077
 30
0.0
 11
1609.3160602888
 21
2370.9731620635
 31
0.0
  0
LINE
  5
EB
330
1F
100
AcDbEntity
  8
0
  6
Continuous
 62
     7
370
    15
100
AcDbLine
 10
1608.0660602888
 20
2370.9731620635
 30
0.0
 11
1608.0660602888
 21
1423.3501997077
 31
0.0
  0
LINE
  5
EC
330
1F
100
AcDbEntity
  8
0
  6
Continuous
 62
     7
370
    15
100
AcDbLine
 10
714.1910602888
 20
2360.9731620635
 30
0.0
 11
714.1910602888
 21
2361.4731620635
 31
0.0
  0
LINE
  5
ED
330
1F
100
AcDbEntity
  8
0
  6
Continuous
 62
     7
370
    15
100
AcDbLine
 10
703.1910602888
 20
2361.4731620635
 30
0.0
 11
703.1910602888
 21
2360.9731620635
 31
0.0
  0
LINE
  5
EE
330
1F
100
AcDbEntity
  8
0
  6
Continuous
 62
     7
370
    15
100
AcDbLine
 10
699.6910602888
 20
2368.9731620635
 30
0.0
 11
699.6910602888
 21
2363.4731620635
 31
0.0
  0
LINE
  5
EF
330
1F
100
AcDbEntity
  8
0
  6
Continuous
 62
     7
370
    15
100
AcDbLine
 10
717.6910602888
 20
2363.4731620635
 30
0.0
 11
717.6910602888
 21
2368.9731620635
 31
0.0
  0
LINE
  5
F0
330
1F
100
AcDbEntity
  8
0
  6
Continuous
 62
     7
370
    15
100
AcDbLine
 10
699.6910602888
 20
2363.4731620635
 30
0.0
 11
702.8160602888
 21
2361.4731620635
 31
0.0
  0
LINE
  5
F1
330
1F
100
AcDbEntity
  8
0
  6
Continuous
 62
     7
370
    15
100
AcDbLine
 10
714.5660602888
 20
2361.4731620635
 30
0.0
 11
717.6910602888
 21
2363.4731620635
 31
0.0
  0
ARC
  5
F2
330
1F
100
AcDbEntity
  8
0
  6
Continuous
 62
     7
370
    15
100
AcDbCircle
 10
789.6910602888
 20
2371.9731620635
 30
0.0
 40
3.000000000000114
100
AcDbArc
 50
270.0
 51
0.0
  0
ARC
  5
F3
330
1F
100
AcDbEntity
  8
0
  6
Continuous
 62
     7
370
    15
100
AcDbCircle
 10
627.6910602888
 20
2371.9731620635
 30
0.0
 40
3.0
100
AcDbArc
 50
180.0
 51
270.0
  0
LINE
  5
F4
330
1F
100
AcDbEntity
  8
0
  6
Continuous
 62
     7
370
    15
100
AcDbLine
 10
792.6910602888
 20
2371.9731620635
 30
0.0
 11
792.6910602888
 21
2406.9731620635
 31
0.0
  0
LINE
  5
F5
330
1F
100
AcDbEntity
  8
0
  6
Continuous
 62
     7
370
    15
100
AcDbLine
 10
624.6910602888
 20
2406.9731620635
 30
0.0
 11
624.6910602888
 21
2371.9731620635
 31
0.0
  0
LINE
  5
F6
330
1F
100
AcDbEntity
  8
0
  6
Continuous
 62
     7
370
    15
100
AcDbLine
 10
705.6910602888
 20
2360.9731620635
 30
0.0
 11
705.6910602888
 21
1423.3501997077
 31
0.0
  0
LINE
  5
F7
330
1F
100
AcDbEntity
  8
0
  6
Continuous
 62
     7
370
    15
100
AcDbLine
 10
711.6910602888
 20
1423.3501997077
 30
0.0
 11
711.6910602888
 21
2360.9731620635
 31
0.0
  0
ARC
  5
F8
330
1F
100
AcDbEntity
  8
0
  6
Continuous
 62
     7
370
    15
100
AcDbCircle
 10
1578.6910602888
 20
1181.3501997077
 30
0.0
 40
23.00000000000023
100
AcDbArc
 50
270.0
 51
0.0
  0
ARC
  5
F9
330
1F
100
AcDbEntity
  8
0
  6
Continuous
 62
     7
370
    15
100
AcDbCircle
 10
1578.6910602888
 20
1181.3501997077
 30
0.0
 40
37.0
100
AcDbArc
 50
270.0
 51
0.0
  0
ARC
  5
FA
330
1F
100
AcDbEntity
  8
0
  6
Continuous
 62
     7
370
    15
100
AcDbCircle
 10
738.6910602888
 20
1181.3501997077
 30
0.0
 40
23.00000000000023
100
AcDbArc
 50
180.0
 51
270.0
  0
ARC
  5
FB
330
1F
100
AcDbEntity
  8
0
  6
Continuous
 62
     7
370
    15
100
AcDbCircle
 10
738.6910602888
 20
1181.3501997077
 30
0.0
 40
37.00000000000011
100
AcDbArc
 50
180.0
 51
270.0
  0
LINE
  5
FC
330
1F
100
AcDbEntity
  8
0
  6
Continuous
 62
     7
370
    15
100
AcDbLine
 10
701.6910602888
 20
1401.3501997077
 30
0.0
 11
701.6910602888
 21
1181.3501997077
 31
0.0
  0
LINE
  5
FD
330
1F
100
AcDbEntity
  8
0
  6
Continuous
 62
     7
370
    15
100
AcDbLine
 10
715.6910602888
 20
1181.3501997077
 30
0.0
 11
715.6910602888
 21
1401.3501997077
 31
0.0
  0
LINE
  5
FE
330
1F
100
AcDbEntity
  8
0
  6
Continuous
 62
     7
370
    15
100
AcDbLine
 10
850.8910602888
 20
1158.3501997077
 30
0.0
 11
738.6910602888
 21
1158.3501997077
 31
0.0
  0
LINE
  5
FF
330
1F
100
AcDbEntity
  8
0
  6
Continuous
 62
     7
370
    15
100
AcDbLine
 10
1458.9257625719
 20
1158.3501997077
 30
0.0
 11
858.4910602888
 21
1158.3501997077
 31
0.0
  0
LINE
  5
100
330
1F
100
AcDbEntity
  8
0
  6
Continuous
 62
     7
370
    15
100
AcDbLine
 10
1578.6910602888
 20
1158.3501997077
 30
0.0
 11
1466.5396921983
 21
1158.3501997077
 31
0.0
  0
LINE
  5
101
330
1F
100
AcDbEntity
  8
0
  6
Continuous
 62
     7
370
    15
100
AcDbLine
 10
1468.6330054626
 20
1144.3501997077
 30
0.0
 11
1578.6910602888
 21
1144.3501997077
 31
0.0
  0
LINE
  5
102
330
1F
100
AcDbEntity
  8
0
  6
Continuous
 62
     7
370
    15
100
AcDbLine
 10
860.6330054626
 20
1144.3501997077
 30
0.0
 11
1456.7348058016
 21
1144.3501997077
 31
0.0
  0
LINE
  5
103
330
1F
100
AcDbEntity
  8
0
  6
Continuous
 62
     7
370
    15
100
AcDbLine
 10
738.6910602888
 20
1144.3501997077
 30
0.0
 11
848.7348058016
 21
1144.3501997077
 31
0.0
  0
LINE
  5
104
330
1F
100
AcDbEntity
  8
0
  6
Continuous
 62
     7
370
    15
100
AcDbLine
 10
1601.6910602888
 20
1401.3501997077
 30
0.0
 11
1601.6910602888
 21
1181.3501997077
 31
0.0
  0
LINE
  5
105
330
1F
100
AcDbEntity
  8
0
  6
Continuous
 62
     7
370
    15
100
AcDbLine
 10
1615.6910602888
 20
1181.3501997077
 30
0.0
 11
1615.6910602888
 21
1401.3501997077
 31
0.0
  0
LINE
  5
106
330
1F
100
AcDbEntity
  8
0
  6
Continuous
 62
     7
370
    15
100
AcDbLine
 10
848.6910602888
 20
1138.8501997077
 30
0.0
 11
849.1910602888
 21
1138.3501997077
 31
0.0
  0
LINE
  5
107
330
1F
100
AcDbEntity
  8
0
  6
Continuous
 62
     7
370
    15
100
AcDbLine
 10
860.1910602887
 20
1138.3501997077
 30
0.0
 11
860.6910602888
 21
1138.8501997077
 31
0.0
  0
LINE
  5
108
330
1F
100
AcDbEntity
  8
0
  6
Continuous
 62
     7
370
    15
100
AcDbLine
 10
860.6910602888
 20
1143.8501997077
 30
0.0
 11
860.6910602888
 21
1144.3998959505
 31
0.0
  0
LINE
  5
109
330
1F
100
AcDbEntity
  8
0
  6
Continuous
 62
     7
370
    15
100
AcDbLine
 10
860.6910602888
 20
1138.8501997077
 30
0.0
 11
860.6910602888
 21
1139.8501997077
 31
0.0
  0
LINE
  5
10A
330
1F
100
AcDbEntity
  8
0
  6
Continuous
 62
     7
370
    15
100
AcDbLine
 10
848.6910602888
 20
1144.3875301351
 30
0.0
 11
848.6910602888
 21
1138.8501997077
 31
0.0
  0
LINE
  5
10B
330
1F
100
AcDbEntity
  8
0
  6
Continuous
 62
     7
370
    15
100
AcDbLine
 10
1468.6910602888
 20
1143.9275844554
 30
0.0
 11
1468.6910602888
 21
1144.3998959505
 31
0.0
  0
LINE
  5
10C
330
1F
100
AcDbEntity
  8
0
  6
Continuous
 62
     7
370
    15
100
AcDbLine
 10
1468.6910602888
 20
1138.8501997077
 30
0.0
 11
1468.6910602888
 21
1139.771453007
 31
0.0
  0
LINE
  5
10D
330
1F
100
AcDbEntity
  8
0
  6
Continuous
 62
     7
370
    15
100
AcDbLine
 10
1456.6910602888
 20
1144.3875301351
 30
0.0
 11
1456.6910602888
 21
1138.8501997077
 31
0.0
  0
LINE
  5
10E
330
1F
100
AcDbEntity
  8
0
  6
Continuous
 62
     7
370
    15
100
AcDbLine
 10
1456.6910602888
 20
1138.8501997077
 30
0.0
 11
1457.1910602888
 21
1138.3501997077
 31
0.0
  0
LINE
  5
10F
330
1F
100
AcDbEntity
  8
0
  6
Continuous
 62
     7
370
    15
100
AcDbLine
 10
1468.1910602887
 20
1138.3501997077
 30
0.0
 11
1468.6910602888
 21
1138.8501997077
 31
0.0
  0
LWPOLYLINE
  5
110
330
1F
100
AcDbEntity
  8
0
  6
Continuous
 62
     7
370
    15
100
AcDbPolyline
 90
       19
 70
   128
 43
0.0
 10
713.8912309096
 20
1416.4347482529
 10
713.6939603355
 20
1417.4553022148
 10
713.1803314421
 20
1418.3425645047
 10
712.4122954543
 20
1418.9895181959
 10
711.4824888473
 20
1419.3181311253
 10
710.5030600204
 20
1419.2887677237
 10
709.5921425449
 20
1418.9049696507
 10
708.8596065121
 20
1418.2130286182
 10
708.3938065786
 20
1417.2964029267
 10
708.2509250908
 20
1416.2656511625
 10
708.448195665
 20
1415.2450972007
 10
708.9618245584
 20
1414.3578349108
 10
709.7298605462
 20
1413.7108812196
 10
710.6596671532
 20
1413.3822682902
 10
711.6390959801
 20
1413.4116316918
 10
712.5500134556
 20
1413.7954297648
 10
713.2825494884
 20
1414.4873707972
 10
713.7483494219
 20
1415.4039964887
 10
713.8912309096
 20
1416.4347482529
  0
LINE
  5
111
330
1F
100
AcDbEntity
  8
0
  6
Continuous
 62
     7
370
    15
100
AcDbLine
 10
710.1676670324
 20
1414.5724199282
 30
0.0
 11
712.067252414
 21
1414.6293697411
 31
0.0
  0
LINE
  5
112
330
1F
100
AcDbEntity
  8
0
  6
Continuous
 62
     7
370
    15
100
AcDbLine
 10
712.067252414
 20
1414.6293697411
 30
0.0
 11
712.9706633819
 21
1416.4071495206
 31
0.0
  0
LINE
  5
113
330
1F
100
AcDbEntity
  8
0
  6
Continuous
 62
     7
370
    15
100
AcDbLine
 10
712.9706633819
 20
1416.4071495206
 30
0.0
 11
711.9744889681
 21
1418.1279794873
 31
0.0
  0
LINE
  5
114
330
1F
100
AcDbEntity
  8
0
  6
Continuous
 62
     7
370
    15
100
AcDbLine
 10
711.9744889681
 20
1418.1279794873
 30
0.0
 11
710.0749035864
 21
1418.0710296744
 31
0.0
  0
LINE
  5
115
330
1F
100
AcDbEntity
  8
0
  6
Continuous
 62
     7
370
    15
100
AcDbLine
 10
710.0749035864
 20
1418.0710296744
 30
0.0
 11
709.1714926186
 21
1416.2932498949
 31
0.0
  0
LINE
  5
116
330
1F
100
AcDbEntity
  8
0
  6
Continuous
 62
     7
370
    15
100
AcDbLine
 10
709.1714926186
 20
1416.2932498949
 30
0.0
 11
710.1676670324
 21
1414.5724199282
 31
0.0
  0
LINE
  5
117
330
1F
100
AcDbEntity
  8
0
  6
Continuous
 62
     7
370
    15
100
AcDbLine
 10
710.1444663684
 20
1414.6124976468
 30
0.0
 11
710.7072422932
 21
1414.6293697411
 31
0.0
  0
LINE
  5
118
330
1F
100
AcDbEntity
  8
0
  6
Continuous
 62
     7
370
    15
100
AcDbLine
 10
710.7072422932
 20
1414.6293697411
 30
0.0
 11
712.067252414
 21
1414.6293697411
 31
0.0
  0
LINE
  5
119
330
1F
100
AcDbEntity
  8
0
  6
Continuous
 62
     7
370
    15
100
AcDbLine
 10
711.610653261
 20
1416.4071495206
 30
0.0
 11
712.9706633819
 21
1416.4071495206
 31
0.0
  0
LINE
  5
11A
330
1F
100
AcDbEntity
  8
0
  6
Continuous
 62
     7
370
    15
100
AcDbLine
 10
711.610653261
 20
1416.4071495206
 30
0.0
 11
710.6376795112
 21
1418.0879017687
 31
0.0
  0
LINE
  5
11B
330
1F
100
AcDbEntity
  8
0
  6
Continuous
 62
     7
370
    15
100
AcDbLine
 10
710.7072422932
 20
1414.6293697411
 30
0.0
 11
711.610653261
 21
1416.4071495206
 31
0.0
  0
LINE
  5
11C
330
1F
100
AcDbEntity
  8
0
  6
Continuous
 62
     7
370
    15
100
AcDbLine
 10
1466.585772825
 20
1137.9772787131
 30
0.0
 11
1466.6910602888
 21
1137.9772787131
 31
0.0
  0
LINE
  5
11D
330
1F
100
AcDbEntity
  8
0
  6
Continuous
 62
     7
370
    15
100
AcDbLine
 10
1458.6910602888
 20
1137.9772787131
 30
0.0
 11
1458.9794782364
 21
1137.9772787131
 31
0.0
  0
LINE
  5
11E
330
1F
100
AcDbEntity
  8
0
  6
Continuous
 62
     7
370
    15
100
AcDbLine
 10
1458.9410602888
 20
1138.2272787086
 30
0.0
 11
1458.9796259236
 21
1138.2272787086
 31
0.0
  0
LINE
  5
11F
330
1F
100
AcDbEntity
  8
0
  6
Continuous
 62
     7
370
    15
100
AcDbLine
 10
861.9858112709
 20
1143.7934990104
 30
0.0
 11
861.9858112709
 21
1143.8501997077
 31
0.0
  0
LINE
  5
120
330
1F
100
AcDbEntity
  8
0
  6
Continuous
 62
     7
370
    15
100
AcDbLine
 10
861.9858112709
 20
1139.8501997077
 30
0.0
 11
861.9858112709
 21
1143.7934990104
 31
0.0
  0
LWPOLYLINE
  5
121
330
1F
100
AcDbEntity
  8
0
  6
Continuous
 62
     7
370
    15
100
AcDbPolyline
 90
       25
 70
   128
 43
0.0
 10
1460.4965658548
 20
1165.525546275
 10
1460.5101710449
 20
1165.2095377198
 10
1460.5235079716
 20
1164.5470034418
 10
1460.5363891903
 20
1163.5472550593
 10
1460.5486336615
 20
1162.2243435816
 10
1460.5600692946
 20
1160.5968619283
 10
1460.570535367
 20
1158.6876836148
 10
1460.5798847828
 20
1156.5236412747
 10
1460.5879861402
 20
1154.1351495401
 10
1460.5947255784
 20
1151.5557775769
 10
1460.6000083775
 20
1148.8217772862
 10
1460.6037602902
 20
1145.9715738
 10
1460.6059285852
 20
1143.0452254333
 10
1460.606482788
 20
1140.0838606828
 10
1460.6054151095
 20
1137.1291001845
 10
1460.6027405555
 20
1134.2224717549
 10
1460.5984967156
 20
1131.4048267359
 10
1460.5927432351
 20
1128.7157658481
 10
1460.5855609765
 20
1126.1930826204
 10
1460.5770508832
 20
1123.8722322196
 10
1460.5673325607
 20
1121.7858331434
 10
1460.5565425955
 20
1119.9632087831
 10
1460.5448326359
 20
1118.4299752958
 10
1460.5323672598
 20
1117.2076815817
 10
1460.5193216626
 20
1116.3135064235
  0
SPLINE
  5
122
330
1F
100
AcDbEntity
  8
0
  6
Continuous
 62
     7
370
    15
100
AcDbSpline
210
0.0
220
0.0
230
1.0
 70
     8
 71
     3
 72
    11
 73
     7
 74
     0
 42
0.00000001
 43
0.00000001
 40
0.0
 40
0.0
 40
0.0
 40
0.0
 40
0.2578370502811899
 40
0.5163020763645794
 40
0.7605291196682735
 40
1.0
 40
1.0
 40
1.0
 40
1.0
 10
1460.519321662584
 20
1116.313506423496
 30
0.0
 10
1460.403146125934
 20
1116.314466402598
 30
0.0
 10
1460.170512100957
 20
1116.316388698881
 30
0.0
 10
1459.863775042216
 20
1116.471332552857
 30
0.0
 10
1459.627078859414
 20
1116.721551597768
 30
0.0
 10
1459.563783188022
 20
1116.943635986863
 30
0.0
 10
1459.532446542962
 20
1117.053586312398
 30
0.0
  0
LINE
  5
123
330
1F
100
AcDbEntity
  8
0
  6
Continuous
 62
     7
370
    15
100
AcDbLine
 10
1459.503364304
 20
1164.7191226319
 30
0.0
 11
1459.5051666982
 21
1164.7261935574
 31
0.0
  0
LWPOLYLINE
  5
124
330
1F
100
AcDbEntity
  8
0
  6
Continuous
 62
     7
370
    15
100
AcDbPolyline
 90
       25
 70
   128
 43
0.0
 10
1459.5084038572
 20
1164.7230594016
 10
1459.5197622528
 20
1164.550542448
 10
1459.5330408356
 20
1164.0225267951
 10
1459.5459279187
 20
1163.1510899323
 10
1459.5582349239
 20
1161.9489836982
 10
1459.5697817613
 20
1160.4337986558
 10
1459.5803994648
 20
1158.627706687
 10
1459.5899326641
 20
1156.5571365494
 10
1459.5982418588
 20
1154.2523871408
 10
1459.6052054596
 20
1151.7471841322
 10
1459.6107215672
 20
1149.0781864557
 10
1459.6147094638
 20
1146.2844498701
 10
1459.617110794
 20
1143.4068554535
 10
1459.6178904188
 20
1140.4875113857
 10
1459.61703693
 20
1137.5691367738
 10
1459.6145628167
 20
1134.694436539
 10
1459.6105042829
 20
1131.90547651
 10
1459.6049207176
 20
1129.2430678691
 10
1459.5978938258
 20
1126.7461699569
 10
1459.5895264328
 20
1124.4513201761
 10
1459.5799409797
 20
1122.3920993353
 10
1459.5692777316
 20
1120.5986402565
 10
1459.557692725
 20
1119.0971868389
 10
1459.5453554847
 20
1117.909710028
 10
1459.532446543
 20
1117.0535863124
  0
SPLINE
  5
125
330
1F
100
AcDbEntity
  8
0
  6
Continuous
 62
     7
370
    15
100
AcDbSpline
210
0.0
220
0.0
230
1.0
 70
     8
 71
     3
 72
    11
 73
     7
 74
     0
 42
0.00000001
 43
0.00000001
 40
0.0
 40
0.0
 40
0.0
 40
0.0
 40
0.1568262108193997
 40
0.4797408937600118
 40
0.8117904110354964
 40
1.0
 40
1.0
 40
1.0
 40
1.0
 10
1460.214444642494
 20
1165.511922688587
 30
0.0
 10
1460.206257297086
 20
1165.510436454278
 30
0.0
 10
1460.181211710748
 20
1165.505889973353
 30
0.0
 10
1460.255279743991
 20
1165.519998553435
 30
0.0
 10
1460.35953396043
 20
1165.532649522357
 30
0.0
 10
1460.460162388156
 20
1165.527433301559
 30
0.0
 10
1460.4965658548
 20
1165.525546274959
 30
0.0
  0
LWPOLYLINE
  5
126
330
1F
100
AcDbEntity
  8
0
  6
Continuous
 62
     7
370
    15
100
AcDbPolyline
 90
       25
 70
   128
 43
0.0
 10
1464.8965189623
 20
1165.525546275
 10
1464.9101241525
 20
1165.2095377198
 10
1464.9234610791
 20
1164.5470034418
 10
1464.9363422979
 20
1163.5472550593
 10
1464.9485867691
 20
1162.2243435816
 10
1464.9600224021
 20
1160.5968619283
 10
1464.9704884745
 20
1158.6876836148
 10
1464.9798378903
 20
1156.5236412747
 10
1464.9879392478
 20
1154.1351495401
 10
1464.9946786859
 20
1151.5557775769
 10
1464.999961485
 20
1148.8217772862
 10
1465.0037133978
 20
1145.9715738
 10
1465.0058816928
 20
1143.0452254333
 10
1465.0064358956
 20
1140.0838606828
 10
1465.0053682171
 20
1137.1291001845
 10
1465.0026936631
 20
1134.2224717549
 10
1464.9984498232
 20
1131.4048267359
 10
1464.9926963427
 20
1128.7157658481
 10
1464.9855140841
 20
1126.1930826204
 10
1464.9770039907
 20
1123.8722322196
 10
1464.9672856682
 20
1121.7858331434
 10
1464.9564957031
 20
1119.9632087831
 10
1464.9447857434
 20
1118.4299752958
 10
1464.9323203674
 20
1117.2076815817
 10
1464.9192747701
 20
1116.3135064235
  0
SPLINE
  5
127
330
1F
100
AcDbEntity
  8
0
  6
Continuous
 62
     7
370
    15
100
AcDbSpline
210
0.0
220
0.0
230
1.0
 70
     8
 71
     3
 72
    10
 73
     6
 74
     0
 42
0.00000001
 43
0.00000001
 40
0.0
 40
0.0
 40
0.0
 40
0.0
 40
0.4401438971919462
 40
0.9161122305491075
 40
1.0
 40
1.0
 40
1.0
 40
1.0
 10
1464.919274770133
 20
1116.313506423496
 30
0.0
 10
1464.281829494794
 20
1116.357429695644
 30
0.0
 10
1462.955055644764
 20
1116.448851267264
 30
0.0
 10
1461.426809541017
 20
1116.391512644733
 30
0.0
 10
1460.63757853027
 20
1116.323671596611
 30
0.0
 10
1460.519321662584
 20
1116.313506423496
 30
0.0
  0
SPLINE
  5
128
330
1F
100
AcDbEntity
  8
0
  6
Continuous
 62
     7
370
    15
100
AcDbSpline
210
0.0
220
0.0
230
1.0
 70
     8
 71
     3
 72
    14
 73
    10
 74
     0
 42
0.00000001
 43
0.00000001
 40
0.0
 40
0.0
 40
0.0
 40
0.0
 40
0.1569475622664146
 40
0.3138942598568389
 40
0.4707159095369306
 40
0.6268370426599308
 40
0.7827598797627762
 40
0.9392925897349099
 40
1.0
 40
1.0
 40
1.0
 40
1.0
 10
1460.4965658548
 20
1165.525546274959
 30
0.0
 10
1460.655656062339
 20
1165.512215305389
 30
0.0
 10
1460.973835600936
 20
1165.485553439694
 30
0.0
 10
1461.711230446389
 20
1165.443914996915
 30
0.0
 10
1462.540700835704
 20
1165.42409112173
 30
0.0
 10
1463.390832322398
 20
1165.433433159309
 30
0.0
 10
1464.157080882547
 20
1165.467792514449
 30
0.0
 10
1464.645489780691
 20
1165.503693788488
 30
0.0
 10
1464.841690874862
 20
1165.520773403406
 30
0.0
 10
1464.89651896235
 20
1165.525546274959
 30
0.0
  0
LWPOLYLINE
  5
129
330
1F
100
AcDbEntity
  8
0
  6
Continuous
 62
     7
370
    15
100
AcDbPolyline
 90
       25
 70
   128
 43
0.0
 10
1465.8767480313
 20
1164.7265998172
 10
1465.8893098755
 20
1164.550542448
 10
1465.9025884583
 20
1164.0225267951
 10
1465.9154755414
 20
1163.1510899323
 10
1465.9277825466
 20
1161.9489836982
 10
1465.939329384
 20
1160.4337986558
 10
1465.9499470874
 20
1158.627706687
 10
1465.9594802867
 20
1156.5571365494
 10
1465.9677894815
 20
1154.2523871408
 10
1465.9747530822
 20
1151.7471841322
 10
1465.9802691898
 20
1149.0781864557
 10
1465.9842570864
 20
1146.2844498701
 10
1465.9866584166
 20
1143.4068554535
 10
1465.9874380415
 20
1140.4875113857
 10
1465.9865845526
 20
1137.5691367738
 10
1465.9841104393
 20
1134.694436539
 10
1465.9800519055
 20
1131.90547651
 10
1465.9744683402
 20
1129.2430678691
 10
1465.9674414484
 20
1126.7461699569
 10
1465.9590740555
 20
1124.4513201761
 10
1465.9494886024
 20
1122.3920993353
 10
1465.9388253542
 20
1120.5986402565
 10
1465.9272403476
 20
1119.0971868389
 10
1465.9149031073
 20
1117.909710028
 10
1465.9019941656
 20
1117.0535863124
  0
SPLINE
  5
12A
330
1F
100
AcDbEntity
  8
0
  6
Continuous
 62
     7
370
    15
100
AcDbSpline
210
0.0
220
0.0
230
1.0
 70
     8
 71
     3
 72
    12
 73
     8
 74
     0
 42
0.00000001
 43
0.00000001
 40
0.0
 40
0.0
 40
0.0
 40
0.0
 40
0.2058401614518982
 40
0.4122790289054432
 40
0.6248255725522065
 40
0.858143618269923
 40
1.0
 40
1.0
 40
1.0
 40
1.0
 10
1465.901994165605
 20
1117.053586312398
 30
0.0
 10
1465.87665910137
 20
1116.958832402289
 30
0.0
 10
1465.825915283419
 20
1116.769048981165
 30
0.0
 10
1465.646357752732
 20
1116.539988852771
 30
0.0
 10
1465.405069528542
 20
1116.377095977525
 30
0.0
 10
1465.150470175165
 20
1116.305507728742
 30
0.0
 10
1464.982707244656
 20
1116.311311842678
 30
0.0
 10
1464.919274770133
 20
1116.313506423496
 30
0.0
  0
SPLINE
  5
12B
330
1F
100
AcDbEntity
  8
0
  6
Continuous
 62
     7
370
    15
100
AcDbSpline
210
0.0
220
0.0
230
1.0
 70
     8
 71
     3
 72
     9
 73
     5
 74
     0
 42
0.00000001
 43
0.00000001
 40
0.0
 40
0.0
 40
0.0
 40
0.0
 40
0.5146216968696623
 40
1.0
 40
1.0
 40
1.0
 40
1.0
 10
1464.89651896235
 20
1165.525546274959
 30
0.0
 10
1464.984593035532
 20
1165.524415812813
 30
0.0
 10
1465.155736369981
 20
1165.522219127068
 30
0.0
 10
1465.163804167999
 20
1165.515281939053
 30
0.0
 10
1465.167720102111
 20
1165.511914778505
 30
0.0
  0
LINE
  5
12C
330
1F
100
AcDbEntity
  8
0
  6
Continuous
 62
     7
370
    15
100
AcDbLine
 10
1459.532446543
 20
1117.0535863124
 30
0.0
 11
1458.9154474507
 21
1120.5525716391
 31
0.0
  0
LINE
  5
12D
330
1F
100
AcDbEntity
  8
0
  6
Continuous
 62
     7
370
    15
100
AcDbLine
 10
1458.796288029
 20
1138.0825064515
 30
0.0
 11
1458.7961474691
 21
1138.3501997077
 31
0.0
  0
LWPOLYLINE
  5
12E
330
1F
100
AcDbEntity
  8
0
  6
Continuous
 62
     7
370
    15
100
AcDbPolyline
 90
       29
 70
   128
 43
0.0
 10
1458.8424283793
 20
1158.3501997077
 10
1458.8432921868
 20
1158.4597172201
 10
1458.8545075719
 20
1159.6596243516
 10
1458.8663508176
 20
1160.5317160727
 10
1458.8786187195
 20
1161.0610291693
 10
1458.8911007868
 20
1161.2384817695
 10
1458.903582854
 20
1161.0610291693
 10
1458.9158507559
 20
1160.5317160727
 10
1458.9276940017
 20
1159.6596243516
 10
1458.9389093868
 20
1158.4597172201
 10
1458.9493044793
 20
1156.9525824979
 10
1458.958700922
 20
1155.1640793683
 10
1458.9669374921
 20
1153.1248946896
 10
1458.9738728677
 20
1150.8700164753
 10
1458.9793880529
 20
1148.4381335751
 10
1458.9833884189
 20
1145.8709718573
 10
1458.9858053281
 20
1143.2125782835
 10
1458.9865973114
 20
1140.5085651569
 10
1458.9857507803
 20
1137.8053275141
 10
1458.9832802593
 20
1135.149247086
 10
1458.9792281373
 20
1132.5858964874
 10
1458.9736639398
 20
1130.159257289
 10
1458.9666831367
 20
1127.9109653888
 10
1458.9584055033
 20
1125.8795966294
 10
1458.9489730661
 20
1124.1000049199
 10
1458.9385476654
 20
1122.602724218
 10
1458.9273081784
 20
1121.413444633
 10
1458.9154474507
 20
1120.5525716391
 10
1458.9154474507
 20
1120.5525716391
  0
LWPOLYLINE
  5
12F
330
1F
100
AcDbEntity
  8
0
  6
Continuous
 62
     7
370
    15
100
AcDbPolyline
 90
       23
 70
   128
 43
0.0
 10
1466.4935202134
 20
1161.2313901775
 10
1466.503501858
 20
1161.0610291693
 10
1466.5157697599
 20
1160.5317160727
 10
1466.5276130057
 20
1159.6596243516
 10
1466.5388283907
 20
1158.4597172201
 10
1466.5492234833
 20
1156.9525824979
 10
1466.558619926
 20
1155.1640793683
 10
1466.566856496
 20
1153.1248946896
 10
1466.5737918717
 20
1150.8700164753
 10
1466.5793070568
 20
1148.4381335751
 10
1466.5833074228
 20
1145.8709718573
 10
1466.585724332
 20
1143.2125782835
 10
1466.5865163154
 20
1140.5085651569
 10
1466.5856697843
 20
1137.8053275141
 10
1466.5831992633
 20
1135.149247086
 10
1466.5791471412
 20
1132.5858964874
 10
1466.5735829438
 20
1130.159257289
 10
1466.5666021406
 20
1127.9109653888
 10
1466.5583245073
 20
1125.8795966294
 10
1466.5488920701
 20
1124.1000049199
 10
1466.5384666693
 20
1122.602724218
 10
1466.5272271824
 20
1121.413444633
 10
1466.5153664546
 20
1120.5525716391
  0
LINE
  5
130
330
1F
100
AcDbEntity
  8
0
  6
Continuous
 62
     7
370
    15
100
AcDbLine
 10
1466.5153664546
 20
1120.5525716391
 30
0.0
 11
1465.9019941656
 21
1117.0535863124
 31
0.0
  0
LINE
  5
131
330
1F
100
AcDbEntity
  8
0
  6
Continuous
 62
     7
370
    15
100
AcDbLine
 10
1458.8026555208
 20
1138.0888739432
 30
0.0
 11
1458.8025086391
 21
1138.3501997077
 31
0.0
  0
LWPOLYLINE
  5
132
330
1F
100
AcDbEntity
  8
0
  6
Continuous
 62
     7
370
    15
100
AcDbPolyline
 90
       26
 70
   128
 43
0.0
 10
1458.8564390017
 20
1158.3501997077
 10
1458.8670692485
 20
1159.1544424031
 10
1458.8789723159
 20
1159.6895586581
 10
1458.8911007868
 20
1159.869042626
 10
1458.9032292577
 20
1159.6895586581
 10
1458.9151323251
 20
1159.1544424031
 10
1458.9265887745
 20
1158.2736388152
 10
1458.9373856917
 20
1157.0635173302
 10
1458.9473224196
 20
1155.5465676455
 10
1458.9562142876
 20
1153.7509817566
 10
1458.9638960432
 20
1151.7101300182
 10
1458.9702249237
 20
1149.4619409676
 10
1458.9750833089
 20
1147.0481964359
 10
1458.9783809074
 20
1144.5137550466
 10
1458.9800564345
 20
1141.9057185332
 10
1458.9800787511
 20
1139.2725563699
 10
1458.9784474423
 20
1136.6632049823
 10
1458.9751928256
 20
1134.1261582811
 10
1458.9703753869
 20
1131.7085664187
 10
1458.9640846566
 20
1129.4553595198
 10
1458.9564375459
 20
1127.4084126706
 10
1458.9475761736
 20
1125.605767684
 10
1458.9376652254
 20
1124.0809261056
 10
1458.926888893
 20
1122.862226599
 10
1458.9154474507
 20
1121.9723182812
 10
1458.9154474507
 20
1121.9723182812
  0
LINE
  5
133
330
1F
100
AcDbEntity
  8
0
  6
Continuous
 62
     7
370
    15
100
AcDbLine
 10
1458.9154474507
 20
1120.5525716391
 30
0.0
 11
1458.9154474507
 21
1121.9723182812
 31
0.0
  0
LINE
  5
134
330
1F
100
AcDbEntity
  8
0
  6
Continuous
 62
     7
370
    15
100
AcDbLine
 10
1454.1911508765
 20
1100.0537621977
 30
0.0
 11
1471.1910602888
 21
1100.0537621977
 31
0.0
  0
LINE
  5
135
330
1F
100
AcDbEntity
  8
0
  6
Continuous
 62
     7
370
    15
100
AcDbLine
 10
1456.691124233
 20
1129.0537621977
 30
0.0
 11
1458.9627471766
 21
1129.0537621977
 31
0.0
  0
LINE
  5
136
330
1F
100
AcDbEntity
  8
0
  6
Continuous
 62
     7
370
    15
100
AcDbLine
 10
1466.5703971746
 20
1129.0537621977
 30
0.0
 11
1468.6910602888
 21
1129.0537621977
 31
0.0
  0
SPLINE
  5
137
330
1F
100
AcDbEntity
  8
0
  6
Continuous
 62
     7
370
    15
100
AcDbSpline
210
0.0
220
0.0
230
1.0
 70
     8
 71
     3
 72
    12
 73
     8
 74
     0
 42
0.00000001
 43
0.00000001
 40
0.0
 40
0.0
 40
0.0
 40
0.0
 40
0.2058401614519041
 40
0.412279028905441
 40
0.6248255725522098
 40
0.8581436182699261
 40
1.0
 40
1.0
 40
1.0
 40
1.0
 10
857.8758680417793
 20
1116.821059771144
 30
0.0
 10
857.8504668958523
 20
1116.726305861035
 30
0.0
 10
857.7995907223103
 20
1116.536522439911
 30
0.0
 10
857.6195906385378
 20
1116.307462311516
 30
0.0
 10
857.3777617641116
 20
1116.144569436271
 30
0.0
 10
857.1226539419202
 20
1116.072981187488
 30
0.0
 10
856.9546020295778
 20
1116.078785301424
 30
0.0
 10
856.8910602887671
 20
1116.080979882242
 30
0.0
  0
LINE
  5
138
330
1F
100
AcDbEntity
  8
0
  6
Continuous
 62
     7
370
    15
100
AcDbLine
 10
856.8910602888
 20
1165.2930197337
 30
0.0
 11
856.8910602888
 21
1116.0809798822
 31
0.0
  0
SPLINE
  5
139
330
1F
100
AcDbEntity
  8
0
  6
Continuous
 62
     7
370
    15
100
AcDbSpline
210
0.0
220
0.0
230
1.0
 70
     8
 71
     3
 72
     9
 73
     5
 74
     0
 42
0.00000001
 43
0.00000001
 40
0.0
 40
0.0
 40
0.0
 40
0.0
 40
0.5003663671784581
 40
1.0
 40
1.0
 40
1.0
 40
1.0
 10
856.8910602887671
 20
1165.293019733704
 30
0.0
 10
856.9796054098283
 20
1165.291877679289
 30
0.0
 10
857.156565986856
 20
1165.28959524288
 30
0.0
 10
857.1659850554973
 20
1165.282437248313
 30
0.0
 10
857.1706911389804
 20
1165.278860873484
 30
0.0
  0
SPLINE
  5
13A
330
1F
100
AcDbEntity
  8
0
  6
Continuous
 62
     7
370
    15
100
AcDbSpline
210
0.0
220
0.0
230
1.0
 70
     8
 71
     3
 72
    10
 73
     6
 74
     0
 42
0.00000001
 43
0.00000001
 40
0.0
 40
0.0
 40
0.0
 40
0.0
 40
0.4401438971919407
 40
0.9161122305491078
 40
1.0
 40
1.0
 40
1.0
 40
1.0
 10
856.8910602887671
 20
1116.080979882242
 30
0.0
 10
856.252834022778
 20
1116.12490315439
 30
0.0
 10
854.924434624625
 20
1116.21632472601
 30
0.0
 10
853.3971425552485
 20
1116.158986103478
 30
0.0
 10
852.6091339878727
 20
1116.091145055356
 30
0.0
 10
852.4910602887671
 20
1116.080979882242
 30
0.0
  0
LINE
  5
13B
330
1F
100
AcDbEntity
  8
0
  6
Continuous
 62
     7
370
    15
100
AcDbLine
 10
852.4910602888
 20
1165.2930197337
 30
0.0
 11
852.4910602888
 21
1116.0809798822
 31
0.0
  0
SPLINE
  5
13C
330
1F
100
AcDbEntity
  8
0
  6
Continuous
 62
     7
370
    15
100
AcDbSpline
210
0.0
220
0.0
230
1.0
 70
     8
 71
     3
 72
    14
 73
    10
 74
     0
 42
0.00000001
 43
0.00000001
 40
0.0
 40
0.0
 40
0.0
 40
0.0
 40
0.1569475622664183
 40
0.3138942598568378
 40
0.4707159095369336
 40
0.6268370426599237
 40
0.7827598797627724
 40
0.9392925897349125
 40
1.0
 40
1.0
 40
1.0
 40
1.0
 10
852.4910602887671
 20
1165.293019733704
 30
0.0
 10
852.649069791036
 20
1165.279688764135
 30
0.0
 10
852.9650879250474
 20
1165.25302689844
 30
0.0
 10
853.7003955257148
 20
1165.211388455661
 30
0.0
 10
854.5289582207694
 20
1165.191564580476
 30
0.0
 10
855.3795150531781
 20
1165.200906618054
 30
0.0
 10
856.1474555039889
 20
1165.235265973195
 30
0.0
 10
856.6380561218078
 20
1165.271167247234
 30
0.0
 10
856.8358008384147
 20
1165.288246862152
 30
0.0
 10
856.8910602887672
 20
1165.293019733704
 30
0.0
  0
SPLINE
  5
13D
330
1F
100
AcDbEntity
  8
0
  6
Continuous
 62
     7
370
    15
100
AcDbSpline
210
0.0
220
0.0
230
1.0
 70
     8
 71
     3
 72
    11
 73
     7
 74
     0
 42
0.00000001
 43
0.00000001
 40
0.0
 40
0.0
 40
0.0
 40
0.0
 40
0.257837050281203
 40
0.51630207636459
 40
0.760529119668275
 40
1.0
 40
1.0
 40
1.0
 40
1.0
 10
852.4910602887671
 20
1116.080979882242
 30
0.0
 10
852.3750864378397
 20
1116.081939861344
 30
0.0
 10
852.1428562755243
 20
1116.083862157627
 30
0.0
 10
851.8367720848487
 20
1116.238806011603
 30
0.0
 10
851.6006408012146
 20
1116.489025056513
 30
0.0
 10
851.5375083655122
 20
1116.711109445608
 30
0.0
 10
851.5062525357549
 20
1116.821059771144
 30
0.0
  0
SPLINE
  5
13E
330
1F
100
AcDbEntity
  8
0
  6
Continuous
 62
     7
370
    15
100
AcDbSpline
210
0.0
220
0.0
230
1.0
 70
     8
 71
     3
 72
    11
 73
     7
 74
     0
 42
0.00000001
 43
0.00000001
 40
0.0
 40
0.0
 40
0.0
 40
0.0
 40
0.1332840505982885
 40
0.4652147979624853
 40
0.8065354323402211
 40
1.0
 40
1.0
 40
1.0
 40
1.0
 10
852.2114382010544
 20
1165.278862363397
 30
0.0
 10
852.2046559284494
 20
1165.277678446914
 30
0.0
 10
852.18098307663
 20
1165.273546103509
 30
0.0
 10
852.2531721550572
 20
1165.287580552911
 30
0.0
 10
852.3551908539349
 20
1165.300108847045
 30
0.0
 10
852.4549656375063
 20
1165.294903005495
 30
0.0
 10
852.4910602887671
 20
1165.293019733704
 30
0.0
  0
LINE
  5
13F
330
1F
100
AcDbEntity
  8
0
  6
Continuous
 62
     7
370
    15
100
AcDbLine
 10
858.4910602888
 20
1161.0059552282
 30
0.0
 11
858.4910602888
 21
1120.3200450979
 31
0.0
  0
LINE
  5
140
330
1F
100
AcDbEntity
  8
0
  6
Continuous
 62
     7
370
    15
100
AcDbLine
 10
858.4910602888
 20
1120.3200450979
 30
0.0
 11
857.8758680418
 21
1116.8210597711
 31
0.0
  0
LINE
  5
141
330
1F
100
AcDbEntity
  8
0
  6
Continuous
 62
     7
370
    15
100
AcDbLine
 10
851.5062525358
 20
1116.8210597711
 30
0.0
 11
850.8910602888
 21
1120.3200450979
 31
0.0
  0
LINE
  5
142
330
1F
100
AcDbEntity
  8
0
  6
Continuous
 62
     7
370
    15
100
AcDbLine
 10
850.8910602888
 20
1161.0059552282
 30
0.0
 11
850.8910602888
 21
1120.3200450979
 31
0.0
  0
LINE
  5
143
330
1F
100
AcDbEntity
  8
0
  6
Continuous
 62
     7
370
    15
100
AcDbLine
 10
846.1910602888
 20
1099.8212356565
 30
0.0
 11
863.1910602888
 21
1099.8212356565
 31
0.0
  0
LINE
  5
144
330
1F
100
AcDbEntity
  8
0
  6
Continuous
 62
     7
370
    15
100
AcDbLine
 10
848.6910602888
 20
1128.8212356565
 30
0.0
 11
850.8910602888
 21
1128.8212356565
 31
0.0
  0
LINE
  5
145
330
1F
100
AcDbEntity
  8
0
  6
Continuous
 62
     7
370
    15
100
AcDbLine
 10
858.4910602888
 20
1128.8212356565
 30
0.0
 11
860.691059566
 21
1128.8212356565
 31
0.0
  0
LINE
  5
146
330
1F
100
AcDbEntity
  8
0
  6
Continuous
 62
     7
370
    15
100
AcDbLine
 10
903.7368223036
 20
1079.3212356565
 30
0.0
 11
903.7368223036
 21
1084.3212356565
 31
0.0
  0
LINE
  5
147
330
1F
100
AcDbEntity
  8
0
  6
Continuous
 62
     7
370
    15
100
AcDbLine
 10
903.9868223036
 20
1079.616464745
 30
0.0
 11
903.9868223036
 21
1079.5712356565
 31
0.0
  0
LINE
  5
148
330
1F
100
AcDbEntity
  8
0
  6
Continuous
 62
     7
370
    15
100
AcDbLine
 10
903.9868223036
 20
1084.0712356565
 30
0.0
 11
903.9868223036
 21
1079.616464745
 31
0.0
  0
LINE
  5
149
330
1F
100
AcDbEntity
  8
0
  6
Continuous
 62
     7
370
    15
100
AcDbLine
 10
805.645298274
 20
1084.3212356565
 30
0.0
 11
805.645298274
 21
1079.3212356565
 31
0.0
  0
LINE
  5
14A
330
1F
100
AcDbEntity
  8
0
  6
Continuous
 62
     7
370
    15
100
AcDbLine
 10
805.395298274
 20
1079.5712356565
 30
0.0
 11
805.395298274
 21
1084.0712356565
 31
0.0
  0
CIRCLE
  5
14B
330
1F
100
AcDbEntity
  8
0
  6
Continuous
 62
     7
370
    15
100
AcDbCircle
 10
1462.9174938271
 20
1082.0537447611
 30
0.0
 40
2.499981884693466
  0
CIRCLE
  5
14C
330
1F
100
AcDbEntity
  8
0
  6
Continuous
 62
     7
370
    15
100
AcDbCircle
 10
1462.918659518
 20
1082.0537466019
 30
0.0
 40
2.249986088091945
  0
ARC
  5
14D
330
1F
100
AcDbEntity
  8
0
  6
Continuous
 62
     7
370
    15
100
AcDbCircle
 10
1462.8540315475
 20
1082.0537621977
 30
0.0
 40
2.500000000068975
100
AcDbArc
 50
90.0004256118
 51
269.9995743882
  0
ARC
  5
14E
330
1F
100
AcDbEntity
  8
0
  6
Continuous
 62
     7
370
    15
100
AcDbCircle
 10
1462.851723294
 20
1082.0537621977
 30
0.0
 40
2.500000094381608
100
AcDbArc
 50
90.2914051158
 51
269.7085947148
  0
ARC
  5
14F
330
1F
100
AcDbEntity
  8
0
  6
Continuous
 62
     7
370
    15
100
AcDbCircle
 10
1462.8494148928
 20
1082.0537621977
 30
0.0
 40
2.500000085809412
100
AcDbArc
 50
90.2649571028
 51
269.7350419864
  0
ARC
  5
150
330
1F
100
AcDbEntity
  8
0
  6
Continuous
 62
     7
370
    15
100
AcDbCircle
 10
1323.0239758553
 20
1082.0537621977
 30
0.0
 40
188.7288826195481
100
AcDbArc
 50
359.2410083917
 51
0.7589916083
  0
LINE
  5
151
330
1F
100
AcDbEntity
  8
0
  6
Continuous
 62
     7
370
    15
100
AcDbLine
 10
1511.988369278
 20
1079.8489912863
 30
0.0
 11
1511.9863448986
 21
1079.8037861773
 31
0.0
  0
ARC
  5
152
330
1F
100
AcDbEntity
  8
0
  6
Continuous
 62
     7
370
    15
100
AcDbCircle
 10
1300.6255591981
 20
1081.980315192
 30
0.0
 40
211.3735556461012
100
AcDbArc
 50
359.422264845
 51
0.6298092205
  0
CIRCLE
  5
153
330
1F
100
AcDbEntity
  8
0
  6
Continuous
 62
     7
370
    15
100
AcDbCircle
 10
854.6910602888
 20
1081.8212356565
 30
0.0
 40
2.500000000000154
  0
CIRCLE
  5
154
330
1F
100
AcDbEntity
  8
0
  6
Continuous
 62
     7
370
    15
100
AcDbCircle
 10
854.6910602888
 20
1081.8212356565
 30
0.0
 40
2.249999999999934
  0
ARC
  5
155
330
1F
100
AcDbEntity
  8
0
  6
Continuous
 62
     7
370
    15
100
AcDbCircle
 10
1226.1834839058
 20
1082.0537621977
 30
0.0
 40
187.4789527036007
100
AcDbArc
 50
359.2359560078
 51
0.7640439922
  0
LWPOLYLINE
  5
156
330
1F
100
AcDbEntity
  8
0
  6
Continuous
 62
     7
370
    15
100
AcDbPolyline
 90
       17
 70
   128
 43
0.0
 10
1413.3937512995
 20
1079.8489912863
 10
1413.3978043575
 20
1079.845043961
 10
1413.4015558688
 20
1080.1773539653
 10
1413.4044346998
 20
1080.7953301132
 10
1413.4060025746
 20
1081.6048911383
 10
1413.4060207986
 20
1082.4827887131
 10
1413.4044865971
 20
1083.2953708902
 10
1413.4016335386
 20
1083.918929399
 10
1413.3978959753
 20
1084.2585331092
 10
1413.3938429173
 20
1084.2624804344
 10
1413.3900914061
 20
1083.9301704302
 10
1413.387212575
 20
1083.3121942823
 10
1413.3856447002
 20
1082.5026332572
 10
1413.3856264762
 20
1081.6247356823
 10
1413.3871606777
 20
1080.8121535053
 10
1413.3900137362
 20
1080.1885949965
 10
1413.3937512995
 20
1079.8489912863
  0
LINE
  5
157
330
1F
100
AcDbEntity
  8
0
  6
Continuous
 62
     7
370
    15
100
AcDbLine
 10
806.1910602888
 20
1095.8212356565
 30
0.0
 11
903.1910602888
 21
1095.8212356565
 31
0.0
  0
LINE
  5
158
330
1F
100
AcDbEntity
  8
0
  6
Continuous
 62
     7
370
    15
100
AcDbLine
 10
904.1910602888
 20
1094.8212356565
 30
0.0
 11
805.1910602888
 21
1094.8212356565
 31
0.0
  0
LINE
  5
159
330
1F
100
AcDbEntity
  8
0
  6
Continuous
 62
     7
370
    15
100
AcDbLine
 10
805.1910602888
 20
1092.8212356565
 30
0.0
 11
904.1910602888
 21
1092.8212356565
 31
0.0
  0
LINE
  5
15A
330
1F
100
AcDbEntity
  8
0
  6
Continuous
 62
     7
370
    15
100
AcDbLine
 10
1413.1910602888
 20
1093.0537621977
 30
0.0
 11
1512.1910602888
 21
1093.0537621977
 31
0.0
  0
LINE
  5
15B
330
1F
100
AcDbEntity
  8
0
  6
Continuous
 62
     7
370
    15
100
AcDbLine
 10
1413.1915878288
 20
1095.0537621977
 30
0.0
 11
1413.1910602888
 21
1095.0537621977
 31
0.0
  0
LINE
  5
15C
330
1F
100
AcDbEntity
  8
0
  6
Continuous
 62
     7
370
    15
100
AcDbLine
 10
1512.1910602888
 20
1095.0537621977
 30
0.0
 11
1413.1915878288
 21
1095.0537621977
 31
0.0
  0
LINE
  5
15D
330
1F
100
AcDbEntity
  8
0
  6
Continuous
 62
     7
370
    15
100
AcDbLine
 10
1414.1910602888
 20
1096.0537621977
 30
0.0
 11
1511.1910602888
 21
1096.0537621977
 31
0.0
  0
SPLINE
  5
15E
330
1F
100
AcDbEntity
  8
0
  6
Continuous
 62
     7
370
    15
100
AcDbSpline
210
0.0
220
0.0
230
1.0
 70
     8
 71
     3
 72
    13
 73
     9
 74
     0
 42
0.00000001
 43
0.00000001
 40
0.0
 40
0.0
 40
0.0
 40
0.0
 40
0.0031406793936918
 40
0.2171177923212895
 40
0.4310842464228072
 40
0.6457283938747271
 40
0.8606891148012182
 40
1.0
 40
1.0
 40
1.0
 40
1.0
 10
1462.853049696387
 20
1085.051322153855
 30
0.0
 10
1462.85789709628
 20
1085.052134003208
 30
0.0
 10
1463.193001903658
 20
1085.108257827728
 30
0.0
 10
1463.878529423757
 20
1084.909044053015
 30
0.0
 10
1464.769701726708
 20
1084.441858601298
 30
0.0
 10
1465.445968610729
 20
1083.666026994847
 30
0.0
 10
1465.801770214247
 20
1082.827458471215
 30
0.0
 10
1465.837837895475
 20
1082.272133624243
 30
0.0
 10
1465.852020857113
 20
1082.053762197724
 30
0.0
  0
SPLINE
  5
15F
330
1F
100
AcDbEntity
  8
0
  6
Continuous
 62
     7
370
    15
100
AcDbSpline
210
0.0
220
0.0
230
1.0
 70
     8
 71
     3
 72
    12
 73
     8
 74
     0
 42
0.00000001
 43
0.00000001
 40
0.0
 40
0.0
 40
0.0
 40
0.0
 40
0.2238521187137143
 40
0.447690712793796
 40
0.671880148683517
 40
0.896299236326029
 40
1.0
 40
1.0
 40
1.0
 40
1.0
 10
1505.098444235809
 20
1082.057173205186
 30
0.0
 10
1505.100681761764
 20
1081.720559326197
 30
0.0
 10
1505.105156678488
 20
1081.04735190566
 30
0.0
 10
1505.136509895566
 20
1080.146435311786
 30
0.0
 10
1505.169153942702
 20
1079.478383307298
 30
0.0
 10
1505.190724057501
 20
1079.110999378875
 30
0.0
 10
1505.188733307924
 20
1079.10718849443
 30
0.0
 10
1505.188104140714
 20
1079.105984082001
 30
0.0
  0
SPLINE
  5
160
330
1F
100
AcDbEntity
  8
0
  6
Continuous
 62
     7
370
    15
100
AcDbSpline
210
0.0
220
0.0
230
1.0
 70
     8
 71
     3
 72
    12
 73
     8
 74
     0
 42
0.00000001
 43
0.00000001
 40
0.0
 40
0.0
 40
0.0
 40
0.0
 40
0.1839837798453474
 40
0.4076570420961362
 40
0.6318124822325984
 40
0.856187311094543
 40
1.0
 40
1.0
 40
1.0
 40
1.0
 10
1505.189377396694
 20
1085.026012382305
 30
0.0
 10
1505.188441744216
 20
1084.995215710858
 30
0.0
 10
1505.186368597757
 20
1084.926978826068
 30
0.0
 10
1505.157966208139
 20
1084.427691604561
 30
0.0
 10
1505.124375029706
 20
1083.666133602777
 30
0.0
 10
1505.101718274546
 20
1082.825081513758
 30
0.0
 10
1505.099363861052
 20
1082.272866396808
 30
0.0
 10
1505.098444235809
 20
1082.057173205186
 30
0.0
  0
SPLINE
  5
161
330
1F
100
AcDbEntity
  8
0
  6
Continuous
 62
     7
370
    15
100
AcDbSpline
210
0.0
220
0.0
230
1.0
 70
     8
 71
     3
 72
    18
 73
    14
 74
     0
 42
0.00000001
 43
0.00000001
 40
0.0
 40
0.0
 40
0.0
 40
0.0
 40
0.0357172677358036
 40
0.1406074578441155
 40
0.2455931829720308
 40
0.3508070240926223
 40
0.4560265660321851
 40
0.5610189613024625
 40
0.6659063114658587
 40
0.7709741726510283
 40
0.8762266621400843
 40
0.9813801000998065
 40
1.0
 40
1.0
 40
1.0
 40
1.0
 10
1420.194190559335
 20
1079.095318436529
 30
0.0
 10
1420.193989457531
 20
1079.084896830362
 30
0.0
 10
1420.193197784059
 20
1079.043870300545
 30
0.0
 10
1420.216269721701
 20
1079.320885781011
 30
0.0
 10
1420.254549667356
 20
1079.897688032049
 30
0.0
 10
1420.293275707766
 20
1080.741269897924
 30
0.0
 10
1420.314399067729
 20
1081.72739481564
 30
0.0
 10
1420.309511364386
 20
1082.751983509662
 30
0.0
 10
1420.280794917622
 20
1083.694950932303
 30
0.0
 10
1420.239575557628
 20
1084.46254086793
 30
0.0
 10
1420.205269485716
 20
1084.929941892708
 30
0.0
 10
1420.188655948561
 20
1085.115541927566
 30
0.0
 10
1420.192208718269
 20
1085.037719617825
 30
0.0
 10
1420.19274318084
 20
1085.026012382305
 30
0.0
  0
SPLINE
  5
162
330
1F
100
AcDbEntity
  8
0
  6
Continuous
 62
     7
370
    15
100
AcDbSpline
210
0.0
220
0.0
230
1.0
 70
    11
 71
     3
 72
    26
 73
    22
 74
     0
 42
0.00000001
 43
0.00000001
 40
0.0
 40
0.0
 40
0.0
 40
0.0
 40
0.0535975479309452
 40
0.1071918576204845
 40
0.1608701703599687
 40
0.2146034692702261
 40
0.2682456544619712
 40
0.3217931606457111
 40
0.3753894384261834
 40
0.4291021717352009
 40
0.4828178153701403
 40
0.5364174983259575
 40
0.5899635546890066
 40
0.6436017637599947
 40
0.6973342274532109
 40
0.7510161243358003
 40
0.8045818816904905
 40
0.8581467581544844
 40
0.9118271057240519
 40
0.9655599921168121
 40
1.0
 40
1.0
 40
1.0
 40
1.0
 10
1465.88675192432
 20
1082.057173205186
 30
0.0
 10
1465.85367898955
 20
1082.394048990165
 30
0.0
 10
1465.7875351182
 20
1083.067780206858
 30
0.0
 10
1465.271992402576
 20
1083.964766459186
 30
0.0
 10
1464.51205677925
 20
1084.647781276295
 30
0.0
 10
1463.561785425444
 20
1085.039255513969
 30
0.0
 10
1462.537579530872
 20
1085.094388335361
 30
0.0
 10
1461.553313290219
 20
1084.808020256405
 30
0.0
 10
1460.718927325537
 20
1084.212739648546
 30
0.0
 10
1460.127567723536
 20
1083.374152084034
 30
0.0
 10
1459.847169485276
 20
1082.386572921308
 30
0.0
 10
1459.909493817386
 20
1081.362803319553
 30
0.0
 10
1460.306309026506
 20
1080.418012014387
 30
0.0
 10
1460.993323487949
 20
1079.656912733169
 30
0.0
 10
1461.894447887576
 20
1079.165334332966
 30
0.0
 10
1462.907558322992
 20
1078.999884904015
 30
0.0
 10
1463.916728813786
 20
1079.178603545817
 30
0.0
 10
1464.811026255891
 20
1079.680579636293
 30
0.0
 10
1465.484709263466
 20
1080.449860115389
 30
0.0
 10
1465.83742085754
 20
1081.289020084804
 30
0.0
 10
1465.872895614757
 20
1081.841411249832
 30
0.0
 10
1465.88675192432
 20
1082.057173205186
 30
0.0
  0
LINE
  5
163
330
1F
100
AcDbEntity
  8
0
  6
Continuous
 62
     7
370
    15
100
AcDbLine
 10
1505.1910602888
 20
1091.5571732052
 30
0.0
 11
1420.1910602888
 21
1091.5571732052
 31
0.0
  0
LINE
  5
164
330
1F
100
AcDbEntity
  8
0
  6
Continuous
 62
     7
370
    15
100
AcDbLine
 10
1420.6910602888
 20
1092.0571732052
 30
0.0
 11
1504.6910602888
 21
1092.0571732052
 31
0.0
  0
SPLINE
  5
165
330
1F
100
AcDbEntity
  8
0
  6
Continuous
 62
     7
370
    15
100
AcDbSpline
210
0.0
220
0.0
230
1.0
 70
     8
 71
     3
 72
    12
 73
     8
 74
     0
 42
0.00000001
 43
0.00000001
 40
0.0
 40
0.0
 40
0.0
 40
0.0
 40
0.214300448585691
 40
0.4285851152354321
 40
0.6432791425806548
 40
0.8582414853201821
 40
1.0
 40
1.0
 40
1.0
 40
1.0
 10
1465.868233814155
 20
1082.057173205186
 30
0.0
 10
1465.835176791827
 20
1081.720584700134
 30
0.0
 10
1465.769065181621
 20
1081.047432477743
 30
0.0
 10
1465.253910276289
 20
1080.147881024281
 30
0.0
 10
1464.494093523383
 20
1079.475336215239
 30
0.0
 10
1463.651983258824
 20
1079.092815268767
 30
0.0
 10
1463.090044655773
 20
1079.094570807963
 30
0.0
 10
1462.866733963243
 20
1079.095268447654
 30
0.0
  0
SPLINE
  5
166
330
1F
100
AcDbEntity
  8
0
  6
Continuous
 62
     7
370
    15
100
AcDbSpline
210
0.0
220
0.0
230
1.0
 70
     8
 71
     3
 72
    13
 73
     9
 74
     0
 42
0.00000001
 43
0.00000001
 40
0.0
 40
0.0
 40
0.0
 40
0.0
 40
0.00377427485568
 40
0.2178761289609539
 40
0.4319716052593356
 40
0.6466285815424211
 40
0.8615441730460264
 40
1.0
 40
1.0
 40
1.0
 40
1.0
 10
1462.869285160776
 20
1085.054249769624
 30
0.0
 10
1462.875110853741
 20
1085.055222029683
 30
0.0
 10
1463.211408415597
 20
1085.11134731628
 30
0.0
 10
1463.898060894935
 20
1084.911433969529
 30
0.0
 10
1464.78908342017
 20
1084.442719622116
 30
0.0
 10
1465.464451910877
 20
1083.665779711238
 30
0.0
 10
1465.818464472418
 20
1082.828026796939
 30
0.0
 10
1465.854223091017
 20
1082.274178612069
 30
0.0
 10
1465.868233814155
 20
1082.057173205186
 30
0.0
  0
SPLINE
  5
167
330
1F
100
AcDbEntity
  8
0
  6
Continuous
 62
     7
370
    15
100
AcDbSpline
210
0.0
220
0.0
230
1.0
 70
     8
 71
     3
 72
    12
 73
     8
 74
     0
 42
0.00000001
 43
0.00000001
 40
0.0
 40
0.0
 40
0.0
 40
0.0
 40
0.2144736996691212
 40
0.4289344413272634
 40
0.6437313260665807
 40
0.8587482411604894
 40
1.0
 40
1.0
 40
1.0
 40
1.0
 10
897.08504571123
 20
1081.824646663932
 30
0.0
 10
897.0874412779302
 20
1081.487956679546
 30
0.0
 10
897.0922322665959
 20
1080.814597052813
 30
0.0
 10
897.125887613881
 20
1079.914822548909
 30
0.0
 10
897.1623425175109
 20
1079.24242260722
 30
0.0
 10
897.18851068997
 20
1078.860359940803
 30
0.0
 10
897.1884205185955
 20
1078.86218010651
 30
0.0
 10
897.1883847678654
 20
1078.862901757405
 30
0.0
  0
SPLINE
  5
168
330
1F
100
AcDbEntity
  8
0
  6
Continuous
 62
     7
370
    15
100
AcDbSpline
210
0.0
220
0.0
230
1.0
 70
     8
 71
     3
 72
    13
 73
     9
 74
     0
 42
0.00000001
 43
0.00000001
 40
0.0
 40
0.0
 40
0.0
 40
0.0
 40
0.0044324299498528
 40
0.2186163032839896
 40
0.4327966543570687
 40
0.6474387192165607
 40
0.8622908617302752
 40
1.0
 40
1.0
 40
1.0
 40
1.0
 10
897.1908250561077
 20
1084.821223833814
 30
0.0
 10
897.1909033264417
 20
1084.822362927201
 30
0.0
 10
897.1947637757302
 20
1084.878545289552
 30
0.0
 10
897.1805472253704
 20
1084.678055548653
 30
0.0
 10
897.1504246478103
 20
1084.208002778254
 30
0.0
 10
897.1125926444386
 20
1083.430126061063
 30
0.0
 10
897.0885834174301
 20
1082.593072295392
 30
0.0
 10
897.0860393964563
 20
1082.0404851633
 30
0.0
 10
897.08504571123
 20
1081.824646663932
 30
0.0
  0
SPLINE
  5
169
330
1F
100
AcDbEntity
  8
0
  6
Continuous
 62
     7
370
    15
100
AcDbSpline
210
0.0
220
0.0
230
1.0
 70
     8
 71
     3
 72
    17
 73
    13
 74
     0
 42
0.00000001
 43
0.00000001
 40
0.0
 40
0.0
 40
0.0
 40
0.0
 40
0.036685626978268
 40
0.1437795795724721
 40
0.2509710743948856
 40
0.3583954779695899
 40
0.4658257021385367
 40
0.5730240072442494
 40
0.6801150602257658
 40
0.7873904167993384
 40
0.8948542807519474
 40
1.0
 40
1.0
 40
1.0
 40
1.0
 10
812.193735809669
 20
1078.862901757405
 30
0.0
 10
812.1930022819956
 20
1078.852399426643
 30
0.0
 10
812.1901274149386
 20
1078.811238328254
 30
0.0
 10
812.209653476886
 20
1079.088305486386
 30
0.0
 10
812.2440881055279
 20
1079.665188018449
 30
0.0
 10
812.2800875554674
 20
1080.508691026341
 30
0.0
 10
812.2999013367191
 20
1081.495050851725
 30
0.0
 10
812.2953612690277
 20
1082.518780855617
 30
0.0
 10
812.2682516365435
 20
1083.464945984654
 30
0.0
 10
812.2310420353822
 20
1084.220578453401
 30
0.0
 10
812.1979871516933
 20
1084.729158585539
 30
0.0
 10
812.1935097921937
 20
1084.790759301285
 30
0.0
 10
812.1912955214265
 20
1084.821223833814
 30
0.0
  0
LINE
  5
16A
330
1F
100
AcDbEntity
  8
0
  6
Continuous
 62
     7
370
    15
100
AcDbLine
 10
897.1910602888
 20
1091.3246466639
 30
0.0
 11
812.1910602888
 21
1091.3246466639
 31
0.0
  0
SPLINE
  5
16B
330
1F
100
AcDbEntity
  8
0
  6
Continuous
 62
     7
370
    15
100
AcDbSpline
210
0.0
220
0.0
230
1.0
 70
    11
 71
     3
 72
    26
 73
    22
 74
     0
 42
0.00000001
 43
0.00000001
 40
0.0
 40
0.0
 40
0.0
 40
0.0
 40
0.0535975479309459
 40
0.1071918576204868
 40
0.1608701703599691
 40
0.2146034692702279
 40
0.2682456544619714
 40
0.3217931606457118
 40
0.3753894384261824
 40
0.4291021717352004
 40
0.4828178153701402
 40
0.5364174983259575
 40
0.5899635546890063
 40
0.6436017637599946
 40
0.6973342274532098
 40
0.7510161243358017
 40
0.8045818816904897
 40
0.8581467581544826
 40
0.9118271057240515
 40
0.965559992116812
 40
1.0
 40
1.0
 40
1.0
 40
1.0
 10
857.6910602887673
 20
1081.824646663932
 30
0.0
 10
857.6579758818373
 20
1082.161522448911
 30
0.0
 10
857.5918090668617
 20
1082.835253665604
 30
0.0
 10
857.076106372858
 20
1083.732239917932
 30
0.0
 10
856.3159909299529
 20
1084.415254735041
 30
0.0
 10
855.3655858755767
 20
1084.806728972714
 30
0.0
 10
854.3413504765044
 20
1084.861861794107
 30
0.0
 10
853.3571672002531
 20
1084.575493715151
 30
0.0
 10
852.5229372376248
 20
1083.980213107292
 30
0.0
 10
851.9317359386949
 20
1083.14162554278
 30
0.0
 10
851.6514266498257
 20
1082.154046380053
 30
0.0
 10
851.713730440575
 20
1081.130276778299
 30
0.0
 10
852.1104252374403
 20
1080.185485473133
 30
0.0
 10
852.7972733945862
 20
1079.424386191915
 30
0.0
 10
853.6982605667562
 20
1078.932807791712
 30
0.0
 10
854.7113263030031
 20
1078.76735836276
 30
0.0
 10
855.7205672926808
 20
1078.946077004562
 30
0.0
 10
856.6150234563294
 20
1079.448053095039
 30
0.0
 10
857.2888855824353
 20
1080.217333574135
 30
0.0
 10
857.6417124496518
 20
1081.056493543549
 30
0.0
 10
857.6771992681224
 20
1081.608884708578
 30
0.0
 10
857.6910602887673
 20
1081.824646663932
 30
0.0
  0
LINE
  5
16C
330
1F
100
AcDbEntity
  8
0
  6
Continuous
 62
     7
370
    15
100
AcDbLine
 10
812.6910602888
 20
1091.8246466639
 30
0.0
 11
896.6910602888
 21
1091.8246466639
 31
0.0
  0
LINE
  5
16D
330
1F
100
AcDbEntity
  8
0
  6
Continuous
 62
     7
370
    15
100
AcDbLine
 10
1602.6910602888
 20
2380.9731620635
 30
0.0
 11
1614.6910602888
 21
2380.9731620635
 31
0.0
  0
LINE
  5
16E
330
1F
100
AcDbEntity
  8
0
  6
Continuous
 62
     7
370
    15
100
AcDbLine
 10
1604.6963211641
 20
2380.2231620635
 30
0.0
 11
1603.7107260415
 21
2380.2231620635
 31
0.0
  0
LINE
  5
16F
330
1F
100
AcDbEntity
  8
0
  6
Continuous
 62
     7
370
    15
100
AcDbLine
 10
1603.7107260415
 20
2380.2231620635
 30
0.0
 11
1603.7107260415
 21
2378.9731620635
 31
0.0
  0
LINE
  5
170
330
1F
100
AcDbEntity
  8
0
  6
Continuous
 62
     7
370
    15
100
AcDbLine
 10
1604.6963211641
 20
2378.9731620635
 30
0.0
 11
1614.6910602888
 21
2378.9731620635
 31
0.0
  0
LINE
  5
171
330
1F
100
AcDbEntity
  8
0
  6
Continuous
 62
     7
370
    15
100
AcDbLine
 10
1602.6910602888
 20
2378.9731620635
 30
0.0
 11
1603.7107260415
 21
2378.9731620635
 31
0.0
  0
LINE
  5
172
330
1F
100
AcDbEntity
  8
0
  6
Continuous
 62
     7
370
    15
100
AcDbLine
 10
1604.6963211641
 20
2378.9731620635
 30
0.0
 11
1604.6963211641
 21
2380.2231620635
 31
0.0
  0
LINE
  5
173
330
1F
100
AcDbEntity
  8
0
  6
Continuous
 62
     7
370
    15
100
AcDbLine
 10
1605.5660602888
 20
2370.9731620635
 30
0.0
 11
1611.8160602888
 21
2370.9731620635
 31
0.0
  0
LINE
  5
174
330
1F
100
AcDbEntity
  8
0
  6
Continuous
 62
     7
370
    15
100
AcDbLine
 10
1605.5660602888
 20
2375.9731620635
 30
0.0
 11
1611.8160602888
 21
2375.9731620635
 31
0.0
  0
LINE
  5
175
330
1F
100
AcDbEntity
  8
0
  6
Continuous
 62
     7
370
    15
100
AcDbLine
 10
1604.6963211641
 20
2378.9731620635
 30
0.0
 11
1603.7107260415
 21
2378.9731620635
 31
0.0
  0
LINE
  5
176
330
1F
100
AcDbEntity
  8
0
  6
Continuous
 62
     7
370
    15
100
AcDbLine
 10
1600.6910602888
 20
2406.9731620635
 30
0.0
 11
1616.6910602888
 21
2406.9731620635
 31
0.0
  0
LINE
  5
177
330
1F
100
AcDbEntity
  8
0
  6
Continuous
 62
     7
370
    15
100
AcDbLine
 10
1600.6910602888
 20
2404.9731620635
 30
0.0
 11
1616.6910602888
 21
2404.9731620635
 31
0.0
  0
SPLINE
  5
178
330
1F
100
AcDbEntity
  8
0
  6
Continuous
 62
     7
370
    15
100
AcDbSpline
210
0.0
220
0.0
230
1.0
 70
    11
 71
     3
 72
    26
 73
    22
 74
     0
 42
0.00000001
 43
0.00000001
 40
0.0
 40
0.0
 40
0.0
 40
0.0
 40
0.0525376719149682
 40
0.1050348970573351
 40
0.1585749085383208
 40
0.2128466440085035
 40
0.2660104874889082
 40
0.3180045209554664
 40
0.3704807849944666
 40
0.424374626303276
 40
0.4785123923432394
 40
0.5312166189811118
 40
0.5830729394225317
 40
0.6359557906056565
 40
0.6901521276152737
 40
0.7439358686007994
 40
0.7962685295206722
 40
0.8483329090777668
 40
0.9016524469021455
 40
0.95593985918066
 40
1.0
 40
1.0
 40
1.0
 40
1.0
 10
1604.134989619044
 20
2402.340038373767
 30
0.0
 10
1604.145707061568
 20
2402.174329060555
 30
0.0
 10
1604.167133695661
 20
2401.843038007482
 30
0.0
 10
1604.337970094522
 20
2401.400132044992
 30
0.0
 10
1604.604698000602
 20
2401.056312661765
 30
0.0
 10
1604.963874015121
 20
2400.853725295699
 30
0.0
 10
1605.376389369606
 20
2400.819694059149
 30
0.0
 10
1605.793424065319
 20
2400.951797983314
 30
0.0
 10
1606.169889309794
 20
2401.232772841091
 30
0.0
 10
1606.458362495486
 20
2401.639597969554
 30
0.0
 10
1606.60821971937
 20
2402.129044671752
 30
0.0
 10
1606.592809565868
 20
2402.636986952835
 30
0.0
 10
1606.422139805209
 20
2403.106042521658
 30
0.0
 10
1606.122060411176
 20
2403.494888466128
 30
0.0
 10
1605.729924777605
 20
2403.761162482632
 30
0.0
 10
1605.3029904026
 20
2403.867112449316
 30
0.0
 10
1604.901118497783
 20
2403.802728752444
 30
0.0
 10
1604.561338646673
 20
2403.581725297278
 30
0.0
 10
1604.307986053954
 20
2403.22392264381
 30
0.0
 10
1604.159534847778
 20
2402.78846750157
 30
0.0
 10
1604.142583774983
 20
2402.478779827792
 30
0.0
 10
1604.134989619044
 20
2402.340038373767
 30
0.0
  0
SPLINE
  5
179
330
1F
100
AcDbEntity
  8
0
  6
Continuous
 62
     7
370
    15
100
AcDbSpline
210
0.0
220
0.0
230
1.0
 70
     8
 71
     3
 72
    13
 73
     9
 74
     0
 42
0.00000001
 43
0.00000001
 40
0.0
 40
0.0
 40
0.0
 40
0.0
 40
0.1834164399518921
 40
0.3669757122729549
 40
0.5483704391837865
 40
0.735433985240304
 40
0.9289765408626149
 40
0.9999999999999999
 40
0.9999999999999999
 40
0.9999999999999999
 40
0.9999999999999999
 10
1604.821287316076
 20
2402.973162063494
 30
0.0
 10
1604.785763905832
 20
2402.819459652058
 30
0.0
 10
1604.714689422105
 20
2402.511935136099
 30
0.0
 10
1604.736987293628
 20
2402.014126936348
 30
0.0
 10
1604.852568643048
 20
2401.553548640639
 30
0.0
 10
1605.075078977885
 20
2401.179623156854
 30
0.0
 10
1605.318519497574
 20
2400.947904873387
 30
0.0
 10
1605.502818962965
 20
2400.911650235765
 30
0.0
 10
1605.552294650767
 20
2400.901917580662
 30
0.0
  0
LINE
  5
17A
330
1F
100
AcDbEntity
  8
0
  6
Continuous
 62
     7
370
    15
100
AcDbLine
 10
1606.4440589072
 20
2402.9731620635
 30
0.0
 11
1604.8029442373
 21
2402.9731620635
 31
0.0
  0
SPLINE
  5
17B
330
1F
100
AcDbEntity
  8
0
  6
Continuous
 62
     7
370
    15
100
AcDbSpline
210
0.0
220
0.0
230
1.0
 70
     8
 71
     3
 72
    10
 73
     6
 74
     0
 42
0.00000001
 43
0.00000001
 40
0.0
 40
0.0
 40
0.0
 40
0.0
 40
0.3245121275804899
 40
0.7060666445396023
 40
1.0
 40
1.0
 40
1.0
 40
1.0
 10
1605.768431036315
 20
2403.703716281217
 30
0.0
 10
1605.653004338259
 20
2403.644338285218
 30
0.0
 10
1605.401861362511
 20
2403.515144893563
 30
0.0
 10
1605.081602556523
 20
2403.247316375971
 30
0.0
 10
1604.900216196424
 20
2403.056287019564
 30
0.0
 10
1604.821287316076
 20
2402.973162063494
 30
0.0
  0
LINE
  5
17C
330
1F
100
AcDbEntity
  8
0
  6
Continuous
 62
     7
370
    15
100
AcDbLine
 10
1612.8927547973
 20
1420.3501997077
 30
0.0
 11
1623.4410602888
 21
1420.3501997077
 31
0.0
  0
LINE
  5
17D
330
1F
100
AcDbEntity
  8
0
  6
Continuous
 62
     7
370
    15
100
AcDbLine
 10
1593.9410602888
 20
1420.3501997077
 30
0.0
 11
1612.8927547973
 21
1420.3501997077
 31
0.0
  0
LINE
  5
17E
330
1F
100
AcDbEntity
  8
0
  6
Continuous
 62
     7
370
    15
100
AcDbLine
 10
1612.8927547973
 20
1422.8501997077
 30
0.0
 11
1593.9410602888
 21
1422.8501997077
 31
0.0
  0
LINE
  5
17F
330
1F
100
AcDbEntity
  8
0
  6
Continuous
 62
     7
370
    15
100
AcDbLine
 10
1623.4410602888
 20
1422.8501997077
 30
0.0
 11
1612.8927547973
 21
1422.8501997077
 31
0.0
  0
LINE
  5
180
330
1F
100
AcDbEntity
  8
0
  6
Continuous
 62
     7
370
    15
100
AcDbLine
 10
1612.750324475
 20
1423.3501997077
 30
0.0
 11
1622.9410602888
 21
1423.3501997077
 31
0.0
  0
LINE
  5
181
330
1F
100
AcDbEntity
  8
0
  6
Continuous
 62
     7
370
    15
100
AcDbLine
 10
1594.4410602888
 20
1423.3501997077
 30
0.0
 11
1612.750324475
 21
1423.3501997077
 31
0.0
  0
LINE
  5
182
330
1F
100
AcDbEntity
  8
0
  6
Continuous
 62
     7
370
    15
100
AcDbLine
 10
1610.6850848013
 20
1401.3501997077
 30
0.0
 11
1615.6910602888
 21
1401.3501997077
 31
0.0
  0
LINE
  5
183
330
1F
100
AcDbEntity
  8
0
  6
Continuous
 62
     7
370
    15
100
AcDbLine
 10
1601.6910602888
 20
1401.3501997077
 30
0.0
 11
1610.6850848013
 21
1401.3501997077
 31
0.0
  0
LINE
  5
184
330
1F
100
AcDbEntity
  8
0
  6
Continuous
 62
     7
370
    15
100
AcDbLine
 10
713.5360963443
 20
1423.3501997077
 30
0.0
 11
722.9410602888
 21
1423.3501997077
 31
0.0
  0
LINE
  5
185
330
1F
100
AcDbEntity
  8
0
  6
Continuous
 62
     7
370
    15
100
AcDbLine
 10
694.4410602888
 20
1423.3501997077
 30
0.0
 11
713.5360963443
 21
1423.3501997077
 31
0.0
  0
LINE
  5
186
330
1F
100
AcDbEntity
  8
0
  6
Continuous
 62
     7
370
    15
100
AcDbLine
 10
713.7060976094
 20
1422.8501997077
 30
0.0
 11
693.9410602888
 21
1422.8501997077
 31
0.0
  0
LINE
  5
187
330
1F
100
AcDbEntity
  8
0
  6
Continuous
 62
     7
370
    15
100
AcDbLine
 10
723.4410602888
 20
1422.8501997077
 30
0.0
 11
713.7060976094
 21
1422.8501997077
 31
0.0
  0
LINE
  5
188
330
1F
100
AcDbEntity
  8
0
  6
Continuous
 62
     7
370
    15
100
AcDbLine
 10
713.7060976094
 20
1420.3501997077
 30
0.0
 11
723.4410602888
 21
1420.3501997077
 31
0.0
  0
LINE
  5
189
330
1F
100
AcDbEntity
  8
0
  6
Continuous
 62
     7
370
    15
100
AcDbLine
 10
693.9410602888
 20
1420.3501997077
 30
0.0
 11
713.7060976094
 21
1420.3501997077
 31
0.0
  0
SPLINE
  5
18A
330
1F
100
AcDbEntity
  8
0
  6
Continuous
 62
     7
370
    15
100
AcDbSpline
210
0.0
220
0.0
230
1.0
 70
     8
 71
     3
 72
    12
 73
     8
 74
     0
 42
0.00000001
 43
0.00000001
 40
0.0
 40
0.0
 40
0.0
 40
0.0
 40
0.205263718073005
 40
0.4101977582922878
 40
0.6235436751494674
 40
0.8432583796856781
 40
1.0
 40
1.0
 40
1.0
 40
1.0
 10
708.5630539911948
 20
1416.350199707739
 30
0.0
 10
708.5907866941208
 20
1416.621023907964
 30
0.0
 10
708.6462075579658
 20
1417.16223733266
 30
0.0
 10
709.0700958171728
 20
1417.891311375649
 30
0.0
 10
709.6905569752931
 20
1418.460874170552
 30
0.0
 10
710.4037437284891
 20
1418.808639922453
 30
0.0
 10
710.8740816040088
 20
1418.819249432717
 30
0.0
 10
711.069911812821
 20
1418.823666815875
 30
0.0
  0
SPLINE
  5
18B
330
1F
100
AcDbEntity
  8
0
  6
Continuous
 62
     7
370
    15
100
AcDbSpline
210
0.0
220
0.0
230
1.0
 70
     8
 71
     3
 72
    12
 73
     8
 74
     0
 42
0.00000001
 43
0.00000001
 40
0.0
 40
0.0
 40
0.0
 40
0.0
 40
0.1502259875265016
 40
0.3515391572998822
 40
0.5609777442336727
 40
0.7801257146963406
 40
1.0
 40
1.0
 40
1.0
 40
1.0
 10
711.0697928713851
 20
1413.876079093737
 30
0.0
 10
710.8822834649778
 20
1413.879439094397
 30
0.0
 10
710.4434985396821
 20
1413.887301727353
 30
0.0
 10
709.761870892473
 20
1414.199134277266
 30
0.0
 10
709.128081947416
 20
1414.73557820913
 30
0.0
 10
708.6587100309985
 20
1415.480435032828
 30
0.0
 10
708.5949744856515
 20
1416.0599585631
 30
0.0
 10
708.5630539911947
 20
1416.350199707739
 30
0.0
  0
LINE
  5
18C
330
1F
100
AcDbEntity
  8
0
  6
Continuous
 62
     7
370
    15
100
AcDbLine
 10
711.0710780002
 20
1401.3501997077
 30
0.0
 11
715.6910602888
 21
1401.3501997077
 31
0.0
  0
LINE
  5
18D
330
1F
100
AcDbEntity
  8
0
  6
Continuous
 62
     7
370
    15
100
AcDbLine
 10
701.6910602888
 20
1401.3501997077
 30
0.0
 11
711.0710780002
 21
1401.3501997077
 31
0.0
  0
LINE
  5
18E
330
1F
100
AcDbEntity
  8
0
  6
Continuous
 62
     7
370
    15
100
AcDbLine
 10
1608.8782301748
 20
3864.0855574177
 30
0.0
 11
1609.3160602888
 21
3864.0855574177
 31
0.0
  0
LINE
  5
18F
330
1F
100
AcDbEntity
  8
0
  6
Continuous
 62
     7
370
    15
100
AcDbLine
 10
1608.0660602888
 20
3864.0855574177
 30
0.0
 11
1608.8782301748
 21
3864.0855574177
 31
0.0
  0
LINE
  5
190
330
1F
100
AcDbEntity
  8
0
  6
Continuous
 62
     7
370
    15
100
AcDbLine
 10
714.1910602888
 20
2360.9731620635
 30
0.0
 11
703.1910602888
 21
2360.9731620635
 31
0.0
  0
LINE
  5
191
330
1F
100
AcDbEntity
  8
0
  6
Continuous
 62
     7
370
    15
100
AcDbLine
 10
700.118125616
 20
2363.4731620635
 30
0.0
 11
717.6910602888
 21
2363.4731620635
 31
0.0
  0
LINE
  5
192
330
1F
100
AcDbEntity
  8
0
  6
Continuous
 62
     7
370
    15
100
AcDbLine
 10
699.6910602888
 20
2363.4731620635
 30
0.0
 11
700.118125616
 21
2363.4731620635
 31
0.0
  0
LINE
  5
193
330
1F
100
AcDbEntity
  8
0
  6
Continuous
 62
     7
370
    15
100
AcDbLine
 10
703.094839044
 20
2361.4731620635
 30
0.0
 11
714.5660602888
 21
2361.4731620635
 31
0.0
  0
LINE
  5
194
330
1F
100
AcDbEntity
  8
0
  6
Continuous
 62
     7
370
    15
100
AcDbLine
 10
702.8160602888
 20
2361.4731620635
 30
0.0
 11
703.094839044
 21
2361.4731620635
 31
0.0
  0
LINE
  5
195
330
1F
100
AcDbEntity
  8
0
  6
Continuous
 62
     7
370
    15
100
AcDbLine
 10
743.2474108641
 20
2368.9731620635
 30
0.0
 11
627.6910602888
 21
2368.9731620635
 31
0.0
  0
LINE
  5
196
330
1F
100
AcDbEntity
  8
0
  6
Continuous
 62
     7
370
    15
100
AcDbLine
 10
789.6910602888
 20
2368.9731620635
 30
0.0
 11
743.2474108641
 21
2368.9731620635
 31
0.0
  0
LINE
  5
197
330
1F
100
AcDbEntity
  8
0
  6
Continuous
 62
     7
370
    15
100
AcDbLine
 10
744.5272757002
 20
2406.9731620635
 30
0.0
 11
624.6910602888
 21
2406.9731620635
 31
0.0
  0
LINE
  5
198
330
1F
100
AcDbEntity
  8
0
  6
Continuous
 62
     7
370
    15
100
AcDbLine
 10
792.6910602888
 20
2406.9731620635
 30
0.0
 11
744.5272757002
 21
2406.9731620635
 31
0.0
  0
LINE
  5
199
330
1F
100
AcDbEntity
  8
0
  6
Continuous
 62
     7
370
    15
100
AcDbLine
 10
708.6910602888
 20
1401.3501997077
 30
0.0
 11
715.6910602888
 21
1401.3501997077
 31
0.0
  0
LINE
  5
19A
330
1F
100
AcDbEntity
  8
0
  6
Continuous
 62
     7
370
    15
100
AcDbLine
 10
701.6910602888
 20
1401.3501997077
 30
0.0
 11
708.6910602888
 21
1401.3501997077
 31
0.0
  0
SPLINE
  5
19B
330
1F
100
AcDbEntity
  8
0
  6
Continuous
 62
     7
370
    15
100
AcDbSpline
210
0.0
220
0.0
230
1.0
 70
     8
 71
     3
 72
    11
 73
     7
 74
     0
 42
0.00000001
 43
0.00000001
 40
0.0
 40
0.0
 40
0.0
 40
0.0
 40
0.1482899773066252
 40
0.4328683574636183
 40
0.7394774251620251
 40
1.0
 40
1.0
 40
1.0
 40
1.0
 10
1468.633005462571
 20
1144.399896303989
 30
0.0
 10
1468.645223555664
 20
1144.389575727252
 30
0.0
 10
1468.680888986228
 20
1144.35944927379
 30
0.0
 10
1468.268452148955
 20
1144.70721813579
 30
0.0
 10
1467.605557037617
 20
1145.276002548788
 30
0.0
 10
1466.904786192154
 20
1145.784182375687
 30
0.0
 10
1466.582873938739
 20
1146.017624326469
 30
0.0
  0
SPLINE
  5
19C
330
1F
100
AcDbEntity
  8
0
  6
Continuous
 62
     7
370
    15
100
AcDbSpline
210
0.0
220
0.0
230
1.0
 70
     8
 71
     3
 72
    11
 73
     7
 74
     0
 42
0.00000001
 43
0.00000001
 40
0.0
 40
0.0
 40
0.0
 40
0.0
 40
0.0298453656038758
 40
0.46310982671546
 40
0.7647657909189896
 40
1.0
 40
1.0
 40
1.0
 40
1.0
 10
1458.975655943045
 20
1146.160089003384
 30
0.0
 10
1458.93186740722
 20
1146.132901864758
 30
0.0
 10
1458.252401740511
 20
1145.711039682699
 30
0.0
 10
1457.501958546974
 20
1145.017306240936
 30
0.0
 10
1456.773349166886
 20
1144.424514807567
 30
0.0
 10
1456.746548363103
 20
1144.398842588353
 30
0.0
 10
1456.734805801599
 20
1144.387594507307
 30
0.0
  0
SPLINE
  5
19D
330
1F
100
AcDbEntity
  8
0
  6
Continuous
 62
     7
370
    15
100
AcDbSpline
210
0.0
220
0.0
230
1.0
 70
     8
 71
     3
 72
    11
 73
     7
 74
     0
 42
0.00000001
 43
0.00000001
 40
0.0
 40
0.0
 40
0.0
 40
0.0
 40
0.1444960616153855
 40
0.4217936639243068
 40
0.7205583110209623
 40
1.0
 40
1.0
 40
1.0
 40
1.0
 10
860.6330054625706
 20
1144.399896303989
 30
0.0
 10
860.6451974469477
 20
1144.389588757243
 30
0.0
 10
860.6807866644216
 20
1144.359500339198
 30
0.0
 10
860.2693597859696
 20
1144.706765164363
 30
0.0
 10
859.5816039821221
 20
1145.29529232259
 30
0.0
 10
858.8463848073038
 20
1145.827999765182
 30
0.0
 10
858.4910602887671
 20
1146.085452266481
 30
0.0
  0
SPLINE
  5
19E
330
1F
100
AcDbEntity
  8
0
  6
Continuous
 62
     7
370
    15
100
AcDbSpline
210
0.0
220
0.0
230
1.0
 70
     8
 71
     3
 72
    11
 73
     7
 74
     0
 42
0.00000001
 43
0.00000001
 40
0.0
 40
0.0
 40
0.0
 40
0.0
 40
0.010695124463603
 40
0.4525119530160352
 40
0.76012241586451
 40
1.0
 40
1.0
 40
1.0
 40
1.0
 10
850.891060288767
 20
1146.107194215252
 30
0.0
 10
850.8757413841728
 20
1146.097640800725
 30
0.0
 10
850.2275967590577
 20
1145.693434727158
 30
0.0
 10
849.5037825470218
 20
1145.017320559862
 30
0.0
 10
848.7730617744985
 20
1144.424512551453
 30
0.0
 10
848.746460806587
 20
1144.398841901009
 30
0.0
 10
848.7348058015994
 20
1144.387594507307
 30
0.0
  0
LINE
  5
19F
330
1F
100
AcDbEntity
  8
0
  6
Continuous
 62
     7
370
    15
100
AcDbLine
 10
1608.6910602888
 20
1401.3501997077
 30
0.0
 11
1601.6910602888
 21
1401.3501997077
 31
0.0
  0
LINE
  5
1A0
330
1F
100
AcDbEntity
  8
0
  6
Continuous
 62
     7
370
    15
100
AcDbLine
 10
1615.6910602888
 20
1401.3501997077
 30
0.0
 11
1608.6910602888
 21
1401.3501997077
 31
0.0
  0
LINE
  5
1A1
330
1F
100
AcDbEntity
  8
0
  6
Continuous
 62
     7
370
    15
100
AcDbLine
 10
858.4910602888
 20
1138.8501997077
 30
0.0
 11
860.6910602888
 21
1138.8501997077
 31
0.0
  0
LINE
  5
1A2
330
1F
100
AcDbEntity
  8
0
  6
Continuous
 62
     7
370
    15
100
AcDbLine
 10
848.6910602888
 20
1138.8501997077
 30
0.0
 11
850.8910602888
 21
1138.8501997077
 31
0.0
  0
LINE
  5
1A3
330
1F
100
AcDbEntity
  8
0
  6
Continuous
 62
     7
370
    15
100
AcDbLine
 10
850.8910602888
 20
1138.3501997077
 30
0.0
 11
849.1910602888
 21
1138.3501997077
 31
0.0
  0
LINE
  5
1A4
330
1F
100
AcDbEntity
  8
0
  6
Continuous
 62
     7
370
    15
100
AcDbLine
 10
860.1910602887
 20
1138.3501997077
 30
0.0
 11
858.4910602888
 21
1138.3501997077
 31
0.0
  0
LINE
  5
1A5
330
1F
100
AcDbEntity
  8
0
  6
Continuous
 62
     7
370
    15
100
AcDbLine
 10
1456.6910602888
 20
1138.8501997077
 30
0.0
 11
1458.9799276302
 21
1138.8501997077
 31
0.0
  0
LINE
  5
1A6
330
1F
100
AcDbEntity
  8
0
  6
Continuous
 62
     7
370
    15
100
AcDbLine
 10
1466.5861921187
 20
1138.8501997077
 30
0.0
 11
1468.6910602888
 21
1138.8501997077
 31
0.0
  0
SPLINE
  5
1A7
330
1F
100
AcDbEntity
  8
0
  6
Continuous
 62
     7
370
    15
100
AcDbSpline
210
0.0
220
0.0
230
1.0
 70
     8
 71
     3
 72
    12
 73
     8
 74
     0
 42
0.00000001
 43
0.00000001
 40
0.0
 40
0.0
 40
0.0
 40
0.0
 40
0.2057438749361831
 40
0.4111709840884789
 40
0.6246881526911893
 40
0.8442949894604311
 40
1.0
 40
1.0
 40
1.0
 40
1.0
 10
1468.311558487326
 20
1141.850199707738
 30
0.0
 10
1468.319894181048
 20
1142.078034992947
 30
0.0
 10
1468.336552734756
 20
1142.533354785376
 30
0.0
 10
1468.451980117285
 20
1143.146529284894
 30
0.0
 10
1468.580471750265
 20
1143.624639572002
 30
0.0
 10
1468.678797338818
 20
1143.915562775078
 30
0.0
 10
1468.681927776582
 20
1143.924059452686
 30
0.0
 10
1468.683226496162
 20
1143.92758445539
 30
0.0
  0
LINE
  5
1A8
330
1F
100
AcDbEntity
  8
0
  6
Continuous
 62
     7
370
    15
100
AcDbLine
 10
1468.3220343317
 20
1142.0264367589
 30
0.0
 11
1468.3221841686
 21
1141.6800332579
 31
0.0
  0
SPLINE
  5
1A9
330
1F
100
AcDbEntity
  8
0
  6
Continuous
 62
     7
370
    15
100
AcDbSpline
210
0.0
220
0.0
230
1.0
 70
     8
 71
     3
 72
    12
 73
     8
 74
     0
 42
0.00000001
 43
0.00000001
 40
0.0
 40
0.0
 40
0.0
 40
0.0
 40
0.1524935029801476
 40
0.354419037115586
 40
0.5643139208638904
 40
0.7834439846634199
 40
1.0
 40
1.0
 40
1.0
 40
1.0
 10
1468.683695296251
 20
1139.771453006992
 30
0.0
 10
1468.682423547011
 20
1139.774912373876
 30
0.0
 10
1468.67946780049
 20
1139.782952490052
 30
0.0
 10
1468.589581882646
 20
1140.04852411878
 30
0.0
 10
1468.46398698088
 20
1140.502684284107
 30
0.0
 10
1468.339538439124
 20
1141.127635884162
 30
0.0
 10
1468.320848330655
 20
1141.610295623371
 30
0.0
 10
1468.311558487326
 20
1141.850199707738
 30
0.0
  0
LINE
  5
1AA
330
1F
100
AcDbEntity
  8
0
  6
Continuous
 62
     7
370
    15
100
AcDbLine
 10
1468.1910602887
 20
1138.3501997077
 30
0.0
 11
1466.5859731084
 21
1138.3501997077
 31
0.0
  0
LINE
  5
1AB
330
1F
100
AcDbEntity
  8
0
  6
Continuous
 62
     7
370
    15
100
AcDbLine
 10
1458.9796929345
 20
1138.3501997077
 30
0.0
 11
1457.1910602888
 21
1138.3501997077
 31
0.0
  0
LWPOLYLINE
  5
1AC
330
1F
100
AcDbEntity
  8
0
  6
Continuous
 62
     8
370
    15
100
AcDbPolyline
 90
        3
 70
   128
 43
0.0
 10
1459.5051666982
 20
1164.7261935574
 10
1459.5062864774
 20
1164.7274103754
 10
1459.5084038572
 20
1164.7230594016
  0
LINE
  5
1AD
330
1F
100
AcDbEntity
  8
0
  6
Continuous
 62
     8
370
    15
100
AcDbLine
 10
1456.1911295617
 20
1102.0537621977
 30
0.0
 11
1469.1910602888
 21
1102.0537621977
 31
0.0
  0
LINE
  5
1AE
330
1F
100
AcDbEntity
  8
0
  6
Continuous
 62
     8
370
    15
100
AcDbLine
 10
1469.1910602888
 20
1128.5537621977
 30
0.0
 11
1466.5688036071
 21
1128.5537621977
 31
0.0
  0
LINE
  5
1AF
330
1F
100
AcDbEntity
  8
0
  6
Continuous
 62
     8
370
    15
100
AcDbLine
 10
1458.9609775224
 20
1128.5537621977
 30
0.0
 11
1456.1911295617
 21
1128.5537621977
 31
0.0
  0
LINE
  5
1B0
330
1F
100
AcDbEntity
  8
0
  6
Continuous
 62
     8
370
    15
100
AcDbLine
 10
857.8758680418
 20
1164.4948838341
 30
0.0
 11
857.8758680418
 21
1116.8210597711
 31
0.0
  0
LINE
  5
1B1
330
1F
100
AcDbEntity
  8
0
  6
Continuous
 62
     8
370
    15
100
AcDbLine
 10
851.5062525358
 20
1164.4948838341
 30
0.0
 11
851.5062525358
 21
1116.8210597711
 31
0.0
  0
LINE
  5
1B2
330
1F
100
AcDbEntity
  8
0
  6
Continuous
 62
     8
370
    15
100
AcDbLine
 10
848.1910602888
 20
1101.8212356565
 30
0.0
 11
861.1910602888
 21
1101.8212356565
 31
0.0
  0
LINE
  5
1B3
330
1F
100
AcDbEntity
  8
0
  6
Continuous
 62
     8
370
    15
100
AcDbLine
 10
861.1910602888
 20
1128.3212356565
 30
0.0
 11
858.4910602888
 21
1128.3212356565
 31
0.0
  0
LINE
  5
1B4
330
1F
100
AcDbEntity
  8
0
  6
Continuous
 62
     8
370
    15
100
AcDbLine
 10
850.8910602888
 20
1128.3212356565
 30
0.0
 11
848.1910602888
 21
1128.3212356565
 31
0.0
  0
LINE
  5
1B5
330
1F
100
AcDbEntity
  8
0
  6
Continuous
 62
     8
370
    15
100
AcDbLine
 10
1415.4410602888
 20
1065.6563735927
 30
0.0
 11
1509.9410602888
 21
1065.6563735927
 31
0.0
  0
LINE
  5
1B6
330
1F
100
AcDbEntity
  8
0
  6
Continuous
 62
     8
370
    15
100
AcDbLine
 10
1420.1910602888
 20
1074.1673958579
 30
0.0
 11
1505.1910602888
 21
1074.1673958579
 31
0.0
  0
LINE
  5
1B7
330
1F
100
AcDbEntity
  8
0
  6
Continuous
 62
     8
370
    15
100
AcDbLine
 10
807.4410602888
 20
1065.4238470514
 30
0.0
 11
901.9410602888
 21
1065.4238470514
 31
0.0
  0
LINE
  5
1B8
330
1F
100
AcDbEntity
  8
0
  6
Continuous
 62
     8
370
    15
100
AcDbLine
 10
812.1910602888
 20
1073.9348693167
 30
0.0
 11
897.1910602888
 21
1073.9348693167
 31
0.0
  0
LINE
  5
1B9
330
1F
100
AcDbEntity
  8
0
  6
Continuous
 62
     8
370
    15
100
AcDbLine
 10
744.5272757002
 20
2371.9731620635
 30
0.0
 11
624.6910602888
 21
2371.9731620635
 31
0.0
  0
LINE
  5
1BA
330
1F
100
AcDbEntity
  8
0
  6
Continuous
 62
     8
370
    15
100
AcDbLine
 10
792.6910602888
 20
2371.9731620635
 30
0.0
 11
744.5272757002
 21
2371.9731620635
 31
0.0
  0
LINE
  5
1BB
330
1F
100
AcDbEntity
  8
0
  6
Continuous
 62
     8
370
    15
100
AcDbLine
 10
1608.6910602888
 20
1181.3501997077
 30
0.0
 11
1601.6910602888
 21
1181.3501997077
 31
0.0
  0
LINE
  5
1BC
330
1F
100
AcDbEntity
  8
0
  6
Continuous
 62
     8
370
    15
100
AcDbLine
 10
1615.6910602888
 20
1181.3501997077
 30
0.0
 11
1608.6910602888
 21
1181.3501997077
 31
0.0
  0
LINE
  5
1BD
330
1F
100
AcDbEntity
  8
0
  6
Continuous
 62
     8
370
    15
100
AcDbLine
 10
1578.6910602888
 20
1151.3501997077
 30
0.0
 11
1578.6910602888
 21
1158.3501997077
 31
0.0
  0
LINE
  5
1BE
330
1F
100
AcDbEntity
  8
0
  6
Continuous
 62
     8
370
    15
100
AcDbLine
 10
1578.6910602888
 20
1144.3501997077
 30
0.0
 11
1578.6910602888
 21
1151.3501997077
 31
0.0
  0
LINE
  5
1BF
330
1F
100
AcDbEntity
  8
0
  6
Continuous
 62
     8
370
    15
100
AcDbLine
 10
738.6910602888
 20
1151.3501997077
 30
0.0
 11
738.6910602888
 21
1158.3501997077
 31
0.0
  0
LINE
  5
1C0
330
1F
100
AcDbEntity
  8
0
  6
Continuous
 62
     8
370
    15
100
AcDbLine
 10
738.6910602888
 20
1144.3501997077
 30
0.0
 11
738.6910602888
 21
1151.3501997077
 31
0.0
  0
LINE
  5
1C1
330
1F
100
AcDbEntity
  8
0
  6
Continuous
 62
     8
370
    15
100
AcDbLine
 10
708.6910602888
 20
1181.3501997077
 30
0.0
 11
715.6910602888
 21
1181.3501997077
 31
0.0
  0
LINE
  5
1C2
330
1F
100
AcDbEntity
  8
0
  6
Continuous
 62
     8
370
    15
100
AcDbLine
 10
701.6910602888
 20
1181.3501997077
 30
0.0
 11
708.6910602888
 21
1181.3501997077
 31
0.0
  0
LINE
  5
1C3
330
1F
100
AcDbEntity
  8
0
  6
CENTERX2
 62
     7
370
     0
100
AcDbLine
 10
1584.3929706931
 20
897.8501997077
 30
0.0
 11
1651.7826487171
 21
897.8501997077
 31
0.0
  0
DIMENSION
  5
1C4
330
1F
100
AcDbEntity
  8
0
  6
Continuous
 62
     7
370
     0
100
AcDbDimension
  2
_D
 10
1751.7826487171
 20
1422.8501997077
 30
0.0
 11
1751.7826487171
 21
1190.3357061713
 31
0.0
 70
    32
  1
<>
 71
     2
 42
-1.0
 73
     0
 74
     0
 75
     0
  3
SLDDIMSTYLE0
100
AcDbAlignedDimension
 13
1651.7826487171
 23
897.8501997077
 33
0.0
 14
1623.4410602888
 24
1422.8501997077
 34
0.0
 50
90.0
100
AcDbRotatedDimension
  0
DIMENSION
  5
1CF
330
1F
100
AcDbEntity
  8
0
  6
Continuous
 62
     7
370
     0
100
AcDbDimension
  2
_D_1
 10
792.6910602888
 20
2527.7641234448
 30
0.0
 11
690.9438407256
 21
2527.7641234448
 31
0.0
 70
    32
  1
%%c<>
 71
     2
 42
-1.0
 73
     0
 74
     0
 75
     0
  3
SLDDIMSTYLE1
100
AcDbAlignedDimension
 13
624.6910602888
 23
2406.9731620635
 33
0.0
 14
792.6910602888
 24
2406.9731620635
 34
0.0
100
AcDbRotatedDimension
  0
DIMENSION
  5
1DD
330
1F
100
AcDbEntity
  8
0
  6
Continuous
 62
     7
370
     0
100
AcDbDimension
  2
_D_2
 10
701.6910602888
 20
738.8246466639
 30
0.0
 11
1173.4840620363
 21
738.8246466639
 31
0.0
 70
    32
  1
<>
 71
     2
 42
-1.0
 73
     0
 74
     0
 75
     0
  3
SLDDIMSTYLE0
100
AcDbAlignedDimension
 13
1615.6910602888
 23
1181.3501997077
 33
0.0
 14
701.6910602888
 24
1181.3501997077
 34
0.0
100
AcDbRotatedDimension
  0
DIMENSION
  5
1E7
330
1F
100
AcDbEntity
  8
0
  6
Continuous
 62
     7
370
     0
100
AcDbDimension
  2
_D_3
 10
854.6910602888
 20
988.8246466639
 30
0.0
 11
439.1926672405
 21
923.7182052768
 31
0.0
 70
    36
  1
<>
 71
     1
 42
-1.0
 73
     0
 74
     0
 75
     0
  3
SLDDIMSTYLE2
100
AcDbRadialDimension
 15
767.7794887853
 25
965.4499009157
 35
0.0
 40
0.0
  0
DIMENSION
  5
1F1
330
1F
100
AcDbEntity
  8
0
  6
Continuous
 62
     7
370
     0
100
AcDbDimension
  2
_D_4
 10
1462.6910602888
 20
798.8246466639
 30
0.0
 11
1149.2574035202
 21
798.8246466639
 31
0.0
 70
    32
  1
<>
 71
     2
 42
-1.0
 73
     0
 74
     0
 75
     0
  3
SLDDIMSTYLE0
100
AcDbAlignedDimension
 13
854.6910602888
 23
988.8246466639
 33
0.0
 14
1462.6910602888
 24
989.0571732052
 34
0.0
100
AcDbRotatedDimension
  0
DIMENSION
  5
1FB
330
1F
100
AcDbEntity
  8
0
  6
Continuous
 62
     7
370
     0
100
AcDbDimension
  2
_D_5
 10
1751.7826487171
 20
2406.9731620635
 30
0.0
 11
1751.7826487171
 21
1979.4005104686
 31
0.0
 70
    32
  1
MAX.2,5M
 71
     2
 42
-1.0
 73
     0
 74
     0
 75
     0
  3
SLDDIMSTYLE0
100
AcDbAlignedDimension
 13
1623.4410602888
 23
1422.8501997077
 33
0.0
 14
1616.6910602888
 24
2406.9731620635
 34
0.0
 50
90.0
100
AcDbRotatedDimension
  0
ENDSEC
  0
SECTION
  2
OBJECTS
  0
DICTIONARY
  5
C
330
0
100
AcDbDictionary
281
     1
  3
ACAD_COLOR
350
6C
  3
ACAD_GROUP
350
D
  3
ACAD_LAYOUT
350
1A
  3
ACAD_MATERIAL
350
6B
  3
ACAD_MLEADERSTYLE
350
268
  3
ACAD_MLINESTYLE
350
17
  3
ACAD_PLOTSETTINGS
350
19
  3
ACAD_PLOTSTYLENAME
350
E
  3
ACAD_SCALELIST
350
99
  3
ACAD_TABLESTYLE
350
92
  3
AcDbVariableDictionary
350
59
  0
DICTIONARY
  5
267
330
1F
100
AcDbDictionary
280
     1
281
     1
  0
DICTIONARY
  5
6C
102
{ACAD_REACTORS
330
C
102
}
330
C
100
AcDbDictionary
281
     1
  0
DICTIONARY
  5
D
102
{ACAD_REACTORS
330
C
102
}
330
C
100
AcDbDictionary
281
     1
  0
DICTIONARY
  5
1A
102
{ACAD_REACTORS
330
C
102
}
330
C
100
AcDbDictionary
281
     1
  3
Layout1
350
74
  3
Layout2
350
26
  3
Model
350
22
  0
DICTIONARY
  5
6B
102
{ACAD_REACTORS
330
C
102
}
330
C
100
AcDbDictionary
281
     1
  0
DICTIONARY
  5
268
102
{ACAD_REACTORS
330
C
102
}
330
C
100
AcDbDictionary
281
     1
  0
DICTIONARY
  5
17
102
{ACAD_REACTORS
330
C
102
}
330
C
100
AcDbDictionary
281
     1
  3
Standard
350
18
  0
DICTIONARY
  5
19
102
{ACAD_REACTORS
330
C
102
}
330
C
100
AcDbDictionary
281
     1
  0
ACDBDICTIONARYWDFLT
  5
E
102
{ACAD_REACTORS
330
C
102
}
330
C
100
AcDbDictionary
281
     1
  3
Normal
350
F
100
AcDbDictionaryWithDefault
340
F
  0
DICTIONARY
  5
99
102
{ACAD_REACTORS
330
C
102
}
330
C
100
AcDbDictionary
281
     1
  3
A0
350
206
  3
A1
350
207
  3
A2
350
208
  3
A3
350
209
  3
A4
350
20A
  3
A5
350
20B
  3
A6
350
20C
  3
A7
350
20D
  3
A8
350
20E
  3
A9
350
20F
  3
B0
350
210
  3
B1
350
211
  3
B2
350
212
  3
B3
350
213
  3
B4
350
214
  3
B5
350
215
  3
B6
350
216
  3
B7
350
217
  3
B8
350
218
  3
B9
350
219
  3
C0
350
21A
  3
C1
350
21B
  3
C2
350
21C
  3
C3
350
21D
  3
C4
350
21E
  3
C5
350
21F
  3
C6
350
220
  3
C7
350
221
  3
C8
350
222
  3
C9
350
223
  3
D0
350
224
  3
D1
350
225
  3
D2
350
226
  0
DICTIONARY
  5
92
102
{ACAD_REACTORS
330
C
102
}
330
C
100
AcDbDictionary
281
     1
  3
Standard
350
93
  0
DICTIONARY
  5
59
102
{ACAD_REACTORS
330
C
102
}
330
C
100
AcDbDictionary
281
     1
  3
CANNOSCALE
350
269
  3
CTABLESTYLE
350
98
  3
DIMASSOC
350
229
  3
HIDETEXT
350
5E
  0
LAYOUT
  5
74
102
{ACAD_REACTORS
330
1A
102
}
330
1A
100
AcDbPlotSettings
  1

  2
none_device
  4
ISO_C5_(229.00_x_162.00_MM)
  6

 40
0.0
 41
0.0
 42
0.0
 43
0.0
 44
229.0
 45
162.0
 46
0.0
 47
0.0
 48
0.0
 49
0.0
140
0.0
141
0.0
142
1.0
143
1.0
 70
   688
 72
     1
 73
     0
 74
     5
  7

 75
    16
 76
     0
 77
     2
 78
   300
147
1.0
148
0.0
149
0.0
100
AcDbLayout
  1
Layout1
 70
     1
 71
     1
 10
0.0
 20
0.0
 11
420.0
 21
297.0
 12
0.0
 22
0.0
 32
0.0
 14
1.000000000000000E+20
 24
1.000000000000000E+20
 34
1.000000000000000E+20
 15
-1.000000000000000E+20
 25
-1.000000000000000E+20
 35
-1.000000000000000E+20
146
0.0
 13
0.0
 23
0.0
 33
0.0
 16
1.0
 26
0.0
 36
0.0
 17
0.0
 27
1.0
 37
0.0
 76
     0
330
73
  0
LAYOUT
  5
26
102
{ACAD_REACTORS
330
1A
102
}
330
1A
100
AcDbPlotSettings
  1

  2
none_device
  4
ISO_C5_(229.00_x_162.00_MM)
  6

 40
0.0
 41
0.0
 42
0.0
 43
0.0
 44
229.0
 45
162.0
 46
0.0
 47
0.0
 48
0.0
 49
0.0
140
0.0
141
0.0
142
1.0
143
1.0
 70
   688
 72
     1
 73
     0
 74
     5
  7

 75
    16
 76
     0
 77
     2
 78
   300
147
1.0
148
0.0
149
0.0
100
AcDbLayout
  1
Layout2
 70
     1
 71
     2
 10
0.0
 20
0.0
 11
0.0
 21
0.0
 12
0.0
 22
0.0
 32
0.0
 14
0.0
 24
0.0
 34
0.0
 15
0.0
 25
0.0
 35
0.0
146
0.0
 13
0.0
 23
0.0
 33
0.0
 16
1.0
 26
0.0
 36
0.0
 17
0.0
 27
1.0
 37
0.0
 76
     0
330
23
  0
LAYOUT
  5
22
102
{ACAD_REACTORS
330
1A
102
}
330
1A
100
AcDbPlotSettings
  1

  2
none_device
  4
ISO_C5_(229.00_x_162.00_MM)
  6

 40
0.0
 41
0.0
 42
0.0
 43
0.0
 44
229.0
 45
162.0
 46
0.0
 47
0.0
 48
0.0
 49
0.0
140
0.0
141
0.0
142
1.0
143
1.0
 70
 11952
 72
     1
 73
     0
 74
     0
  7

 75
    16
 76
     0
 77
     2
 78
   300
147
1.0
148
0.0
149
0.0
100
AcDbLayout
  1
Model
 70
     1
 71
     0
 10
0.0
 20
0.0
 11
2100.0
 21
2970.0
 12
0.0
 22
0.0
 32
0.0
 14
176.8264998564
 24
49.9980727422
 34
0.0
 15
2049.4323743066
 25
3864.0855574177
 35
0.1
146
0.0
 13
0.0
 23
0.0
 33
0.0
 16
1.0
 26
0.0
 36
0.0
 17
0.0
 27
1.0
 37
0.0
 76
     0
330
1F
331
97
  0
MLINESTYLE
  5
18
102
{ACAD_REACTORS
330
17
102
}
330
17
100
AcDbMlineStyle
  2
Standard
 70
     0
  3

 62
   256
 51
90.0
 52
90.0
 71
     2
 49
0.5
 62
   256
  6
BYLAYER
 49
-0.5
 62
   256
  6
BYLAYER
  0
ACDBPLACEHOLDER
  5
F
102
{ACAD_REACTORS
330
E
102
}
330
E
  0
SCALE
  5
206
102
{ACAD_REACTORS
330
99
102
}
330
99
100
AcDbScale
 70
     0
300
1:1
140
1.0
141
1.0
290
     1
  0
SCALE
  5
207
102
{ACAD_REACTORS
330
99
102
}
330
99
100
AcDbScale
 70
     0
300
1:2
140
1.0
141
2.0
290
     0
  0
SCALE
  5
208
102
{ACAD_REACTORS
330
99
102
}
330
99
100
AcDbScale
 70
     0
300
1:4
140
1.0
141
4.0
290
     0
  0
SCALE
  5
209
102
{ACAD_REACTORS
330
99
102
}
330
99
100
AcDbScale
 70
     0
300
1:5
140
1.0
141
5.0
290
     0
  0
SCALE
  5
20A
102
{ACAD_REACTORS
330
99
102
}
330
99
100
AcDbScale
 70
     0
300
1:8
140
1.0
141
8.0
290
     0
  0
SCALE
  5
20B
102
{ACAD_REACTORS
330
99
102
}
330
99
100
AcDbScale
 70
     0
300
1:10
140
1.0
141
10.0
290
     0
  0
SCALE
  5
20C
102
{ACAD_REACTORS
330
99
102
}
330
99
100
AcDbScale
 70
     0
300
1:16
140
1.0
141
16.0
290
     0
  0
SCALE
  5
20D
102
{ACAD_REACTORS
330
99
102
}
330
99
100
AcDbScale
 70
     0
300
1:20
140
1.0
141
20.0
290
     0
  0
SCALE
  5
20E
102
{ACAD_REACTORS
330
99
102
}
330
99
100
AcDbScale
 70
     0
300
1:30
140
1.0
141
30.0
290
     0
  0
SCALE
  5
20F
102
{ACAD_REACTORS
330
99
102
}
330
99
100
AcDbScale
 70
     0
300
1:40
140
1.0
141
40.0
290
     0
  0
SCALE
  5
210
102
{ACAD_REACTORS
330
99
102
}
330
99
100
AcDbScale
 70
     0
300
1:50
140
1.0
141
50.0
290
     0
  0
SCALE
  5
211
102
{ACAD_REACTORS
330
99
102
}
330
99
100
AcDbScale
 70
     0
300
1:100
140
1.0
141
100.0
290
     0
  0
SCALE
  5
212
102
{ACAD_REACTORS
330
99
102
}
330
99
100
AcDbScale
 70
     0
300
2:1
140
2.0
141
1.0
290
     0
  0
SCALE
  5
213
102
{ACAD_REACTORS
330
99
102
}
330
99
100
AcDbScale
 70
     0
300
4:1
140
4.0
141
1.0
290
     0
  0
SCALE
  5
214
102
{ACAD_REACTORS
330
99
102
}
330
99
100
AcDbScale
 70
     0
300
8:1
140
8.0
141
1.0
290
     0
  0
SCALE
  5
215
102
{ACAD_REACTORS
330
99
102
}
330
99
100
AcDbScale
 70
     0
300
10:1
140
10.0
141
1.0
290
     0
  0
SCALE
  5
216
102
{ACAD_REACTORS
330
99
102
}
330
99
100
AcDbScale
 70
     0
300
100:1
140
100.0
141
1.0
290
     0
  0
SCALE
  5
217
102
{ACAD_REACTORS
330
99
102
}
330
99
100
AcDbScale
 70
     0
300
1/128" = 1'-0"
140
0.0078125
141
12.0
290
     0
  0
SCALE
  5
218
102
{ACAD_REACTORS
330
99
102
}
330
99
100
AcDbScale
 70
     0
300
1/64" = 1'-0"
140
0.015625
141
12.0
290
     0
  0
SCALE
  5
219
102
{ACAD_REACTORS
330
99
102
}
330
99
100
AcDbScale
 70
     0
300
1/32" = 1'-0"
140
0.03125
141
12.0
290
     0
  0
SCALE
  5
21A
102
{ACAD_REACTORS
330
99
102
}
330
99
100
AcDbScale
 70
     0
300
1/16" = 1'-0"
140
0.0625
141
12.0
290
     0
  0
SCALE
  5
21B
102
{ACAD_REACTORS
330
99
102
}
330
99
100
AcDbScale
 70
     0
300
3/32" = 1'-0"
140
0.09375
141
12.0
290
     0
  0
SCALE
  5
21C
102
{ACAD_REACTORS
330
99
102
}
330
99
100
AcDbScale
 70
     0
300
1/8" = 1'-0"
140
0.125
141
12.0
290
     0
  0
SCALE
  5
21D
102
{ACAD_REACTORS
330
99
102
}
330
99
100
AcDbScale
 70
     0
300
3/16" = 1'-0"
140
0.1875
141
12.0
290
     0
  0
SCALE
  5
21E
102
{ACAD_REACTORS
330
99
102
}
330
99
100
AcDbScale
 70
     0
300
1/4" = 1'-0"
140
0.25
141
12.0
290
     0
  0
SCALE
  5
21F
102
{ACAD_REACTORS
330
99
102
}
330
99
100
AcDbScale
 70
     0
300
3/8" = 1'-0"
140
0.375
141
12.0
290
     0
  0
SCALE
  5
220
102
{ACAD_REACTORS
330
99
102
}
330
99
100
AcDbScale
 70
     0
300
1/2" = 1'-0"
140
0.5
141
12.0
290
     0
  0
SCALE
  5
221
102
{ACAD_REACTORS
330
99
102
}
330
99
100
AcDbScale
 70
     0
300
3/4" = 1'-0"
140
0.75
141
12.0
290
     0
  0
SCALE
  5
222
102
{ACAD_REACTORS
330
99
102
}
330
99
100
AcDbScale
 70
     0
300
1" = 1'-0"
140
1.0
141
12.0
290
     0
  0
SCALE
  5
223
102
{ACAD_REACTORS
330
99
102
}
330
99
100
AcDbScale
 70
     0
300
1-1/2" = 1'-0"
140
1.5
141
12.0
290
     0
  0
SCALE
  5
224
102
{ACAD_REACTORS
330
99
102
}
330
99
100
AcDbScale
 70
     0
300
3" = 1'-0"
140
3.0
141
12.0
290
     0
  0
SCALE
  5
225
102
{ACAD_REACTORS
330
99
102
}
330
99
100
AcDbScale
 70
     0
300
6" = 1'-0"
140
6.0
141
12.0
290
     0
  0
SCALE
  5
226
102
{ACAD_REACTORS
330
99
102
}
330
99
100
AcDbScale
 70
     0
300
1'-0" = 1'-0"
140
12.0
141
12.0
290
     0
  0
TABLESTYLE
  5
93
102
{ACAD_REACTORS
330
92
102
}
330
92
100
AcDbTableStyle
  3
Standard
 70
     0
 71
     0
 40
0.06
 41
0.06
280
     0
281
     0
  7
Standard
140
0.18
170
     2
 62
     0
 63
     7
283
     0
 90
      512
 91
        0
  1

274
    -2
284
     1
 64
     0
275
    -2
285
     1
 65
     0
276
    -2
286
     1
 66
     0
277
    -2
287
     1
 67
     0
278
    -2
288
     1
 68
     0
279
    -2
289
     1
 69
     0
  7
Standard
140
0.25
170
     5
 62
     0
 63
     7
283
     0
 90
      512
 91
        0
  1

274
    -2
284
     1
 64
     0
275
    -2
285
     1
 65
     0
276
    -2
286
     1
 66
     0
277
    -2
287
     1
 67
     0
278
    -2
288
     1
 68
     0
279
    -2
289
     1
 69
     0
  7
Standard
140
0.18
170
     5
 62
     0
 63
     7
283
     0
 90
      512
 91
        0
  1

274
    -2
284
     1
 64
     0
275
    -2
285
     1
 65
     0
276
    -2
286
     1
 66
     0
277
    -2
287
     1
 67
     0
278
    -2
288
     1
 68
     0
279
    -2
289
     1
 69
     0
  0
DICTIONARYVAR
  5
269
102
{ACAD_REACTORS
330
59
102
}
330
59
100
DictionaryVariables
280
     0
  1
1:1
  0
DICTIONARYVAR
  5
98
102
{ACAD_REACTORS
330
59
102
}
330
59
100
DictionaryVariables
280
     0
  1
Standard
  0
DICTIONARYVAR
  5
229
102
{ACAD_REACTORS
330
59
102
}
330
59
100
DictionaryVariables
280
     0
  1
2
  0
DICTIONARYVAR
  5
5E
102
{ACAD_REACTORS
330
59
102
}
330
59
100
DictionaryVariables
280
     0
  1
1
  0
ENDSEC
  0
EOF
