  0
SECTION
  2
HEADER
  9
$ACADVER
  1
AC1021
  9
$ACADMAINTVER
 70
    25
  9
$DWGCODEPAGE
  3
ANSI_1252
  9
$LASTSAVEDBY
  1
Josep Sancho
  9
$INSBASE
 10
0.0
 20
0.0
 30
0.0
  9
$EXTMIN
 10
75.8251237014
 20
49.9980727422
 30
0.0
  9
$EXTMAX
 10
2049.4323743066
 20
4119.0704703236
 30
0.1
  9
$LIMMIN
 10
0.0
 20
0.0
  9
$LIMMAX
 10
2100.0
 20
2970.0
  9
$ORTHOMODE
 70
     0
  9
$REGENMODE
 70
     1
  9
$FILLMODE
 70
     1
  9
$QTEXTMODE
 70
     0
  9
$MIRRTEXT
 70
     1
  9
$LTSCALE
 40
10.0
  9
$ATTMODE
 70
     1
  9
$TEXTSIZE
 40
35.0
  9
$TRACEWID
 40
1.0
  9
$TEXTSTYLE
  7
Standard
  9
$CLAYER
  8
0
  9
$CELTYPE
  6
ByLayer
  9
$CECOLOR
 62
   256
  9
$CELTSCALE
 40
1.0
  9
$DISPSILH
 70
     0
  9
$DIMSCALE
 40
1.0
  9
$DIMASZ
 40
33.02
  9
$DIMEXO
 40
10.0
  9
$DIMDLI
 40
3.75
  9
$DIMRND
 40
0.0
  9
$DIMDLE
 40
0.0
  9
$DIMEXE
 40
10.0
  9
$DIMTP
 40
0.0
  9
$DIMTM
 40
0.0
  9
$DIMTXT
 40
35.0
  9
$DIMCEN
 40
2.5
  9
$DIMTSZ
 40
0.0
  9
$DIMTOL
 70
     0
  9
$DIMLIM
 70
     0
  9
$DIMTIH
 70
     1
  9
$DIMTOH
 70
     1
  9
$DIMSE1
 70
     0
  9
$DIMSE2
 70
     0
  9
$DIMTAD
 70
     1
  9
$DIMZIN
 70
     0
  9
$DIMBLK
  1

  9
$DIMASO
 70
     1
  9
$DIMSHO
 70
     1
  9
$DIMPOST
  1

  9
$DIMAPOST
  1

  9
$DIMALT
 70
     0
  9
$DIMALTD
 70
     3
  9
$DIMALTF
 40
0.0393700787
  9
$DIMLFAC
 40
1.0
  9
$DIMTOFL
 70
     1
  9
$DIMTVP
 40
0.0
  9
$DIMTIX
 70
     0
  9
$DIMSOXD
 70
     0
  9
$DIMSAH
 70
     0
  9
$DIMBLK1
  1

  9
$DIMBLK2
  1

  9
$DIMSTYLE
  2
ISO-25
  9
$DIMCLRD
 70
     0
  9
$DIMCLRE
 70
     0
  9
$DIMCLRT
 70
     0
  9
$DIMTFAC
 40
1.0
  9
$DIMGAP
 40
15.24
  9
$DIMJUST
 70
     0
  9
$DIMSD1
 70
     0
  9
$DIMSD2
 70
     0
  9
$DIMTOLJ
 70
     0
  9
$DIMTZIN
 70
     0
  9
$DIMALTZ
 70
     0
  9
$DIMALTTZ
 70
     0
  9
$DIMUPT
 70
     0
  9
$DIMDEC
 70
     3
  9
$DIMTDEC
 70
     3
  9
$DIMALTU
 70
     2
  9
$DIMALTTD
 70
     3
  9
$DIMTXSTY
  7
Standard
  9
$DIMAUNIT
 70
     0
  9
$DIMADEC
 70
     2
  9
$DIMALTRND
 40
0.0
  9
$DIMAZIN
 70
     0
  9
$DIMDSEP
 70
    44
  9
$DIMATFIT
 70
     3
  9
$DIMFRAC
 70
     0
  9
$DIMLDRBLK
  1

  9
$DIMLUNIT
 70
     2
  9
$DIMLWD
 70
    -2
  9
$DIMLWE
 70
    -2
  9
$DIMTMOVE
 70
     0
  9
$DIMFXL
 40
1.0
  9
$DIMFXLON
 70
     0
  9
$DIMJOGANG
 40
0.7853981633974483
  9
$DIMTFILL
 70
     0
  9
$DIMTFILLCLR
 70
     0
  9
$DIMARCSYM
 70
     0
  9
$DIMLTYPE
  6

  9
$DIMLTEX1
  6

  9
$DIMLTEX2
  6

  9
$LUNITS
 70
     2
  9
$LUPREC
 70
     2
  9
$SKETCHINC
 40
1.0
  9
$FILLETRAD
 40
10.0
  9
$AUNITS
 70
     0
  9
$AUPREC
 70
     2
  9
$MENU
  1
.
  9
$ELEVATION
 40
0.0
  9
$PELEVATION
 40
0.0
  9
$THICKNESS
 40
0.0
  9
$LIMCHECK
 70
     0
  9
$CHAMFERA
 40
10.0
  9
$CHAMFERB
 40
10.0
  9
$CHAMFERC
 40
20.0
  9
$CHAMFERD
 40
0.0
  9
$SKPOLY
 70
     0
  9
$TDCREATE
 40
2453353.800459155
  9
$TDUCREATE
 40
2453353.717125822
  9
$TDUPDATE
 40
2457226.499885011
  9
$TDUUPDATE
 40
2457226.416551678
  9
$TDINDWG
 40
0.0427546412
  9
$TDUSRTIMER
 40
0.0427546412
  9
$USRTIMER
 70
     1
  9
$ANGBASE
 50
0.0
  9
$ANGDIR
 70
     0
  9
$PDMODE
 70
     0
  9
$PDSIZE
 40
-1.0
  9
$PLINEWID
 40
0.0
  9
$SPLFRAME
 70
     0
  9
$SPLINETYPE
 70
     6
  9
$SPLINESEGS
 70
     8
  9
$HANDSEED
  5
2BC
  9
$SURFTAB1
 70
     6
  9
$SURFTAB2
 70
     6
  9
$SURFTYPE
 70
     6
  9
$SURFU
 70
     6
  9
$SURFV
 70
     6
  9
$UCSBASE
  2

  9
$UCSNAME
  2

  9
$UCSORG
 10
0.0
 20
0.0
 30
0.0
  9
$UCSXDIR
 10
1.0
 20
0.0
 30
0.0
  9
$UCSYDIR
 10
0.0
 20
1.0
 30
0.0
  9
$UCSORTHOREF
  2

  9
$UCSORTHOVIEW
 70
     0
  9
$UCSORGTOP
 10
0.0
 20
0.0
 30
0.0
  9
$UCSORGBOTTOM
 10
0.0
 20
0.0
 30
0.0
  9
$UCSORGLEFT
 10
0.0
 20
0.0
 30
0.0
  9
$UCSORGRIGHT
 10
0.0
 20
0.0
 30
0.0
  9
$UCSORGFRONT
 10
0.0
 20
0.0
 30
0.0
  9
$UCSORGBACK
 10
0.0
 20
0.0
 30
0.0
  9
$PUCSBASE
  2

  9
$PUCSNAME
  2

  9
$PUCSORG
 10
0.0
 20
0.0
 30
0.0
  9
$PUCSXDIR
 10
1.0
 20
0.0
 30
0.0
  9
$PUCSYDIR
 10
0.0
 20
1.0
 30
0.0
  9
$PUCSORTHOREF
  2

  9
$PUCSORTHOVIEW
 70
     0
  9
$PUCSORGTOP
 10
0.0
 20
0.0
 30
0.0
  9
$PUCSORGBOTTOM
 10
0.0
 20
0.0
 30
0.0
  9
$PUCSORGLEFT
 10
0.0
 20
0.0
 30
0.0
  9
$PUCSORGRIGHT
 10
0.0
 20
0.0
 30
0.0
  9
$PUCSORGFRONT
 10
0.0
 20
0.0
 30
0.0
  9
$PUCSORGBACK
 10
0.0
 20
0.0
 30
0.0
  9
$USERI1
 70
     0
  9
$USERI2
 70
     0
  9
$USERI3
 70
     0
  9
$USERI4
 70
     0
  9
$USERI5
 70
     0
  9
$USERR1
 40
0.0
  9
$USERR2
 40
0.0
  9
$USERR3
 40
0.0
  9
$USERR4
 40
0.0
  9
$USERR5
 40
0.0
  9
$WORLDVIEW
 70
     1
  9
$SHADEDGE
 70
     3
  9
$SHADEDIF
 70
    70
  9
$TILEMODE
 70
     1
  9
$MAXACTVP
 70
    64
  9
$PINSBASE
 10
0.0
 20
0.0
 30
0.0
  9
$PLIMCHECK
 70
     0
  9
$PEXTMIN
 10
1.000000000000000E+20
 20
1.000000000000000E+20
 30
1.000000000000000E+20
  9
$PEXTMAX
 10
-1.000000000000000E+20
 20
-1.000000000000000E+20
 30
-1.000000000000000E+20
  9
$PLIMMIN
 10
0.0
 20
0.0
  9
$PLIMMAX
 10
420.0
 20
297.0
  9
$UNITMODE
 70
     0
  9
$VISRETAIN
 70
     1
  9
$PLINEGEN
 70
     0
  9
$PSLTSCALE
 70
     1
  9
$TREEDEPTH
 70
  3020
  9
$CMLSTYLE
  2
Standard
  9
$CMLJUST
 70
     0
  9
$CMLSCALE
 40
20.0
  9
$PROXYGRAPHICS
 70
     1
  9
$MEASUREMENT
 70
     1
  9
$CELWEIGHT
370
    -1
  9
$ENDCAPS
280
     0
  9
$JOINSTYLE
280
     0
  9
$LWDISPLAY
290
     1
  9
$INSUNITS
 70
     4
  9
$HYPERLINKBASE
  1

  9
$STYLESHEET
  1

  9
$XEDIT
290
     0
  9
$CEPSNTYPE
380
     0
  9
$PSTYLEMODE
290
     1
  9
$FINGERPRINTGUID
  2
{C518AB71-0110-4EDA-B0E8-600BEF03651B}
  9
$VERSIONGUID
  2
{FAEB1C32-E019-11D5-929B-00C0DF256EC4}
  9
$EXTNAMES
290
     1
  9
$PSVPSCALE
 40
0.0
  9
$OLESTARTUP
290
     0
  9
$SORTENTS
280
   127
  9
$INDEXCTL
280
     0
  9
$HIDETEXT
280
     1
  9
$XCLIPFRAME
290
     0
  9
$HALOGAP
280
     0
  9
$OBSCOLOR
 70
   257
  9
$OBSLTYPE
280
     0
  9
$INTERSECTIONDISPLAY
280
     0
  9
$INTERSECTIONCOLOR
 70
   257
  9
$DIMASSOC
280
     2
  9
$PROJECTNAME
  1

  9
$CAMERADISPLAY
290
     0
  9
$LENSLENGTH
 40
50.0
  9
$CAMERAHEIGHT
 40
0.0
  9
$STEPSPERSEC
 40
2.0
  9
$STEPSIZE
 40
6.0
  9
$3DDWFPREC
 40
2.0
  9
$PSOLWIDTH
 40
0.25
  9
$PSOLHEIGHT
 40
4.0
  9
$LOFTANG1
 40
1.570796326794897
  9
$LOFTANG2
 40
1.570796326794897
  9
$LOFTMAG1
 40
0.0
  9
$LOFTMAG2
 40
0.0
  9
$LOFTPARAM
 70
     7
  9
$LOFTNORMALS
280
     1
  9
$LATITUDE
 40
37.795
  9
$LONGITUDE
 40
-122.394
  9
$NORTHDIRECTION
 40
0.0
  9
$TIMEZONE
 70
 -8000
  9
$LIGHTGLYPHDISPLAY
280
     1
  9
$TILEMODELIGHTSYNCH
280
     1
  9
$SOLIDHIST
280
     1
  9
$SHOWHIST
280
     1
  9
$DWFFRAME
280
     2
  9
$DGNFRAME
280
     2
  9
$REALWORLDSCALE
290
     1
  9
$INTERFERECOLOR
 62
   256
  9
$CSHADOW
280
     0
  9
$SHADOWPLANELOCATION
 40
0.0
  0
ENDSEC
  0
SECTION
  2
CLASSES
  0
CLASS
  1
ACDBDICTIONARYWDFLT
  2
AcDbDictionaryWithDefault
  3
ObjectDBX Classes
 90
        0
 91
        4
280
     0
281
     0
  0
CLASS
  1
ACDBPLACEHOLDER
  2
AcDbPlaceHolder
  3
ObjectDBX Classes
 90
        0
 91
        1
280
     0
281
     0
  0
CLASS
  1
LAYOUT
  2
AcDbLayout
  3
ObjectDBX Classes
 90
        0
 91
        1
280
     0
281
     0
  0
CLASS
  1
DICTIONARYVAR
  2
AcDbDictionaryVar
  3
ObjectDBX Classes
 90
        0
 91
        4
280
     0
281
     0
  0
CLASS
  1
TABLESTYLE
  2
AcDbTableStyle
  3
ObjectDBX Classes
 90
     4095
 91
        4
280
     0
281
     0
  0
CLASS
  1
SCALE
  2
AcDbScale
  3
ObjectDBX Classes
 90
     1153
 91
        4
280
     0
281
     0
  0
ENDSEC
  0
SECTION
  2
TABLES
  0
TABLE
  2
VPORT
  5
8
330
0
100
AcDbSymbolTable
 70
     2
  0
VPORT
  5
97
330
8
100
AcDbSymbolTableRecord
100
AcDbViewportTableRecord
  2
*Active
 70
     0
 10
0.0
 20
0.0
 11
1.0
 21
1.0
 12
1372.521040413157
 22
1779.122689246833
 13
0.0
 23
0.0
 14
10.0
 24
10.0
 15
10.0
 25
10.0
 16
0.0
 26
0.0
 36
1.0
 17
0.0
 27
0.0
 37
0.0
 40
2149.563471280918
 41
0.7070707071
 42
50.0
 43
0.0
 44
0.0
 50
0.0
 51
0.0
 71
    16
 72
  2000
 73
     1
 74
     3
 75
     0
 76
     0
 77
     0
 78
     0
281
     0
 65
     0
110
0.0
120
0.0
130
0.0
111
1.0
121
0.0
131
0.0
112
0.0
122
1.0
132
0.0
 79
     0
146
0.0
 60
     3
 61
     5
292
     1
282
     1
141
0.0
142
0.0
 63
   256
  0
ENDTAB
  0
TABLE
  2
LTYPE
  5
5
330
0
100
AcDbSymbolTable
 70
     6
  0
LTYPE
  5
14
330
5
100
AcDbSymbolTableRecord
100
AcDbLinetypeTableRecord
  2
ByBlock
 70
     0
  3

 72
    65
 73
     0
 40
0.0
  0
LTYPE
  5
15
330
5
100
AcDbSymbolTableRecord
100
AcDbLinetypeTableRecord
  2
ByLayer
 70
     0
  3

 72
    65
 73
     0
 40
0.0
  0
LTYPE
  5
16
330
5
100
AcDbSymbolTableRecord
100
AcDbLinetypeTableRecord
  2
Continuous
 70
     0
  3
Solid line
 72
    65
 73
     0
 40
0.0
  0
LTYPE
  5
27F
330
5
100
AcDbSymbolTableRecord
100
AcDbLinetypeTableRecord
  2
HIDDEN
 70
     0
  3
Hidden __ __ __ __ __ __ __ __ __ __ __ __ __ __
 72
    65
 73
     2
 40
1.905
 49
1.27
 74
     4
 75
     0
340
0
 46
1.0
 50
0.0
 44
0.0
 45
0.0
 49
-0.635
 74
     4
 75
     0
340
0
 46
1.0
 50
0.0
 44
0.0
 45
0.0
  0
LTYPE
  5
280
330
5
100
AcDbSymbolTableRecord
100
AcDbLinetypeTableRecord
  2
PHANTOM
 70
     0
  3
Phantom ______  __  __  ______  __  __  ______
 72
    65
 73
     6
 40
12.7
 49
6.35
 74
     4
 75
     0
340
0
 46
1.0
 50
0.0
 44
0.0
 45
0.0
 49
-1.27
 74
     4
 75
     0
340
0
 46
1.0
 50
0.0
 44
0.0
 45
0.0
 49
1.27
 74
     4
 75
     0
340
0
 46
1.0
 50
0.0
 44
0.0
 45
0.0
 49
-1.27
 74
     4
 75
     0
340
0
 46
1.0
 50
0.0
 44
0.0
 45
0.0
 49
1.27
 74
     4
 75
     0
340
0
 46
1.0
 50
0.0
 44
0.0
 45
0.0
 49
-1.27
 74
     4
 75
     0
340
0
 46
1.0
 50
0.0
 44
0.0
 45
0.0
  0
LTYPE
  5
281
330
5
100
AcDbSymbolTableRecord
100
AcDbLinetypeTableRecord
  2
CENTER
 70
     0
  3
Center ____ _ ____ _ ____ _ ____ _ ____ _ ____
 72
    65
 73
     4
 40
10.16
 49
6.35
 74
     4
 75
     0
340
0
 46
1.0
 50
0.0
 44
0.0
 45
0.0
 49
-1.27
 74
     4
 75
     0
340
0
 46
1.0
 50
0.0
 44
0.0
 45
0.0
 49
1.27
 74
     4
 75
     0
340
0
 46
1.0
 50
0.0
 44
0.0
 45
0.0
 49
-1.27
 74
     4
 75
     0
340
0
 46
1.0
 50
0.0
 44
0.0
 45
0.0
  0
LTYPE
  5
282
330
5
100
AcDbSymbolTableRecord
100
AcDbLinetypeTableRecord
  2
CENTERX2
 70
     0
  3
Center (2x) ________  __  ________  __  _____
 72
    65
 73
     4
 40
20.32
 49
12.7
 74
     4
 75
     0
340
0
 46
1.0
 50
0.0
 44
0.0
 45
0.0
 49
-2.54
 74
     4
 75
     0
340
0
 46
1.0
 50
0.0
 44
0.0
 45
0.0
 49
2.54
 74
     4
 75
     0
340
0
 46
1.0
 50
0.0
 44
0.0
 45
0.0
 49
-2.54
 74
     4
 75
     0
340
0
 46
1.0
 50
0.0
 44
0.0
 45
0.0
  0
LTYPE
  5
283
330
5
100
AcDbSymbolTableRecord
100
AcDbLinetypeTableRecord
  2
DOT2
 70
     0
  3
Dot (.5x) ........................................
 72
    65
 73
     2
 40
0.635
 49
0.0
 74
     4
 75
     0
340
0
 46
1.0
 50
0.0
 44
0.0
 45
0.0
 49
-0.635
 74
     4
 75
     0
340
0
 46
1.0
 50
0.0
 44
0.0
 45
0.0
  0
ENDTAB
  0
TABLE
  2
LAYER
  5
2
330
0
100
AcDbSymbolTable
 70
     1
  0
LAYER
  5
10
330
2
100
AcDbSymbolTableRecord
100
AcDbLayerTableRecord
  2
0
 70
     0
 62
     7
  6
Continuous
370
    -3
390
F
347
0
  0
ENDTAB
  0
TABLE
  2
STYLE
  5
3
330
0
100
AcDbSymbolTable
 70
     4
  0
STYLE
  5
11
330
3
100
AcDbSymbolTableRecord
100
AcDbTextStyleTableRecord
  2
Standard
 70
     0
 40
0.0
 41
1.0
 50
0.0
 71
     0
 42
35.0
  3
txt
  4

  0
STYLE
  5
65
330
3
100
AcDbSymbolTableRecord
100
AcDbTextStyleTableRecord
  2
SLDTEXTSTYLE0
 70
     0
 40
0.0
 41
0.75
 50
0.0
 71
     0
 42
0.2
  3
TXT
  4

  0
STYLE
  5
69
330
3
100
AcDbSymbolTableRecord
100
AcDbTextStyleTableRecord
  2
SLDTEXTSTYLE1
 70
     0
 40
0.0
 41
0.6944444444
 50
0.0
 71
     0
 42
0.2
  3
TXT
  4

  0
STYLE
  5
78
330
3
100
AcDbSymbolTableRecord
100
AcDbTextStyleTableRecord
  2
SLDTEXTSTYLE2
 70
     0
 40
0.0
 41
0.605
 50
0.0
 71
     0
 42
0.2
  3
TXT
  4

  0
ENDTAB
  0
TABLE
  2
VIEW
  5
6
330
0
100
AcDbSymbolTable
 70
     0
  0
ENDTAB
  0
TABLE
  2
UCS
  5
7
330
0
100
AcDbSymbolTable
 70
     0
  0
ENDTAB
  0
TABLE
  2
APPID
  5
9
330
0
100
AcDbSymbolTable
 70
     1
  0
APPID
  5
12
330
9
100
AcDbSymbolTableRecord
100
AcDbRegAppTableRecord
  2
ACAD
 70
     0
  0
ENDTAB
  0
TABLE
  2
DIMSTYLE
  5
A
330
0
100
AcDbSymbolTable
 70
     6
100
AcDbDimStyleTable
  0
DIMSTYLE
105
27
330
A
100
AcDbSymbolTableRecord
100
AcDbDimStyleTableRecord
  2
Standard
 70
     0
278
     0
340
11
  0
DIMSTYLE
105
284
330
A
100
AcDbSymbolTableRecord
100
AcDbDimStyleTableRecord
  2
ISO-25
 70
     0
 41
2.5
 42
0.625
 43
3.75
 44
1.25
 73
     0
 74
     0
 77
     1
 78
     8
140
2.5
141
2.5
143
0.0393700787
147
0.625
171
     3
172
     1
271
     2
272
     2
274
     3
278
    44
283
     0
284
     8
340
11
  0
DIMSTYLE
105
216
102
{ACAD_REACTORS
330
215
330
22B
330
23F
102
}
330
A
100
AcDbSymbolTableRecord
100
AcDbDimStyleTableRecord
  2
SLDDIMSTYLE0
 70
     0
 41
33.02
 44
0.0
 45
0.000000001
 73
     0
 74
     0
 77
     1
 78
    12
 79
     3
140
35.0
147
8.75
173
     1
271
     3
272
     3
276
     2
284
    12
340
65
  0
DIMSTYLE
105
221
102
{ACAD_REACTORS
330
220
102
}
330
A
100
AcDbSymbolTableRecord
100
AcDbDimStyleTableRecord
  2
SLDDIMSTYLE1
 70
     0
 41
33.02
 44
0.0
 45
0.000000001
 73
     0
 74
     0
 77
     1
 78
    12
 79
     3
140
35.0
147
8.75
173
     1
271
     0
272
     0
276
     2
284
    12
340
65
  0
DIMSTYLE
105
236
102
{ACAD_REACTORS
330
235
102
}
330
A
100
AcDbSymbolTableRecord
100
AcDbDimStyleTableRecord
  2
SLDDIMSTYLE2
 70
     0
 41
33.02
 44
0.0
 45
0.000000001
 78
    12
 79
     3
140
35.0
141
0.0
147
8.75
173
     1
271
     3
272
     3
276
     2
284
    12
340
65
  0
DIMSTYLE
105
24A
102
{ACAD_REACTORS
330
249
102
}
330
A
100
AcDbSymbolTableRecord
100
AcDbDimStyleTableRecord
  2
SLDDIMSTYLE3
 70
     0
 41
33.02
 44
0.0
 45
0.000000001
 73
     0
 74
     0
 77
     1
 78
    12
 79
     3
140
35.0
147
8.75
172
     1
173
     1
271
     3
272
     3
276
     2
284
    12
289
     0
340
65
  0
ENDTAB
  0
TABLE
  2
BLOCK_RECORD
  5
1
330
0
100
AcDbSymbolTable
 70
     7
  0
BLOCK_RECORD
  5
1F
102
{ACAD_XDICTIONARY
360
2B9
102
}
330
1
100
AcDbSymbolTableRecord
100
AcDbBlockTableRecord
  2
*Model_Space
340
22
 70
     0
280
     1
281
     0
  0
BLOCK_RECORD
  5
73
330
1
100
AcDbSymbolTableRecord
100
AcDbBlockTableRecord
  2
*Paper_Space
340
74
 70
     0
280
     1
281
     0
  0
BLOCK_RECORD
  5
23
330
1
100
AcDbSymbolTableRecord
100
AcDbBlockTableRecord
  2
*Paper_Space0
340
26
 70
     0
280
     1
281
     0
  0
BLOCK_RECORD
  5
217
330
1
100
AcDbSymbolTableRecord
100
AcDbBlockTableRecord
  2
_D
340
0
 70
     0
280
     1
281
     0
  0
BLOCK_RECORD
  5
222
330
1
100
AcDbSymbolTableRecord
100
AcDbBlockTableRecord
  2
_D_1
340
0
 70
     0
280
     1
281
     0
  0
BLOCK_RECORD
  5
22C
330
1
100
AcDbSymbolTableRecord
100
AcDbBlockTableRecord
  2
_D_2
340
0
 70
     0
280
     1
281
     0
  0
BLOCK_RECORD
  5
237
330
1
100
AcDbSymbolTableRecord
100
AcDbBlockTableRecord
  2
_D_3
340
0
 70
     0
280
     1
281
     0
  0
BLOCK_RECORD
  5
240
330
1
100
AcDbSymbolTableRecord
100
AcDbBlockTableRecord
  2
_D_4
340
0
 70
     0
280
     1
281
     0
  0
BLOCK_RECORD
  5
24B
330
1
100
AcDbSymbolTableRecord
100
AcDbBlockTableRecord
  2
_D_5
340
0
 70
     0
280
     1
281
     0
  0
ENDTAB
  0
ENDSEC
  0
SECTION
  2
BLOCKS
  0
BLOCK
  5
20
330
1F
100
AcDbEntity
  8
0
100
AcDbBlockBegin
  2
*Model_Space
 70
     0
 10
0.0
 20
0.0
 30
0.0
  3
*Model_Space
  1

  0
ENDBLK
  5
21
330
1F
100
AcDbEntity
  8
0
100
AcDbBlockEnd
  0
BLOCK
  5
75
330
73
100
AcDbEntity
 67
     1
  8
0
100
AcDbBlockBegin
  2
*Paper_Space
 70
     0
 10
0.0
 20
0.0
 30
0.0
  3
*Paper_Space
  1

  0
ENDBLK
  5
76
330
73
100
AcDbEntity
 67
     1
  8
0
100
AcDbBlockEnd
  0
BLOCK
  5
285
330
23
100
AcDbEntity
  8
0
100
AcDbBlockBegin
  2
*Paper_Space0
 70
     0
 10
0.0
 20
0.0
 30
0.0
  3
*Paper_Space0
  1

  0
ENDBLK
  5
286
330
23
100
AcDbEntity
  8
0
100
AcDbBlockEnd
  0
BLOCK
  5
287
330
217
100
AcDbEntity
  8
0
100
AcDbBlockBegin
  2
_D
 70
     0
 10
0.0
 20
0.0
 30
0.0
  3
_D
  1

  0
SOLID
  5
21A
330
217
100
AcDbEntity
  8
0
  6
Continuous
 62
     7
370
     0
100
AcDbTrace
 10
463.8989880753
 20
1056.6093913604
 30
0.0
 11
496.9189880753
 21
1051.5293913604
 31
0.0
 12
496.9189880753
 22
1061.6893913604
 32
0.0
 13
496.9189880753
 23
1061.6893913604
 33
0.0
  0
SOLID
  5
21B
330
217
100
AcDbEntity
  8
0
  6
Continuous
 62
     7
370
     0
100
AcDbTrace
 10
1679.8989880753
 20
1056.6093913604
 30
0.0
 11
1646.8789880753
 21
1061.6893913604
 31
0.0
 12
1646.8789880753
 22
1051.5293913604
 32
0.0
 13
1646.8789880753
 23
1051.5293913604
 33
0.0
  0
LINE
  5
21C
330
217
100
AcDbEntity
  8
0
  6
Continuous
 62
     7
370
     0
100
AcDbLine
 10
463.8989880753
 20
1129.5412333627
 30
0.0
 11
463.8989880753
 21
1046.6093913604
 31
0.0
  0
LINE
  5
21D
330
217
100
AcDbEntity
  8
0
  6
Continuous
 62
     7
370
     0
100
AcDbLine
 10
1679.8989880753
 20
1237.540882336
 30
0.0
 11
1679.8989880753
 21
1046.6093913604
 31
0.0
  0
LINE
  5
21E
330
217
100
AcDbEntity
  8
0
  6
Continuous
 62
     7
370
     0
100
AcDbLine
 10
463.8989880753
 20
1056.6093913604
 30
0.0
 11
1679.8989880753
 21
1056.6093913604
 31
0.0
  0
MTEXT
  5
21F
330
217
100
AcDbEntity
  8
0
  6
Continuous
 62
     7
370
     0
100
AcDbMText
 10
1005.9633697493
 20
1101.7267605062
 30
0.1
 40
35.0
 41
0.0
 46
0.0
 71
     1
 72
     1
  1
1216
  7
SLDTEXTSTYLE0
 73
     1
 44
1.0
  0
ENDBLK
  5
288
330
217
100
AcDbEntity
  8
0
100
AcDbBlockEnd
  0
BLOCK
  5
289
330
222
100
AcDbEntity
  8
0
100
AcDbBlockBegin
  2
_D_1
 70
     0
 10
0.0
 20
0.0
 30
0.0
  3
_D_1
  1

  0
SOLID
  5
225
330
222
100
AcDbEntity
  8
0
  6
Continuous
 62
     7
370
     0
100
AcDbTrace
 10
1951.7884364962
 20
1154.1650507213
 30
0.0
 11
1956.8684364962
 21
1187.1850507213
 31
0.0
 12
1946.7084364962
 22
1187.1850507213
 32
0.0
 13
1946.7084364962
 23
1187.1850507213
 33
0.0
  0
SOLID
  5
226
330
222
100
AcDbEntity
  8
0
  6
Continuous
 62
     7
370
     0
100
AcDbTrace
 10
1951.7884364962
 20
1678.3350558186
 30
0.0
 11
1946.7084364962
 21
1645.3150558186
 31
0.0
 12
1956.8684364962
 22
1645.3150558186
 32
0.0
 13
1956.8684364962
 23
1645.3150558186
 33
0.0
  0
LINE
  5
227
330
222
100
AcDbEntity
  8
0
  6
Continuous
 62
     7
370
     0
100
AcDbLine
 10
1861.7884364962
 20
1154.1650507213
 30
0.0
 11
1961.7884364962
 21
1154.1650507213
 31
0.0
  0
LINE
  5
228
330
222
100
AcDbEntity
  8
0
  6
Continuous
 62
     7
370
     0
100
AcDbLine
 10
1846.1489880753
 20
1678.3350558186
 30
0.0
 11
1961.7884364962
 21
1678.3350558186
 31
0.0
  0
LINE
  5
229
330
222
100
AcDbEntity
  8
0
  6
Continuous
 62
     7
370
     0
100
AcDbLine
 10
1951.7884364962
 20
1154.1650507213
 30
0.0
 11
1951.7884364962
 21
1678.3350558186
 31
0.0
  0
MTEXT
  5
22A
330
222
100
AcDbEntity
  8
0
  6
Continuous
 62
     7
370
     0
100
AcDbMText
 10
1906.6710673505
 20
1436.007575313
 30
0.1
 40
35.0
 41
0.0
 46
0.0
 71
     1
 72
     1
  1
525
  7
SLDTEXTSTYLE0
 11
6.123233995736766E-17
 21
1.0
 31
0.0
 73
     1
 44
1.0
  0
ENDBLK
  5
28A
330
222
100
AcDbEntity
  8
0
100
AcDbBlockEnd
  0
BLOCK
  5
28B
330
22C
100
AcDbEntity
  8
0
100
AcDbBlockBegin
  2
_D_2
 70
     0
 10
0.0
 20
0.0
 30
0.0
  3
_D_2
  1

  0
SOLID
  5
22F
330
22C
100
AcDbEntity
  8
0
  6
Continuous
 62
     7
370
     0
100
AcDbTrace
 10
314.8989880753
 20
936.6093913604
 30
0.0
 11
347.9189880753
 21
931.5293913604
 31
0.0
 12
347.9189880753
 22
941.6893913604
 32
0.0
 13
347.9189880753
 23
941.6893913604
 33
0.0
  0
SOLID
  5
230
330
22C
100
AcDbEntity
  8
0
  6
Continuous
 62
     7
370
     0
100
AcDbTrace
 10
1828.8989880753
 20
936.6093913604
 30
0.0
 11
1795.8789880753
 21
941.6893913604
 31
0.0
 12
1795.8789880753
 22
931.5293913604
 32
0.0
 13
1795.8789880753
 23
931.5293913604
 33
0.0
  0
LINE
  5
231
330
22C
100
AcDbEntity
  8
0
  6
Continuous
 62
     7
370
     0
100
AcDbLine
 10
314.8989880753
 20
1426.3350558186
 30
0.0
 11
314.8989880753
 21
926.6093913604
 31
0.0
  0
LINE
  5
232
330
22C
100
AcDbEntity
  8
0
  6
Continuous
 62
     7
370
     0
100
AcDbLine
 10
1828.8989880753
 20
1426.3350558186
 30
0.0
 11
1828.8989880753
 21
926.6093913604
 31
0.0
  0
LINE
  5
233
330
22C
100
AcDbEntity
  8
0
  6
Continuous
 62
     7
370
     0
100
AcDbLine
 10
314.8989880753
 20
936.6093913604
 30
0.0
 11
1828.8989880753
 21
936.6093913604
 31
0.0
  0
MTEXT
  5
234
330
22C
100
AcDbEntity
  8
0
  6
Continuous
 62
     7
370
     0
100
AcDbMText
 10
1005.9633697493
 20
981.7267605062
 30
0.1
 40
35.0
 41
0.0
 46
0.0
 71
     1
 72
     1
  1
1514
  7
SLDTEXTSTYLE0
 73
     1
 44
1.0
  0
ENDBLK
  5
28C
330
22C
100
AcDbEntity
  8
0
100
AcDbBlockEnd
  0
BLOCK
  5
28D
330
237
100
AcDbEntity
  8
0
100
AcDbBlockBegin
  2
_D_3
 70
     0
 10
0.0
 20
0.0
 30
0.0
  3
_D_3
  1

  0
SOLID
  5
23A
330
237
100
AcDbEntity
  8
0
  6
Continuous
 62
     7
370
     0
100
AcDbTrace
 10
385.4851813204
 20
1199.9918132328
 30
0.0
 11
354.2226930373
 21
1188.211166971
 31
0.0
 12
359.209360736
 22
1179.3591194529
 32
0.0
 13
359.209360736
 23
1179.3591194529
 33
0.0
  0
LINE
  5
23B
330
237
100
AcDbEntity
  8
0
  6
Continuous
 62
     7
370
     0
100
AcDbLine
 10
385.4851813204
 20
1199.9918132328
 30
0.0
 11
200.2001256535
 21
1095.614266653
 31
0.0
  0
LINE
  5
23C
330
237
100
AcDbEntity
  8
0
  6
Continuous
 62
     7
370
     0
100
AcDbLine
 10
463.8989880753
 20
1244.1650507213
 30
0.0
 11
385.4851813204
 21
1199.9918132328
 31
0.0
  0
LINE
  5
23D
330
237
100
AcDbEntity
  8
0
  6
Continuous
 62
     7
370
     0
100
AcDbLine
 10
200.2001256535
 20
1095.614266653
 30
0.0
 11
75.8251237014
 21
1095.614266653
 31
0.0
  0
MTEXT
  5
23E
330
237
100
AcDbEntity
  8
0
  6
Continuous
 62
     7
370
     0
100
AcDbMText
 10
75.8251237014
 20
1140.7316357988
 30
0.1
 40
35.0
 41
0.0
 46
0.0
 71
     1
 72
     1
  1
R90
  7
SLDTEXTSTYLE0
 73
     1
 44
1.0
  0
ENDBLK
  5
28E
330
237
100
AcDbEntity
  8
0
100
AcDbBlockEnd
  0
BLOCK
  5
28F
330
240
100
AcDbEntity
  8
0
100
AcDbBlockBegin
  2
_D_4
 70
     0
 10
0.0
 20
0.0
 30
0.0
  3
_D_4
  1

  0
SOLID
  5
243
330
240
100
AcDbEntity
  8
0
  6
Continuous
 62
     7
370
     0
100
AcDbTrace
 10
1951.7884364962
 20
1678.3350558186
 30
0.0
 11
1956.8684364962
 21
1711.3550558186
 31
0.0
 12
1946.7084364962
 22
1711.3550558186
 32
0.0
 13
1946.7084364962
 23
1711.3550558186
 33
0.0
  0
SOLID
  5
244
330
240
100
AcDbEntity
  8
0
  6
Continuous
 62
     7
370
     0
100
AcDbTrace
 10
1951.7884364962
 20
2649.9382630404
 30
0.0
 11
1946.7084364962
 21
2616.9182630404
 31
0.0
 12
1956.8684364962
 22
2616.9182630404
 32
0.0
 13
1956.8684364962
 23
2616.9182630404
 33
0.0
  0
LINE
  5
245
330
240
100
AcDbEntity
  8
0
  6
Continuous
 62
     7
370
     0
100
AcDbLine
 10
1846.1489880753
 20
1678.3350558186
 30
0.0
 11
1961.7884364962
 21
1678.3350558186
 31
0.0
  0
LINE
  5
246
330
240
100
AcDbEntity
  8
0
  6
Continuous
 62
     7
370
     0
100
AcDbLine
 10
1839.8989880753
 20
2649.9382630404
 30
0.0
 11
1961.7884364962
 21
2649.9382630404
 31
0.0
  0
LINE
  5
247
330
240
100
AcDbEntity
  8
0
  6
Continuous
 62
     7
370
     0
100
AcDbLine
 10
1951.7884364962
 20
1678.3350558186
 30
0.0
 11
1951.7884364962
 21
2649.9382630404
 31
0.0
  0
MTEXT
  5
248
330
240
100
AcDbEntity
  8
0
  6
Continuous
 62
     7
370
     0
100
AcDbMText
 10
1906.6710673505
 20
2049.5900830844
 30
0.1
 40
35.0
 41
0.0
 46
0.0
 71
     1
 72
     1
  1
MAX.2,5
  7
SLDTEXTSTYLE0
 11
6.123233995736766E-17
 21
1.0
 31
0.0
 73
     1
 44
1.0
  0
ENDBLK
  5
290
330
240
100
AcDbEntity
  8
0
100
AcDbBlockEnd
  0
BLOCK
  5
291
330
24B
100
AcDbEntity
  8
0
100
AcDbBlockBegin
  2
_D_5
 70
     0
 10
0.0
 20
0.0
 30
0.0
  3
_D_5
  1

  0
SOLID
  5
24E
330
24B
100
AcDbEntity
  8
0
  6
Continuous
 62
     7
370
     0
100
AcDbTrace
 10
237.8989880753
 20
2773.6502329859
 30
0.0
 11
204.8789880753
 21
2778.7302329859
 31
0.0
 12
204.8789880753
 22
2768.5702329859
 32
0.0
 13
204.8789880753
 23
2768.5702329859
 33
0.0
  0
SOLID
  5
24F
330
24B
100
AcDbEntity
  8
0
  6
Continuous
 62
     7
370
     0
100
AcDbTrace
 10
405.8989880753
 20
2773.6502329859
 30
0.0
 11
438.9189880753
 21
2768.5702329859
 31
0.0
 12
438.9189880753
 22
2778.7302329859
 32
0.0
 13
438.9189880753
 23
2778.7302329859
 33
0.0
  0
LINE
  5
250
330
24B
100
AcDbEntity
  8
0
  6
Continuous
 62
     7
370
     0
100
AcDbLine
 10
237.8989880753
 20
2659.9382630404
 30
0.0
 11
237.8989880753
 21
2783.6502329859
 31
0.0
  0
LINE
  5
251
330
24B
100
AcDbEntity
  8
0
  6
Continuous
 62
     7
370
     0
100
AcDbLine
 10
405.8989880753
 20
2659.9382630404
 30
0.0
 11
405.8989880753
 21
2783.6502329859
 31
0.0
  0
LINE
  5
252
330
24B
100
AcDbEntity
  8
0
  6
Continuous
 62
     7
370
     0
100
AcDbLine
 10
237.8989880753
 20
2773.6502329859
 30
0.0
 11
174.3989880753
 21
2773.6502329859
 31
0.0
  0
LINE
  5
253
330
24B
100
AcDbEntity
  8
0
  6
Continuous
 62
     7
370
     0
100
AcDbLine
 10
237.8989880753
 20
2773.6502329859
 30
0.0
 11
405.8989880753
 21
2773.6502329859
 31
0.0
  0
LINE
  5
254
330
24B
100
AcDbEntity
  8
0
  6
Continuous
 62
     7
370
     0
100
AcDbLine
 10
405.8989880753
 20
2773.6502329859
 30
0.0
 11
469.3989880753
 21
2773.6502329859
 31
0.0
  0
MTEXT
  5
255
330
24B
100
AcDbEntity
  8
0
  6
Continuous
 62
     7
370
     0
100
AcDbMText
 10
228.758733044
 20
2818.7676038779
 30
0.1
 40
35.0
 41
0.0
 46
0.0
 71
     1
 72
     1
  1
%%c
  7
SLDTEXTSTYLE0
 73
     1
 44
1.0
  0
MTEXT
  5
256
330
24B
100
AcDbEntity
  8
0
  6
Continuous
 62
     7
370
     0
100
AcDbMText
 10
281.5431070277
 20
2819.3023256445
 30
0.1
 40
35.0
 41
0.0
 46
0.0
 71
     1
 72
     1
  1
168
  7
SLDTEXTSTYLE0
 73
     1
 44
1.0
  0
ENDBLK
  5
292
330
24B
100
AcDbEntity
  8
0
100
AcDbBlockEnd
  0
ENDSEC
  0
SECTION
  2
ENTITIES
  0
LINE
  5
80
330
1F
100
AcDbEntity
  8
0
  6
Continuous
 62
     7
370
    15
100
AcDbLine
 10
467.8990157318
 20
1384.1616399491
 30
0.0
 11
467.8990157318
 21
1393.1611254716
 31
0.0
  0
LINE
  5
81
330
1F
100
AcDbEntity
  8
0
  6
Continuous
 62
     7
370
    15
100
AcDbLine
 10
459.8989995194
 20
1393.1611254716
 30
0.0
 11
459.8989995194
 21
1384.1616399491
 31
0.0
  0
LINE
  5
82
330
1F
100
AcDbEntity
  8
0
  6
Continuous
 62
     7
370
    15
100
AcDbLine
 10
467.8990157318
 20
1393.1611254716
 30
0.0
 11
467.7250297737
 21
1393.3350555504
 31
0.0
  0
LINE
  5
83
330
1F
100
AcDbEntity
  8
0
  6
Continuous
 62
     7
370
    15
100
AcDbLine
 10
460.0729258728
 20
1393.3350555504
 30
0.0
 11
459.8989995194
 21
1393.1611254716
 31
0.0
  0
LINE
  5
84
330
1F
100
AcDbEntity
  8
0
  6
Continuous
 62
     7
370
    15
100
AcDbLine
 10
1075.8989882653
 20
1386.6059798652
 30
0.0
 11
1075.8989882653
 21
1392.9621344337
 31
0.0
  0
LINE
  5
85
330
1F
100
AcDbEntity
  8
0
  6
Continuous
 62
     7
370
    15
100
AcDbLine
 10
1067.8989878853
 20
1392.9621344337
 30
0.0
 11
1067.8989878853
 21
1386.6059798652
 31
0.0
  0
LINE
  5
86
330
1F
100
AcDbEntity
  8
0
  6
Continuous
 62
     7
370
    15
100
AcDbLine
 10
1068.0260670834
 20
1393.3350555504
 30
0.0
 11
1068.0989880112
 21
1393.2621348554
 31
0.0
  0
LINE
  5
87
330
1F
100
AcDbEntity
  8
0
  6
Continuous
 62
     7
370
    15
100
AcDbLine
 10
1075.6989881393
 20
1393.2621348554
 30
0.0
 11
1075.7719090671
 21
1393.3350555504
 31
0.0
  0
LINE
  5
88
330
1F
100
AcDbEntity
  8
0
  6
Continuous
 62
     7
370
    15
100
AcDbLine
 10
1075.8989882653
 20
1392.9621344337
 30
0.0
 11
1075.6989881393
 21
1393.1621350253
 31
0.0
  0
LINE
  5
89
330
1F
100
AcDbEntity
  8
0
  6
Continuous
 62
     7
370
    15
100
AcDbLine
 10
1068.0989880112
 20
1393.1621350253
 30
0.0
 11
1067.8989878853
 21
1392.9621344337
 31
0.0
  0
LINE
  5
8A
330
1F
100
AcDbEntity
  8
0
  6
Continuous
 62
     7
370
    15
100
AcDbLine
 10
1683.8989766312
 20
1387.5374719406
 30
0.0
 11
1683.8989766312
 21
1393.3350555504
 31
0.0
  0
LINE
  5
8B
330
1F
100
AcDbEntity
  8
0
  6
Continuous
 62
     7
370
    15
100
AcDbLine
 10
1675.8989604187
 20
1393.3350555504
 30
0.0
 11
1675.8989604187
 21
1387.5374719406
 31
0.0
  0
ARC
  5
8C
330
1F
100
AcDbEntity
  8
0
  6
Continuous
 62
     7
370
    15
100
AcDbCircle
 10
466.0989880753
 20
1419.6616397138
 30
0.0
 40
1.000000000000073
100
AcDbArc
 50
10.0
 51
73.7081502238
  0
ARC
  5
8D
330
1F
100
AcDbEntity
  8
0
  6
Continuous
 62
     7
370
    15
100
AcDbCircle
 10
461.6989880753
 20
1419.6616397138
 30
0.0
 40
1.000000000000069
100
AcDbArc
 50
106.2890366682
 51
170.0
  0
LINE
  5
8E
330
1F
100
AcDbEntity
  8
0
  6
Continuous
 62
     7
370
    15
100
AcDbLine
 10
460.7141526413
 20
1419.8352880681
 30
0.0
 11
460.0989731026
 21
1416.3463590572
 31
0.0
  0
LINE
  5
8F
330
1F
100
AcDbEntity
  8
0
  6
Continuous
 62
     7
370
    15
100
AcDbLine
 10
467.698982544
 20
1416.3463590572
 30
0.0
 11
467.0838030052
 21
1419.8352880681
 31
0.0
  0
LINE
  5
90
330
1F
100
AcDbEntity
  8
0
  6
Continuous
 62
     7
370
    15
100
AcDbLine
 10
455.3989680481
 20
1355.1616407836
 30
0.0
 11
455.3989680481
 21
1351.1616401279
 31
0.0
  0
LINE
  5
91
330
1F
100
AcDbEntity
  8
0
  6
Continuous
 62
     7
370
    15
100
AcDbLine
 10
472.3989875984
 20
1351.1616401279
 30
0.0
 11
472.3989875984
 21
1355.1616407836
 31
0.0
  0
ARC
  5
293
330
1F
100
AcDbEntity
  8
0
  6
Continuous
 62
     7
370
    15
100
AcDbCircle
 10
455.3989880753
 20
1357.1616397138
 30
0.0
 40
2.000000000000227
100
AcDbArc
 50
270.0
 51
0.0
  0
ARC
  5
294
330
1F
100
AcDbEntity
  8
0
  6
Continuous
 62
     7
370
    15
100
AcDbCircle
 10
472.3989880753
 20
1357.1616397138
 30
0.0
 40
2.000000000000227
100
AcDbArc
 50
180.0
 51
270.0
  0
LINE
  5
94
330
1F
100
AcDbEntity
  8
0
  6
Continuous
 62
     7
370
    15
100
AcDbLine
 10
457.3990019035
 20
1383.6616389358
 30
0.0
 11
457.3990019035
 21
1357.1616411114
 31
0.0
  0
LINE
  5
95
330
1F
100
AcDbEntity
  8
0
  6
Continuous
 62
     7
370
    15
100
AcDbLine
 10
470.3990133476
 20
1357.1616411114
 30
0.0
 11
470.3990133476
 21
1383.6616389358
 31
0.0
  0
ARC
  5
96
330
1F
100
AcDbEntity
  8
0
  6
Continuous
 62
     7
370
    15
100
AcDbCircle
 10
457.8989880753
 20
1383.6616397138
 30
0.0
 40
0.5000000000002274
100
AcDbArc
 50
90.0
 51
180.0
  0
ARC
  5
295
330
1F
100
AcDbEntity
  8
0
  6
Continuous
 62
     7
370
    15
100
AcDbCircle
 10
469.8989880753
 20
1383.6616397138
 30
0.0
 40
0.5000000000002274
100
AcDbArc
 50
0.0
 51
90.0
  0
ARC
  5
296
330
1F
100
AcDbEntity
  8
0
  6
Continuous
 62
     7
370
    15
100
AcDbCircle
 10
1682.0989880753
 20
1423.0374713286
 30
0.0
 40
1.000000000000057
100
AcDbArc
 50
10.0
 51
73.7081502238
  0
ARC
  5
297
330
1F
100
AcDbEntity
  8
0
  6
Continuous
 62
     7
370
    15
100
AcDbCircle
 10
1677.6989880753
 20
1423.0374713286
 30
0.0
 40
1.00000000000017
100
AcDbArc
 50
106.2890366682
 51
170.0
  0
LINE
  5
298
330
1F
100
AcDbEntity
  8
0
  6
Continuous
 62
     7
370
    15
100
AcDbLine
 10
1676.7141731453
 20
1423.2111200595
 30
0.0
 11
1676.0989936066
 21
1419.7221910486
 31
0.0
  0
LINE
  5
299
330
1F
100
AcDbEntity
  8
0
  6
Continuous
 62
     7
370
    15
100
AcDbLine
 10
1683.699003048
 20
1419.7221910486
 30
0.0
 11
1683.0838235092
 21
1423.2111200595
 31
0.0
  0
ARC
  5
29A
330
1F
100
AcDbEntity
  8
0
  6
Continuous
 62
     7
370
    15
100
AcDbCircle
 10
1671.3989880753
 20
1360.5374713286
 30
0.0
 40
2.000000000000227
100
AcDbArc
 50
270.0
 51
0.0
  0
ARC
  5
29B
330
1F
100
AcDbEntity
  8
0
  6
Continuous
 62
     7
370
    15
100
AcDbCircle
 10
1688.3989880753
 20
1360.5374713286
 30
0.0
 40
2.0
100
AcDbArc
 50
180.0
 51
270.0
  0
LINE
  5
29C
330
1F
100
AcDbEntity
  8
0
  6
Continuous
 62
     7
370
    15
100
AcDbLine
 10
1671.3989885521
 20
1358.537472775
 30
0.0
 11
1671.3989885521
 21
1354.5374721194
 31
0.0
  0
LINE
  5
29D
330
1F
100
AcDbEntity
  8
0
  6
Continuous
 62
     7
370
    15
100
AcDbLine
 10
1688.3990081024
 20
1354.5374721194
 30
0.0
 11
1688.3990081024
 21
1358.537472775
 31
0.0
  0
LINE
  5
29E
330
1F
100
AcDbEntity
  8
0
  6
Continuous
 62
     7
370
    15
100
AcDbLine
 10
1673.3989628029
 20
1387.0374709273
 30
0.0
 11
1673.3989628029
 21
1360.5374731028
 31
0.0
  0
LINE
  5
29F
330
1F
100
AcDbEntity
  8
0
  6
Continuous
 62
     7
370
    15
100
AcDbLine
 10
1686.398974247
 20
1360.5374731028
 30
0.0
 11
1686.398974247
 21
1387.0374709273
 31
0.0
  0
ARC
  5
2A0
330
1F
100
AcDbEntity
  8
0
  6
Continuous
 62
     7
370
    15
100
AcDbCircle
 10
1673.8989880753
 20
1387.0374713286
 30
0.0
 40
0.5
100
AcDbArc
 50
90.0
 51
180.0
  0
ARC
  5
2A1
330
1F
100
AcDbEntity
  8
0
  6
Continuous
 62
     7
370
    15
100
AcDbCircle
 10
1685.8989880753
 20
1387.0374713286
 30
0.0
 40
0.5
100
AcDbArc
 50
0.0
 51
90.0
  0
ARC
  5
2A2
330
1F
100
AcDbEntity
  8
0
  6
Continuous
 62
     7
370
    15
100
AcDbCircle
 10
1069.6989880753
 20
1422.105980353
 30
0.0
 40
1.000000000000125
100
AcDbArc
 50
106.2890366682
 51
170.0
  0
ARC
  5
2A3
330
1F
100
AcDbEntity
  8
0
  6
Continuous
 62
     7
370
    15
100
AcDbCircle
 10
1074.0989880753
 20
1422.105980353
 30
0.0
 40
1.000000000000275
100
AcDbArc
 50
10.0
 51
73.7081502238
  0
LINE
  5
2A4
330
1F
100
AcDbEntity
  8
0
  6
Continuous
 62
     7
370
    15
100
AcDbLine
 10
1075.6989881393
 20
1418.7906999046
 30
0.0
 11
1075.0837957949
 21
1422.2796279842
 31
0.0
  0
LINE
  5
2A5
330
1F
100
AcDbEntity
  8
0
  6
Continuous
 62
     7
370
    15
100
AcDbLine
 10
1068.7141803556
 20
1422.2796279842
 30
0.0
 11
1068.0989880112
 21
1418.7906999046
 31
0.0
  0
LINE
  5
2A6
330
1F
100
AcDbEntity
  8
0
  6
Continuous
 62
     7
370
    15
100
AcDbLine
 10
1063.3989876133
 20
1357.605978837
 30
0.0
 11
1063.3989876133
 21
1353.6059819067
 31
0.0
  0
LINE
  5
2A7
330
1F
100
AcDbEntity
  8
0
  6
Continuous
 62
     7
370
    15
100
AcDbLine
 10
1080.3989885372
 20
1353.6059819067
 30
0.0
 11
1080.3989885372
 21
1357.605978837
 31
0.0
  0
ARC
  5
2A8
330
1F
100
AcDbEntity
  8
0
  6
Continuous
 62
     7
370
    15
100
AcDbCircle
 10
1063.3989880753
 20
1359.605980353
 30
0.0
 40
2.0
100
AcDbArc
 50
270.0
 51
0.0
  0
ARC
  5
2A9
330
1F
100
AcDbEntity
  8
0
  6
Continuous
 62
     7
370
    15
100
AcDbCircle
 10
1080.3989880753
 20
1359.605980353
 30
0.0
 40
2.0
100
AcDbArc
 50
180.0
 51
270.0
  0
ARC
  5
2AA
330
1F
100
AcDbEntity
  8
0
  6
Continuous
 62
     7
370
    15
100
AcDbCircle
 10
1065.8989880753
 20
1386.105980353
 30
0.0
 40
0.5
100
AcDbArc
 50
90.0
 51
180.0
  0
ARC
  5
2AB
330
1F
100
AcDbEntity
  8
0
  6
Continuous
 62
     7
370
    15
100
AcDbCircle
 10
1077.8989880753
 20
1386.105980353
 30
0.0
 40
0.5000000000002274
100
AcDbArc
 50
0.0
 51
90.0
  0
LINE
  5
2AC
330
1F
100
AcDbEntity
  8
0
  6
Continuous
 62
     7
370
    15
100
AcDbLine
 10
1065.3989879412
 20
1386.1059807146
 30
0.0
 11
1065.3989879412
 21
1359.6059791649
 31
0.0
  0
LINE
  5
2AD
330
1F
100
AcDbEntity
  8
0
  6
Continuous
 62
     7
370
    15
100
AcDbLine
 10
1078.3989882094
 20
1359.6059791649
 30
0.0
 11
1078.3989882094
 21
1386.1059807146
 31
0.0
  0
LINE
  5
2AE
330
1F
100
AcDbEntity
  8
0
  6
Continuous
 62
     7
370
    15
100
AcDbLine
 10
1728.9447696877
 20
1343.0374711657
 30
0.0
 11
1722.3670395088
 21
1343.0374711657
 31
0.0
  0
LINE
  5
2AF
330
1F
100
AcDbEntity
  8
0
  6
Continuous
 62
     7
370
    15
100
AcDbLine
 10
1722.3670991135
 20
1338.0374684835
 30
0.0
 11
1728.9447696877
 21
1338.0374684835
 31
0.0
  0
LINE
  5
2B0
330
1F
100
AcDbEntity
  8
0
  6
Continuous
 62
     7
370
    15
100
AcDbLine
 10
1728.9447696877
 20
1338.0374684835
 30
0.0
 11
1729.1947515679
 21
1338.2874727154
 31
0.0
  0
LINE
  5
2B1
330
1F
100
AcDbEntity
  8
0
  6
Continuous
 62
     7
370
    15
100
AcDbLine
 10
1729.1947515679
 20
1342.7874743843
 30
0.0
 11
1728.9447696877
 21
1343.0374711657
 31
0.0
  0
LINE
  5
2B2
330
1F
100
AcDbEntity
  8
0
  6
Continuous
 62
     7
370
    15
100
AcDbLine
 10
1630.8532269669
 20
1338.0374684835
 30
0.0
 11
1637.43024189
 21
1338.0374684835
 31
0.0
  0
LINE
  5
2B3
330
1F
100
AcDbEntity
  8
0
  6
Continuous
 62
     7
370
    15
100
AcDbLine
 10
1637.4310167503
 20
1343.0374711657
 30
0.0
 11
1630.8532269669
 21
1343.0374711657
 31
0.0
  0
LINE
  5
2B4
330
1F
100
AcDbEntity
  8
0
  6
Continuous
 62
     7
370
    15
100
AcDbLine
 10
1630.8532269669
 20
1343.0374711657
 30
0.0
 11
1630.6032450867
 21
1342.7874743843
 31
0.0
  0
LINE
  5
2B5
330
1F
100
AcDbEntity
  8
0
  6
Continuous
 62
     7
370
    15
100
AcDbLine
 10
1630.6032450867
 20
1338.2874727154
 30
0.0
 11
1630.8532269669
 21
1338.0374684835
 31
0.0
  0
LINE
  5
2B6
330
1F
100
AcDbEntity
  8
0
  6
Continuous
 62
     7
370
    15
100
AcDbLine
 10
1120.9447482598
 20
1337.1059819961
 30
0.0
 11
1121.1947487664
 21
1337.3559787774
 31
0.0
  0
LINE
  5
2B7
330
1F
100
AcDbEntity
  8
0
  6
Continuous
 62
     7
370
    15
100
AcDbLine
 10
1121.1947487664
 20
1341.8559804464
 30
0.0
 11
1120.9447482598
 21
1342.1059772277
 31
0.0
  0
LINE
  5
2B8
330
1F
100
AcDbEntity
  8
0
  6
Continuous
 62
     7
370
    15
100
AcDbLine
 10
1120.9447482598
 20
1342.1059772277
 30
0.0
 11
1114.3670516086
 21
1342.1059772277
 31
0.0
  0
LINE
  5
BB
330
1F
100
AcDbEntity
  8
0
  6
Continuous
 62
     7
370
    15
100
AcDbLine
 10
1114.3671074879
 20
1337.1059819961
 30
0.0
 11
1120.9447482598
 21
1337.1059819961
 31
0.0
  0
LINE
  5
BC
330
1F
100
AcDbEntity
  8
0
  6
Continuous
 62
     7
370
    15
100
AcDbLine
 10
512.9447491837
 20
1334.6616402173
 30
0.0
 11
513.1947310639
 21
1334.9116369987
 31
0.0
  0
LINE
  5
BD
330
1F
100
AcDbEntity
  8
0
  6
Continuous
 62
     7
370
    15
100
AcDbLine
 10
513.1947310639
 20
1339.4116386676
 30
0.0
 11
512.9447491837
 21
1339.6616428995
 31
0.0
  0
LINE
  5
BE
330
1F
100
AcDbEntity
  8
0
  6
Continuous
 62
     7
370
    15
100
AcDbLine
 10
512.9447491837
 20
1339.6616428995
 30
0.0
 11
506.3670786095
 21
1339.6616428995
 31
0.0
  0
LINE
  5
BF
330
1F
100
AcDbEntity
  8
0
  6
Continuous
 62
     7
370
    15
100
AcDbLine
 10
506.3671382141
 20
1334.6616402173
 30
0.0
 11
512.9447491837
 21
1334.6616402173
 31
0.0
  0
LINE
  5
C0
330
1F
100
AcDbEntity
  8
0
  6
Continuous
 62
     7
370
    15
100
AcDbLine
 10
414.8532064629
 20
1334.6616402173
 30
0.0
 11
421.4302809906
 21
1334.6616402173
 31
0.0
  0
LINE
  5
C1
330
1F
100
AcDbEntity
  8
0
  6
Continuous
 62
     7
370
    15
100
AcDbLine
 10
421.4309962463
 20
1339.6616428995
 30
0.0
 11
414.8532064629
 21
1339.6616428995
 31
0.0
  0
LINE
  5
C2
330
1F
100
AcDbEntity
  8
0
  6
Continuous
 62
     7
370
    15
100
AcDbLine
 10
414.8532064629
 20
1339.6616428995
 30
0.0
 11
414.6032245827
 21
1339.4116386676
 31
0.0
  0
LINE
  5
C3
330
1F
100
AcDbEntity
  8
0
  6
Continuous
 62
     7
370
    15
100
AcDbLine
 10
414.6032245827
 20
1334.9116369987
 30
0.0
 11
414.8532064629
 21
1334.6616402173
 31
0.0
  0
LINE
  5
C4
330
1F
100
AcDbEntity
  8
0
  6
Continuous
 62
     7
370
    15
100
AcDbLine
 10
1022.8532278907
 20
1337.1059819961
 30
0.0
 11
1029.4302614403
 21
1337.1059819961
 31
0.0
  0
LINE
  5
C5
330
1F
100
AcDbEntity
  8
0
  6
Continuous
 62
     7
370
    15
100
AcDbLine
 10
1029.4309878719
 20
1342.1059772277
 30
0.0
 11
1022.8532278907
 21
1342.1059772277
 31
0.0
  0
LINE
  5
C6
330
1F
100
AcDbEntity
  8
0
  6
Continuous
 62
     7
370
    15
100
AcDbLine
 10
1022.8532278907
 20
1342.1059772277
 30
0.0
 11
1022.6032273841
 21
1341.8559804464
 31
0.0
  0
LINE
  5
C7
330
1F
100
AcDbEntity
  8
0
  6
Continuous
 62
     7
370
    15
100
AcDbLine
 10
1022.6032273841
 20
1337.3559787774
 30
0.0
 11
1022.8532278907
 21
1337.1059819961
 31
0.0
  0
LINE
  5
C8
330
1F
100
AcDbEntity
  8
0
  6
Continuous
 62
     7
370
    15
100
AcDbLine
 10
1121.398987807
 20
1352.6059798801
 30
0.0
 11
1120.3989895058
 21
1353.6059819067
 31
0.0
  0
LINE
  5
C9
330
1F
100
AcDbEntity
  8
0
  6
Continuous
 62
     7
370
    15
100
AcDbLine
 10
1023.3989866448
 20
1353.6059819067
 30
0.0
 11
1022.3989883435
 21
1352.6059798801
 31
0.0
  0
LINE
  5
CA
330
1F
100
AcDbEntity
  8
0
  6
Continuous
 62
     7
370
    15
100
AcDbLine
 10
1121.398987807
 20
1350.6059795523
 30
0.0
 11
1121.398987807
 21
1352.6059798801
 31
0.0
  0
LINE
  5
CB
330
1F
100
AcDbEntity
  8
0
  6
Continuous
 62
     7
370
    15
100
AcDbLine
 10
1022.3989883435
 20
1352.6059798801
 30
0.0
 11
1022.3989883435
 21
1350.6059795523
 31
0.0
  0
LINE
  5
CC
330
1F
100
AcDbEntity
  8
0
  6
Continuous
 62
     7
370
    15
100
AcDbLine
 10
1106.8989882243
 20
1349.6093898917
 30
0.0
 11
1106.8989882243
 21
1350.6059795523
 31
0.0
  0
LINE
  5
CD
330
1F
100
AcDbEntity
  8
0
  6
Continuous
 62
     7
370
    15
100
AcDbLine
 10
1036.8989879263
 20
1350.6059795523
 30
0.0
 11
1036.8989879263
 21
1349.6093898917
 31
0.0
  0
LINE
  5
CE
330
1F
100
AcDbEntity
  8
0
  6
Continuous
 62
     7
370
    15
100
AcDbLine
 10
1729.3990166855
 20
1353.5374700928
 30
0.0
 11
1728.3989699555
 21
1354.5374721194
 31
0.0
  0
LINE
  5
CF
330
1F
100
AcDbEntity
  8
0
  6
Continuous
 62
     7
370
    15
100
AcDbLine
 10
1631.3989670944
 20
1354.5374721194
 30
0.0
 11
1630.398979969
 21
1353.5374700928
 31
0.0
  0
LINE
  5
D0
330
1F
100
AcDbEntity
  8
0
  6
Continuous
 62
     7
370
    15
100
AcDbLine
 10
1729.3990166855
 20
1351.537469765
 30
0.0
 11
1729.3990166855
 21
1353.5374700928
 31
0.0
  0
LINE
  5
D1
330
1F
100
AcDbEntity
  8
0
  6
Continuous
 62
     7
370
    15
100
AcDbLine
 10
1630.398979969
 20
1353.5374700928
 30
0.0
 11
1630.398979969
 21
1351.537469765
 31
0.0
  0
LINE
  5
D2
330
1F
100
AcDbEntity
  8
0
  6
Continuous
 62
     7
370
    15
100
AcDbLine
 10
1714.898994751
 20
1350.5408838296
 30
0.0
 11
1714.898994751
 21
1351.537469765
 31
0.0
  0
LINE
  5
D3
330
1F
100
AcDbEntity
  8
0
  6
Continuous
 62
     7
370
    15
100
AcDbLine
 10
1644.8990019035
 20
1351.537469765
 30
0.0
 11
1644.8990019035
 21
1350.5408838296
 31
0.0
  0
LINE
  5
D4
330
1F
100
AcDbEntity
  8
0
  6
Continuous
 62
     7
370
    15
100
AcDbLine
 10
513.3989961815
 20
1350.1616381014
 30
0.0
 11
512.3990090561
 21
1351.1616401279
 31
0.0
  0
LINE
  5
D5
330
1F
100
AcDbEntity
  8
0
  6
Continuous
 62
     7
370
    15
100
AcDbLine
 10
415.3990061951
 20
1351.1616401279
 30
0.0
 11
414.398959465
 21
1350.1616381014
 31
0.0
  0
LINE
  5
D6
330
1F
100
AcDbEntity
  8
0
  6
Continuous
 62
     7
370
    15
100
AcDbLine
 10
513.3989961815
 20
1348.1616414988
 30
0.0
 11
513.3989961815
 21
1350.1616381014
 31
0.0
  0
LINE
  5
D7
330
1F
100
AcDbEntity
  8
0
  6
Continuous
 62
     7
370
    15
100
AcDbLine
 10
414.398959465
 20
1350.1616381014
 30
0.0
 11
414.398959465
 21
1348.1616414988
 31
0.0
  0
LINE
  5
D8
330
1F
100
AcDbEntity
  8
0
  6
Continuous
 62
     7
370
    15
100
AcDbLine
 10
498.898974247
 20
1347.1650518382
 30
0.0
 11
498.898974247
 21
1348.1616414988
 31
0.0
  0
LINE
  5
D9
330
1F
100
AcDbEntity
  8
0
  6
Continuous
 62
     7
370
    15
100
AcDbLine
 10
428.8989813995
 20
1348.1616414988
 30
0.0
 11
428.8989813995
 21
1347.1650518382
 31
0.0
  0
ARC
  5
DA
330
1F
100
AcDbEntity
  8
0
  6
Continuous
 62
     7
370
    15
100
AcDbCircle
 10
1071.8989880753
 20
1246.6093913604
 30
0.0
 40
90.0
100
AcDbArc
 50
121.6682432535
 51
0.0
  0
ARC
  5
DB
330
1F
100
AcDbEntity
  8
0
  6
Continuous
 62
     7
370
    15
100
AcDbCircle
 10
1071.8989880753
 20
1246.6093913604
 30
0.0
 40
90.0
100
AcDbArc
 50
0.0
 51
58.33175674649999
  0
ARC
  5
DC
330
1F
100
AcDbEntity
  8
0
  6
Continuous
 62
     7
370
    15
100
AcDbCircle
 10
1019.3989880753
 20
1331.7196140132
 30
0.0
 40
10.00000000000011
100
AcDbArc
 50
301.6682432535
 51
0.0
  0
ARC
  5
DD
330
1F
100
AcDbEntity
  8
0
  6
Continuous
 62
     7
370
    15
100
AcDbCircle
 10
1124.3989880753
 20
1331.7196140132
 30
0.0
 40
10.00000000000011
100
AcDbArc
 50
180.0
 51
238.3317567465
  0
LINE
  5
DE
330
1F
100
AcDbEntity
  8
0
  6
Continuous
 62
     7
370
    15
100
AcDbLine
 10
1029.3989876282
 20
1336.6476446295
 30
0.0
 11
1029.3989876282
 21
1331.7196145559
 31
0.0
  0
LINE
  5
DF
330
1F
100
AcDbEntity
  8
0
  6
Continuous
 62
     7
370
    15
100
AcDbLine
 10
1029.3989876282
 20
1349.1093926037
 30
0.0
 11
1029.3989876282
 21
1342.6059707904
 31
0.0
  0
LINE
  5
E0
330
1F
100
AcDbEntity
  8
0
  6
Continuous
 62
     7
370
    15
100
AcDbLine
 10
1114.3989885223
 20
1342.6059707904
 30
0.0
 11
1114.3989885223
 21
1349.1093926037
 31
0.0
  0
LINE
  5
E1
330
1F
100
AcDbEntity
  8
0
  6
Continuous
 62
     7
370
    15
100
AcDbLine
 10
1114.3989885223
 20
1331.7196145559
 30
0.0
 11
1114.3989885223
 21
1336.6476446295
 31
0.0
  0
LINE
  5
E2
330
1F
100
AcDbEntity
  8
0
  6
Continuous
 62
     7
370
    15
100
AcDbLine
 10
1114.3989885223
 20
1349.1093926037
 30
0.0
 11
1113.898987509
 21
1349.6093898917
 31
0.0
  0
LINE
  5
E3
330
1F
100
AcDbEntity
  8
0
  6
Continuous
 62
     7
370
    15
100
AcDbLine
 10
1029.8989886415
 20
1349.6093898917
 30
0.0
 11
1029.3989876282
 21
1349.1093926037
 31
0.0
  0
ARC
  5
E4
330
1F
100
AcDbEntity
  8
0
  6
Continuous
 62
     7
370
    15
100
AcDbCircle
 10
1679.8989880753
 20
1247.540882336
 30
0.0
 40
90.00000000000023
100
AcDbArc
 50
121.6682432535
 51
58.33175674649999
  0
ARC
  5
E5
330
1F
100
AcDbEntity
  8
0
  6
Continuous
 62
     7
370
    15
100
AcDbCircle
 10
1627.3989880753
 20
1332.6511049888
 30
0.0
 40
10.0
100
AcDbArc
 50
301.6682432535
 51
0.0
  0
ARC
  5
E6
330
1F
100
AcDbEntity
  8
0
  6
Continuous
 62
     7
370
    15
100
AcDbCircle
 10
1732.3989880753
 20
1332.6511049888
 30
0.0
 40
10.0
100
AcDbArc
 50
180.0
 51
238.3317567465
  0
LINE
  5
E7
330
1F
100
AcDbEntity
  8
0
  6
Continuous
 62
     7
370
    15
100
AcDbLine
 10
1722.3989875984
 20
1350.0408828163
 30
0.0
 11
1721.8989642334
 21
1350.5408838296
 31
0.0
  0
LINE
  5
E8
330
1F
100
AcDbEntity
  8
0
  6
Continuous
 62
     7
370
    15
100
AcDbLine
 10
1637.8989728165
 20
1350.5408838296
 30
0.0
 11
1637.3990090561
 21
1350.0408828163
 31
0.0
  0
LINE
  5
E9
330
1F
100
AcDbEntity
  8
0
  6
Continuous
 62
     7
370
    15
100
AcDbLine
 10
1637.3990090561
 20
1337.5791385675
 30
0.0
 11
1637.3990090561
 21
1332.6511084938
 31
0.0
  0
LINE
  5
EA
330
1F
100
AcDbEntity
  8
0
  6
Continuous
 62
     7
370
    15
100
AcDbLine
 10
1637.3990090561
 20
1350.0408828163
 30
0.0
 11
1637.3990090561
 21
1343.5374572778
 31
0.0
  0
LINE
  5
EB
330
1F
100
AcDbEntity
  8
0
  6
Continuous
 62
     7
370
    15
100
AcDbLine
 10
1722.3989875984
 20
1343.5374572778
 30
0.0
 11
1722.3989875984
 21
1350.0408828163
 31
0.0
  0
LINE
  5
EC
330
1F
100
AcDbEntity
  8
0
  6
Continuous
 62
     7
370
    15
100
AcDbLine
 10
1722.3989875984
 20
1332.6511084938
 30
0.0
 11
1722.3989875984
 21
1337.5791385675
 31
0.0
  0
ARC
  5
ED
330
1F
100
AcDbEntity
  8
0
  6
Continuous
 62
     7
370
    15
100
AcDbCircle
 10
463.8989880753
 20
1244.1650507213
 30
0.0
 40
90.00000000000023
100
AcDbArc
 50
121.6682432535
 51
0.0
  0
ARC
  5
EE
330
1F
100
AcDbEntity
  8
0
  6
Continuous
 62
     7
370
    15
100
AcDbCircle
 10
463.8989880753
 20
1244.1650507213
 30
0.0
 40
90.00000000000023
100
AcDbArc
 50
0.0
 51
58.33175674649999
  0
ARC
  5
EF
330
1F
100
AcDbEntity
  8
0
  6
Continuous
 62
     7
370
    15
100
AcDbCircle
 10
411.3989880753
 20
1329.2752733741
 30
0.0
 40
10.0
100
AcDbArc
 50
301.6682432535
 51
0.0
  0
ARC
  5
F0
330
1F
100
AcDbEntity
  8
0
  6
Continuous
 62
     7
370
    15
100
AcDbCircle
 10
516.3989880753
 20
1329.2752733741
 30
0.0
 40
10.0
100
AcDbArc
 50
180.0
 51
238.3317567465
  0
LINE
  5
F1
330
1F
100
AcDbEntity
  8
0
  6
Continuous
 62
     7
370
    15
100
AcDbLine
 10
421.3989885521
 20
1334.2033028508
 30
0.0
 11
421.3989885521
 21
1329.2752727771
 31
0.0
  0
LINE
  5
F2
330
1F
100
AcDbEntity
  8
0
  6
Continuous
 62
     7
370
    15
100
AcDbLine
 10
421.3989885521
 20
1346.6650508249
 30
0.0
 11
421.3989885521
 21
1340.1616290117
 31
0.0
  0
LINE
  5
F3
330
1F
100
AcDbEntity
  8
0
  6
Continuous
 62
     7
370
    15
100
AcDbLine
 10
506.3989670944
 20
1340.1616290117
 30
0.0
 11
506.3989670944
 21
1346.6650508249
 31
0.0
  0
LINE
  5
F4
330
1F
100
AcDbEntity
  8
0
  6
Continuous
 62
     7
370
    15
100
AcDbLine
 10
506.3989670944
 20
1329.2752727771
 30
0.0
 11
506.3989670944
 21
1334.2033028508
 31
0.0
  0
LINE
  5
F5
330
1F
100
AcDbEntity
  8
0
  6
Continuous
 62
     7
370
    15
100
AcDbLine
 10
506.3989670944
 20
1346.6650508249
 30
0.0
 11
505.8990033341
 21
1347.1650518382
 31
0.0
  0
LINE
  5
F6
330
1F
100
AcDbEntity
  8
0
  6
Continuous
 62
     7
370
    15
100
AcDbLine
 10
421.8990119171
 20
1347.1650518382
 30
0.0
 11
421.3989885521
 21
1346.6650508249
 31
0.0
  0
LINE
  5
F7
330
1F
100
AcDbEntity
  8
0
  6
Continuous
 62
     7
370
    15
100
AcDbLine
 10
1815.8990057182
 20
2623.9382624531
 30
0.0
 11
1815.8990057182
 21
2621.9382882023
 31
0.0
  0
LINE
  5
F8
330
1F
100
AcDbEntity
  8
0
  6
Continuous
 62
     7
370
    15
100
AcDbLine
 10
1827.8989704323
 20
2621.9382882023
 30
0.0
 11
1827.8989704323
 21
2623.9382624531
 31
0.0
  0
LINE
  5
F9
330
1F
100
AcDbEntity
  8
0
  6
Continuous
 62
     7
370
    15
100
AcDbLine
 10
1818.7739761543
 20
2618.9382672215
 30
0.0
 11
1818.7739761543
 21
2613.9382719899
 31
0.0
  0
LINE
  5
FA
330
1F
100
AcDbEntity
  8
0
  6
Continuous
 62
     7
370
    15
100
AcDbLine
 10
1825.0239999962
 20
2613.9382719899
 30
0.0
 11
1825.0239999962
 21
2618.9382672215
 31
0.0
  0
LINE
  5
FB
330
1F
100
AcDbEntity
  8
0
  6
Continuous
 62
     7
370
    15
100
AcDbLine
 10
1819.1490085793
 20
2621.9382882023
 30
0.0
 11
1819.1490085793
 21
2618.9382672215
 31
0.0
  0
LINE
  5
FC
330
1F
100
AcDbEntity
  8
0
  6
Continuous
 62
     7
370
    15
100
AcDbLine
 10
1824.6489675713
 20
2618.9382672215
 30
0.0
 11
1824.6489675713
 21
2621.9382882023
 31
0.0
  0
LINE
  5
FD
330
1F
100
AcDbEntity
  8
0
  6
Continuous
 62
     7
370
    15
100
AcDbLine
 10
1813.8989718628
 20
2649.9382853413
 30
0.0
 11
1813.8989718628
 21
2647.9383110905
 31
0.0
  0
LINE
  5
FE
330
1F
100
AcDbEntity
  8
0
  6
Continuous
 62
     7
370
    15
100
AcDbLine
 10
1829.8990042877
 20
2647.9383110905
 30
0.0
 11
1829.8990042877
 21
2649.9382853413
 31
0.0
  0
LINE
  5
FF
330
1F
100
AcDbEntity
  8
0
  6
Continuous
 62
     7
370
    15
100
AcDbLine
 10
1815.8990057182
 20
2647.9383110905
 30
0.0
 11
1815.8990057182
 21
2623.9382624531
 31
0.0
  0
LINE
  5
100
330
1F
100
AcDbEntity
  8
0
  6
Continuous
 62
     7
370
    15
100
AcDbLine
 10
1827.8989704323
 20
2623.9382624531
 30
0.0
 11
1827.8989704323
 21
2647.9383110905
 31
0.0
  0
LINE
  5
101
330
1F
100
AcDbEntity
  8
0
  6
Continuous
 62
     7
370
    15
100
AcDbLine
 10
1836.64899189
 20
1677.8350472355
 30
0.0
 11
1836.1489685249
 21
1678.3350706005
 31
0.0
  0
LINE
  5
102
330
1F
100
AcDbEntity
  8
0
  6
Continuous
 62
     7
370
    15
100
AcDbLine
 10
1807.6490076256
 20
1678.3350706005
 30
0.0
 11
1807.1489842606
 21
1677.8350472355
 31
0.0
  0
LINE
  5
103
330
1F
100
AcDbEntity
  8
0
  6
Continuous
 62
     7
370
    15
100
AcDbLine
 10
1807.1489842606
 20
1677.8350472355
 30
0.0
 11
1807.1489842606
 21
1675.3350496197
 31
0.0
  0
LINE
  5
104
330
1F
100
AcDbEntity
  8
0
  6
Continuous
 62
     7
370
    15
100
AcDbLine
 10
1836.64899189
 20
1675.3350496197
 30
0.0
 11
1836.64899189
 21
1677.8350472355
 31
0.0
  0
LINE
  5
105
330
1F
100
AcDbEntity
  8
0
  6
Continuous
 62
     7
370
    15
100
AcDbLine
 10
1828.8990171623
 20
1656.3350558186
 30
0.0
 11
1828.8990171623
 21
1675.3350496197
 31
0.0
  0
LINE
  5
106
330
1F
100
AcDbEntity
  8
0
  6
Continuous
 62
     7
370
    15
100
AcDbLine
 10
1814.8989589882
 20
1675.3350496197
 30
0.0
 11
1814.8989589882
 21
1656.3350558186
 31
0.0
  0
LINE
  5
107
330
1F
100
AcDbEntity
  8
0
  6
Continuous
 62
     7
370
    15
100
AcDbLine
 10
336.64899189
 20
1677.8350472355
 30
0.0
 11
336.1489685249
 21
1678.3350706005
 31
0.0
  0
LINE
  5
108
330
1F
100
AcDbEntity
  8
0
  6
Continuous
 62
     7
370
    15
100
AcDbLine
 10
307.6490076256
 20
1678.3350706005
 30
0.0
 11
307.1489842606
 21
1677.8350472355
 31
0.0
  0
LINE
  5
109
330
1F
100
AcDbEntity
  8
0
  6
Continuous
 62
     7
370
    15
100
AcDbLine
 10
307.1489842606
 20
1677.8350472355
 30
0.0
 11
307.1489842606
 21
1675.3350496197
 31
0.0
  0
LINE
  5
10A
330
1F
100
AcDbEntity
  8
0
  6
Continuous
 62
     7
370
    15
100
AcDbLine
 10
336.64899189
 20
1675.3350496197
 30
0.0
 11
336.64899189
 21
1677.8350472355
 31
0.0
  0
LINE
  5
10B
330
1F
100
AcDbEntity
  8
0
  6
Continuous
 62
     7
370
    15
100
AcDbLine
 10
328.8990171623
 20
1656.3350558186
 30
0.0
 11
328.8990171623
 21
1675.3350496197
 31
0.0
  0
LINE
  5
10C
330
1F
100
AcDbEntity
  8
0
  6
Continuous
 62
     7
370
    15
100
AcDbLine
 10
314.8989589882
 20
1675.3350496197
 30
0.0
 11
314.8989589882
 21
1656.3350558186
 31
0.0
  0
LINE
  5
10D
330
1F
100
AcDbEntity
  8
0
  6
Continuous
 62
     7
370
    15
100
AcDbLine
 10
1822.5240023804
 20
1678.3350706005
 30
0.0
 11
1822.5240023804
 21
2613.9382719899
 31
0.0
  0
LINE
  5
110
330
1F
100
AcDbEntity
  8
0
  6
Continuous
 62
     7
370
    15
100
AcDbLine
 10
1821.2739737702
 20
2613.9382719899
 30
0.0
 11
1821.2739737702
 21
1678.3350706005
 31
0.0
  0
LINE
  5
111
330
1F
100
AcDbEntity
  8
0
  6
Continuous
 62
     7
370
    15
100
AcDbLine
 10
327.3990066719
 20
2603.9382815266
 30
0.0
 11
327.3990066719
 21
2604.438245287
 31
0.0
  0
LINE
  5
112
330
1F
100
AcDbEntity
  8
0
  6
Continuous
 62
     7
370
    15
100
AcDbLine
 10
316.3989694786
 20
2604.438245287
 30
0.0
 11
316.3989694786
 21
2603.9382815266
 31
0.0
  0
LINE
  5
113
330
1F
100
AcDbEntity
  8
0
  6
Continuous
 62
     7
370
    15
100
AcDbLine
 10
312.8989847374
 20
2606.4382195378
 30
0.0
 11
316.0239966583
 21
2604.438245287
 31
0.0
  0
LINE
  5
114
330
1F
100
AcDbEntity
  8
0
  6
Continuous
 62
     7
370
    15
100
AcDbLine
 10
327.7739794922
 20
2604.438245287
 30
0.0
 11
330.8989914131
 21
2606.4382195378
 31
0.0
  0
LINE
  5
115
330
1F
100
AcDbEntity
  8
0
  6
Continuous
 62
     7
370
    15
100
AcDbLine
 10
312.8989847374
 20
2611.9382977391
 30
0.0
 11
312.8989847374
 21
2606.4382195378
 31
0.0
  0
LINE
  5
116
330
1F
100
AcDbEntity
  8
0
  6
Continuous
 62
     7
370
    15
100
AcDbLine
 10
330.8989914131
 20
2606.4382195378
 30
0.0
 11
330.8989914131
 21
2611.9382977391
 31
0.0
  0
ARC
  5
117
330
1F
100
AcDbEntity
  8
0
  6
Continuous
 62
     7
370
    15
100
AcDbCircle
 10
402.8989880753
 20
2614.9382630404
 30
0.0
 40
3.0
100
AcDbArc
 50
270.0
 51
0.0
  0
ARC
  5
118
330
1F
100
AcDbEntity
  8
0
  6
Continuous
 62
     7
370
    15
100
AcDbCircle
 10
240.8989880753
 20
2614.9382630404
 30
0.0
 40
3.0
100
AcDbArc
 50
180.0
 51
270.0
  0
LINE
  5
119
330
1F
100
AcDbEntity
  8
0
  6
Continuous
 62
     7
370
    15
100
AcDbLine
 10
405.8989794922
 20
2614.9383187199
 30
0.0
 11
405.8989794922
 21
2649.9382853413
 31
0.0
  0
LINE
  5
11A
330
1F
100
AcDbEntity
  8
0
  6
Continuous
 62
     7
370
    15
100
AcDbLine
 10
237.8989966583
 20
2649.9382853413
 30
0.0
 11
237.8989966583
 21
2614.9383187199
 31
0.0
  0
LINE
  5
11B
330
1F
100
AcDbEntity
  8
0
  6
Continuous
 62
     7
370
    15
100
AcDbLine
 10
318.8989670944
 20
2603.9382815266
 30
0.0
 11
318.8989670944
 21
1678.3350706005
 31
0.0
  0
LINE
  5
11C
330
1F
100
AcDbEntity
  8
0
  6
Continuous
 62
     7
370
    15
100
AcDbLine
 10
324.8990090561
 20
1678.3350706005
 30
0.0
 11
324.8990090561
 21
2603.9382815266
 31
0.0
  0
LINE
  5
11D
330
1F
100
AcDbEntity
  8
0
  6
Continuous
 62
     7
370
    15
100
AcDbLine
 10
460.0989731026
 20
1413.3350560347
 30
0.0
 11
351.898959465
 21
1413.3350560347
 31
0.0
  0
LINE
  5
11E
330
1F
100
AcDbEntity
  8
0
  6
Continuous
 62
     7
370
    15
100
AcDbLine
 10
1068.0989880112
 20
1413.3350560347
 30
0.0
 11
467.698982544
 21
1413.3350560347
 31
0.0
  0
LINE
  5
11F
330
1F
100
AcDbEntity
  8
0
  6
Continuous
 62
     7
370
    15
100
AcDbLine
 10
1676.0989936066
 20
1413.3350560347
 30
0.0
 11
1075.6989881393
 21
1413.3350560347
 31
0.0
  0
LINE
  5
120
330
1F
100
AcDbEntity
  8
0
  6
Continuous
 62
     7
370
    15
100
AcDbLine
 10
1791.8990166855
 20
1413.3350560347
 30
0.0
 11
1683.699003048
 21
1413.3350560347
 31
0.0
  0
LINE
  5
121
330
1F
100
AcDbEntity
  8
0
  6
Continuous
 62
     7
370
    15
100
AcDbLine
 10
1685.8409555626
 20
1399.3350556025
 30
0.0
 11
1791.8990166855
 21
1399.3350556025
 31
0.0
  0
LINE
  5
122
330
1F
100
AcDbEntity
  8
0
  6
Continuous
 62
     7
370
    15
100
AcDbLine
 10
1077.8409332034
 20
1399.3350556025
 30
0.0
 11
1673.9427359772
 21
1399.3350556025
 31
0.0
  0
LINE
  5
123
330
1F
100
AcDbEntity
  8
0
  6
Continuous
 62
     7
370
    15
100
AcDbLine
 10
469.8409350586
 20
1399.3350556025
 30
0.0
 11
1065.9427336414
 21
1399.3350556025
 31
0.0
  0
LINE
  5
124
330
1F
100
AcDbEntity
  8
0
  6
Continuous
 62
     7
370
    15
100
AcDbLine
 10
351.898959465
 20
1399.3350556025
 30
0.0
 11
457.9427154732
 21
1399.3350556025
 31
0.0
  0
ARC
  5
125
330
1F
100
AcDbEntity
  8
0
  6
Continuous
 62
     7
370
    15
100
AcDbCircle
 10
351.8989880753
 20
1436.3350558186
 30
0.0
 40
23.0
100
AcDbArc
 50
180.0
 51
270.0
  0
ARC
  5
126
330
1F
100
AcDbEntity
  8
0
  6
Continuous
 62
     7
370
    15
100
AcDbCircle
 10
351.8989880753
 20
1436.3350558186
 30
0.0
 40
37.0
100
AcDbArc
 50
180.0
 51
270.0
  0
ARC
  5
127
330
1F
100
AcDbEntity
  8
0
  6
Continuous
 62
     7
370
    15
100
AcDbCircle
 10
1791.8989880753
 20
1436.3350558186
 30
0.0
 40
23.0
100
AcDbArc
 50
270.0
 51
0.0
  0
ARC
  5
128
330
1F
100
AcDbEntity
  8
0
  6
Continuous
 62
     7
370
    15
100
AcDbCircle
 10
1791.8989880753
 20
1436.3350558186
 30
0.0
 40
37.00000000000023
100
AcDbArc
 50
270.0
 51
0.0
  0
LINE
  5
129
330
1F
100
AcDbEntity
  8
0
  6
Continuous
 62
     7
370
    15
100
AcDbLine
 10
314.8989589882
 20
1656.3350558186
 30
0.0
 11
314.8989589882
 21
1436.335055148
 31
0.0
  0
LINE
  5
12A
330
1F
100
AcDbEntity
  8
0
  6
Continuous
 62
     7
370
    15
100
AcDbLine
 10
328.8990171623
 20
1436.335055148
 30
0.0
 11
328.8990171623
 21
1656.3350558186
 31
0.0
  0
LINE
  5
12B
330
1F
100
AcDbEntity
  8
0
  6
Continuous
 62
     7
370
    15
100
AcDbLine
 10
1814.8989589882
 20
1656.3350558186
 30
0.0
 11
1814.8989589882
 21
1436.335055148
 31
0.0
  0
LINE
  5
12C
330
1F
100
AcDbEntity
  8
0
  6
Continuous
 62
     7
370
    15
100
AcDbLine
 10
1828.8990171623
 20
1436.335055148
 30
0.0
 11
1828.8990171623
 21
1656.3350558186
 31
0.0
  0
LINE
  5
12D
330
1F
100
AcDbEntity
  8
0
  6
Continuous
 62
     7
370
    15
100
AcDbLine
 10
1077.8989881274
 20
1398.4658960158
 30
0.0
 11
1077.8989881274
 21
1399.3847519064
 31
0.0
  0
LINE
  5
12E
330
1F
100
AcDbEntity
  8
0
  6
Continuous
 62
     7
370
    15
100
AcDbLine
 10
1077.8989881274
 20
1393.8350556323
 30
0.0
 11
1077.8989881274
 21
1395.1961994076
 31
0.0
  0
LINE
  5
12F
330
1F
100
AcDbEntity
  8
0
  6
Continuous
 62
     7
370
    15
100
AcDbLine
 10
1065.8989880231
 20
1399.3723862709
 30
0.0
 11
1065.8989880231
 21
1393.8350556323
 31
0.0
  0
LINE
  5
130
330
1F
100
AcDbEntity
  8
0
  6
Continuous
 62
     7
370
    15
100
AcDbLine
 10
1065.8989880231
 20
1393.8350556323
 30
0.0
 11
1066.3989881051
 21
1393.3350555504
 31
0.0
  0
LINE
  5
131
330
1F
100
AcDbEntity
  8
0
  6
Continuous
 62
     7
370
    15
100
AcDbLine
 10
1077.3989880455
 20
1393.3350555504
 30
0.0
 11
1077.8989881274
 21
1393.8350556323
 31
0.0
  0
LINE
  5
132
330
1F
100
AcDbEntity
  8
0
  6
Continuous
 62
     7
370
    15
100
AcDbLine
 10
457.8989656639
 20
1393.8350556323
 30
0.0
 11
458.3989890289
 21
1393.3350555504
 31
0.0
  0
LINE
  5
133
330
1F
100
AcDbEntity
  8
0
  6
Continuous
 62
     7
370
    15
100
AcDbLine
 10
469.3989666176
 20
1393.3350555504
 30
0.0
 11
469.8989899826
 21
1393.8350556323
 31
0.0
  0
LINE
  5
134
330
1F
100
AcDbEntity
  8
0
  6
Continuous
 62
     7
370
    15
100
AcDbLine
 10
469.8989899826
 20
1398.4658960158
 30
0.0
 11
469.8989899826
 21
1399.3847519064
 31
0.0
  0
LINE
  5
135
330
1F
100
AcDbEntity
  8
0
  6
Continuous
 62
     7
370
    15
100
AcDbLine
 10
469.8989899826
 20
1393.8350556323
 30
0.0
 11
469.8989899826
 21
1395.1961994076
 31
0.0
  0
LINE
  5
136
330
1F
100
AcDbEntity
  8
0
  6
Continuous
 62
     7
370
    15
100
AcDbLine
 10
457.8989656639
 20
1399.3723862709
 30
0.0
 11
457.8989656639
 21
1393.8350556323
 31
0.0
  0
LINE
  5
137
330
1F
100
AcDbEntity
  8
0
  6
Continuous
 62
     7
370
    15
100
AcDbLine
 10
1685.8990104866
 20
1398.4658960158
 30
0.0
 11
1685.8990104866
 21
1399.3847519064
 31
0.0
  0
LINE
  5
138
330
1F
100
AcDbEntity
  8
0
  6
Continuous
 62
     7
370
    15
100
AcDbLine
 10
1685.8990104866
 20
1393.8350556323
 30
0.0
 11
1685.8990104866
 21
1395.1961994076
 31
0.0
  0
LINE
  5
139
330
1F
100
AcDbEntity
  8
0
  6
Continuous
 62
     7
370
    15
100
AcDbLine
 10
1673.8989861679
 20
1399.3723862709
 30
0.0
 11
1673.8989861679
 21
1393.8350556323
 31
0.0
  0
LINE
  5
13A
330
1F
100
AcDbEntity
  8
0
  6
Continuous
 62
     7
370
    15
100
AcDbLine
 10
1673.8989861679
 20
1393.8350556323
 30
0.0
 11
1674.3990095329
 21
1393.3350555504
 31
0.0
  0
LINE
  5
13B
330
1F
100
AcDbEntity
  8
0
  6
Continuous
 62
     7
370
    15
100
AcDbLine
 10
1685.3989871216
 20
1393.3350555504
 30
0.0
 11
1685.8990104866
 21
1393.8350556323
 31
0.0
  0
LWPOLYLINE
  5
13C
330
1F
100
AcDbEntity
  8
0
  6
Continuous
 62
     7
370
    15
100
AcDbPolyline
 90
       19
 70
   128
 43
0.0
 10
327.0991357041
 20
1671.4195907021
 10
326.9019039345
 20
1672.4401712323
 10
326.3882311058
 20
1673.3274161721
 10
325.6202252579
 20
1673.9743649865
 10
324.6903927994
 20
1674.3029951954
 10
323.7109692764
 20
1674.2736101055
 10
322.800091095
 20
1673.8898157978
 10
322.0675500107
 20
1673.197895279
 10
321.6017397118
 20
1672.2812652493
 10
321.4588673782
 20
1671.2505221272
 10
321.6560991478
 20
1670.229941597
 10
322.1697719765
 20
1669.3426966572
 10
322.9377778244
 20
1668.6957478428
 10
323.8676102829
 20
1668.3671176339
 10
324.8470338059
 20
1668.3964729214
 10
325.7579119873
 20
1668.7802970314
 10
326.4904530716
 20
1669.4722175503
 10
326.9562633705
 20
1670.38884758
 10
327.0991357041
 20
1671.4195907021
  0
LINE
  5
13D
330
1F
100
AcDbEntity
  8
0
  6
Continuous
 62
     7
370
    15
100
AcDbLine
 10
323.3755739403
 20
1669.5572733784
 30
0.0
 11
325.2751739693
 21
1669.6142256165
 31
0.0
  0
LINE
  5
13E
330
1F
100
AcDbEntity
  8
0
  6
Continuous
 62
     7
370
    15
100
AcDbLine
 10
325.2751739693
 20
1669.6142256165
 30
0.0
 11
326.1786015701
 21
1671.3919937516
 31
0.0
  0
LINE
  5
13F
330
1F
100
AcDbEntity
  8
0
  6
Continuous
 62
     7
370
    15
100
AcDbLine
 10
326.1786015701
 20
1671.3919937516
 30
0.0
 11
325.182429142
 21
1673.1128394509
 31
0.0
  0
LINE
  5
140
330
1F
100
AcDbEntity
  8
0
  6
Continuous
 62
     7
370
    15
100
AcDbLine
 10
325.182429142
 20
1673.1128394509
 30
0.0
 11
323.282829113
 21
1673.0558872128
 31
0.0
  0
LINE
  5
141
330
1F
100
AcDbEntity
  8
0
  6
Continuous
 62
     7
370
    15
100
AcDbLine
 10
323.282829113
 20
1673.0558872128
 30
0.0
 11
322.3794015122
 21
1671.2781190777
 31
0.0
  0
LINE
  5
142
330
1F
100
AcDbEntity
  8
0
  6
Continuous
 62
     7
370
    15
100
AcDbLine
 10
322.3794015122
 20
1671.2781190777
 30
0.0
 11
323.3755739403
 21
1669.5572733784
 31
0.0
  0
LINE
  5
143
330
1F
100
AcDbEntity
  8
0
  6
Continuous
 62
     7
370
    15
100
AcDbLine
 10
323.3523877335
 20
1669.597357502
 30
0.0
 11
323.9151747894
 21
1669.6142256165
 31
0.0
  0
LINE
  5
144
330
1F
100
AcDbEntity
  8
0
  6
Continuous
 62
     7
370
    15
100
AcDbLine
 10
323.9151747894
 20
1669.6142256165
 30
0.0
 11
325.2751739693
 21
1669.6142256165
 31
0.0
  0
LINE
  5
145
330
1F
100
AcDbEntity
  8
0
  6
Continuous
 62
     7
370
    15
100
AcDbLine
 10
324.8186023903
 20
1671.3919937516
 30
0.0
 11
326.1786015701
 21
1671.3919937516
 31
0.0
  0
LINE
  5
146
330
1F
100
AcDbEntity
  8
0
  6
Continuous
 62
     7
370
    15
100
AcDbLine
 10
324.8186023903
 20
1671.3919937516
 30
0.0
 11
323.845616169
 21
1673.0727553273
 31
0.0
  0
LINE
  5
147
330
1F
100
AcDbEntity
  8
0
  6
Continuous
 62
     7
370
    15
100
AcDbLine
 10
323.9151747894
 20
1669.6142256165
 30
0.0
 11
324.8186023903
 21
1671.3919937516
 31
0.0
  0
LINE
  5
148
330
1F
100
AcDbEntity
  8
0
  6
Continuous
 62
     7
370
    15
100
AcDbLine
 10
467.698982544
 20
1393.1611254716
 30
0.0
 11
467.8990157318
 21
1393.1611254716
 31
0.0
  0
LINE
  5
149
330
1F
100
AcDbEntity
  8
0
  6
Continuous
 62
     7
370
    15
100
AcDbLine
 10
459.8989995194
 20
1393.1611254716
 30
0.0
 11
460.0989731026
 21
1393.1611254716
 31
0.0
  0
LINE
  5
14A
330
1F
100
AcDbEntity
  8
0
  6
Continuous
 62
     7
370
    15
100
AcDbLine
 10
1075.6989881393
 20
1392.9621344337
 30
0.0
 11
1075.8989882653
 21
1392.9621344337
 31
0.0
  0
LINE
  5
14B
330
1F
100
AcDbEntity
  8
0
  6
Continuous
 62
     7
370
    15
100
AcDbLine
 10
1067.8989878853
 20
1392.9621344337
 30
0.0
 11
1068.0989880112
 21
1392.9621344337
 31
0.0
  0
SPLINE
  5
14C
330
1F
100
AcDbEntity
  8
0
  6
Continuous
 62
     7
370
    15
100
AcDbSpline
210
0.0
220
0.0
230
1.0
 70
     8
 71
     3
 72
    12
 73
     8
 74
     0
 42
0.00000001
 43
0.00000001
 40
0.0
 40
0.0
 40
0.0
 40
0.0
 40
0.2058510304891425
 40
0.4122758119202136
 40
0.6248210432390127
 40
0.8581676278344968
 40
1.0
 40
1.0
 40
1.0
 40
1.0
 10
467.0838030052284
 20
1372.16146289352
 30
0.0
 10
467.0583850646352
 20
1372.06671175489
 30
0.0
 10
467.0074783382007
 20
1371.876945385897
 30
0.0
 10
466.82754066309
 20
1371.647857782227
 30
0.0
 10
466.5857038019324
 20
1371.484967389549
 30
0.0
 10
466.3305870406957
 20
1371.413389440376
 30
0.0
 10
466.1625424976126
 20
1371.419191964919
 30
0.0
 10
466.0990150642494
 20
1371.421385546957
 30
0.0
  0
LINE
  5
14D
330
1F
100
AcDbEntity
  8
0
  6
Continuous
 62
     7
370
    15
100
AcDbLine
 10
466.0990150642
 20
1420.633424064
 30
0.0
 11
466.0990150642
 21
1371.421385547
 31
0.0
  0
SPLINE
  5
14E
330
1F
100
AcDbEntity
  8
0
  6
Continuous
 62
     7
370
    15
100
AcDbSpline
210
0.0
220
0.0
230
1.0
 70
     8
 71
     3
 72
     9
 73
     5
 74
     0
 42
0.00000001
 43
0.00000001
 40
0.0
 40
0.0
 40
0.0
 40
0.0
 40
0.5003577209158727
 40
1.0
 40
1.0
 40
1.0
 40
1.0
 10
466.0990150642494
 20
1420.633424063955
 30
0.0
 10
466.18753624189
 20
1420.632281748023
 30
0.0
 10
466.3644520242198
 20
1420.629998749512
 30
0.0
 10
466.3738998964678
 20
1420.622841320831
 30
0.0
 10
466.3786204528907
 20
1420.619265166853
 30
0.0
  0
SPLINE
  5
14F
330
1F
100
AcDbEntity
  8
0
  6
Continuous
 62
     7
370
    15
100
AcDbSpline
210
0.0
220
0.0
230
1.0
 70
     8
 71
     3
 72
    10
 73
     6
 74
     0
 42
0.00000001
 43
0.00000001
 40
0.0
 40
0.0
 40
0.0
 40
0.0
 40
0.4401548273979999
 40
0.9161138401243213
 40
1.0
 40
1.0
 40
1.0
 40
1.0
 10
466.0990150642493
 20
1371.421385546957
 30
0.0
 10
465.4607700901979
 20
1371.465309723935
 30
0.0
 10
464.1323624078947
 20
1371.5567310692
 30
0.0
 10
462.6050667288543
 20
1371.499384659169
 30
0.0
 10
461.8170718714342
 20
1371.431549796647
 30
0.0
 10
461.69900018693
 20
1371.421385546957
 30
0.0
  0
LINE
  5
150
330
1F
100
AcDbEntity
  8
0
  6
Continuous
 62
     7
370
    15
100
AcDbLine
 10
461.6990001869
 20
1420.633424064
 30
0.0
 11
461.6990001869
 21
1371.421385547
 31
0.0
  0
SPLINE
  5
151
330
1F
100
AcDbEntity
  8
0
  6
Continuous
 62
     7
370
    15
100
AcDbSpline
210
0.0
220
0.0
230
1.0
 70
     8
 71
     3
 72
    14
 73
    10
 74
     0
 42
0.00000001
 43
0.00000001
 40
0.0
 40
0.0
 40
0.0
 40
0.0
 40
0.1569473216865314
 40
0.3138888484352741
 40
0.4707175861778471
 40
0.6268300621390808
 40
0.7827577548511563
 40
0.9392891489451998
 40
1.0
 40
1.0
 40
1.0
 40
1.0
 10
461.6990001869299
 20
1420.633424063955
 30
0.0
 10
461.8570100487498
 20
1420.620093071121
 30
0.0
 10
462.1730239382196
 20
1420.593431577672
 30
0.0
 10
462.9083173069242
 20
1420.551790762836
 30
0.0
 10
463.7368792332481
 20
1420.531969815208
 30
0.0
 10
464.5874325267928
 20
1420.541311305572
 30
0.0
 10
465.3553865821887
 20
1420.575669397042
 30
0.0
 10
465.8459612961514
 20
1420.611572412784
 30
0.0
 10
466.0437427545192
 20
1420.628651199908
 30
0.0
 10
466.0990150642494
 20
1420.633424063955
 30
0.0
  0
SPLINE
  5
152
330
1F
100
AcDbEntity
  8
0
  6
Continuous
 62
     7
370
    15
100
AcDbSpline
210
0.0
220
0.0
230
1.0
 70
     8
 71
     3
 72
    11
 73
     7
 74
     0
 42
0.00000001
 43
0.00000001
 40
0.0
 40
0.0
 40
0.0
 40
0.0
 40
0.2578369059636189
 40
0.5163179880685074
 40
0.7605250493031415
 40
1.0
 40
1.0
 40
1.0
 40
1.0
 10
461.69900018693
 20
1371.421385546957
 30
0.0
 10
461.5830265712411
 20
1371.42234729066
 30
0.0
 10
461.3507895929943
 20
1371.424273180875
 30
0.0
 10
461.0446704978523
 20
1371.579190343065
 30
0.0
 10
460.8085882659545
 20
1371.829448173415
 30
0.0
 10
460.7454251972316
 20
1372.051515519939
 30
0.0
 10
460.7141526413063
 20
1372.16146289352
 30
0.0
  0
SPLINE
  5
153
330
1F
100
AcDbEntity
  8
0
  6
Continuous
 62
     7
370
    15
100
AcDbSpline
210
0.0
220
0.0
230
1.0
 70
     8
 71
     3
 72
    10
 73
     6
 74
     0
 42
0.00000001
 43
0.00000001
 40
0.0
 40
0.0
 40
0.0
 40
0.0
 40
0.1335978004248162
 40
0.8060805108899773
 40
1.0
 40
1.0
 40
1.0
 40
1.0
 10
461.4193947982886
 20
1420.619266098176
 30
0.0
 10
461.4130674508334
 20
1420.618110094871
 30
0.0
 10
461.3748905388398
 20
1420.611135191607
 30
0.0
 10
461.5064491345435
 20
1420.644028001237
 30
0.0
 10
461.6637850233577
 20
1420.635363390597
 30
0.0
 10
461.69900018693
 20
1420.633424063955
 30
0.0
  0
LINE
  5
154
330
1F
100
AcDbEntity
  8
0
  6
Continuous
 62
     7
370
    15
100
AcDbLine
 10
460.7141526413
 20
1372.1614628935
 30
0.0
 11
460.0989731026
 21
1375.6604492569
 31
0.0
  0
LINE
  5
155
330
1F
100
AcDbEntity
  8
0
  6
Continuous
 62
     7
370
    15
100
AcDbLine
 10
460.0989731026
 20
1416.3463590572
 30
0.0
 11
460.0989731026
 21
1375.6604492569
 31
0.0
  0
LINE
  5
156
330
1F
100
AcDbEntity
  8
0
  6
Continuous
 62
     7
370
    15
100
AcDbLine
 10
467.698982544
 20
1416.3463590572
 30
0.0
 11
467.698982544
 21
1375.6604492569
 31
0.0
  0
LINE
  5
157
330
1F
100
AcDbEntity
  8
0
  6
Continuous
 62
     7
370
    15
100
AcDbLine
 10
467.698982544
 20
1375.6604492569
 30
0.0
 11
467.0838030052
 21
1372.1614628935
 31
0.0
  0
LINE
  5
158
330
1F
100
AcDbEntity
  8
0
  6
Continuous
 62
     7
370
    15
100
AcDbLine
 10
455.3989680481
 20
1355.1616407836
 30
0.0
 11
472.3989875984
 21
1355.1616407836
 31
0.0
  0
LINE
  5
159
330
1F
100
AcDbEntity
  8
0
  6
Continuous
 62
     7
370
    15
100
AcDbLine
 10
457.8989656639
 20
1384.1616399491
 30
0.0
 11
460.0989731026
 21
1384.1616399491
 31
0.0
  0
LINE
  5
15A
330
1F
100
AcDbEntity
  8
0
  6
Continuous
 62
     7
370
    15
100
AcDbLine
 10
467.698982544
 20
1384.1616399491
 30
0.0
 11
469.8989899826
 21
1384.1616399491
 31
0.0
  0
LINE
  5
15B
330
1F
100
AcDbEntity
  8
0
  6
Continuous
 62
     7
370
    15
100
AcDbLine
 10
1682.0989759636
 20
1424.0092560554
 30
0.0
 11
1682.0989759636
 21
1374.7972138131
 31
0.0
  0
SPLINE
  5
15C
330
1F
100
AcDbEntity
  8
0
  6
Continuous
 62
     7
370
    15
100
AcDbSpline
210
0.0
220
0.0
230
1.0
 70
     8
 71
     3
 72
    10
 73
     6
 74
     0
 42
0.00000001
 43
0.00000001
 40
0.0
 40
0.0
 40
0.0
 40
0.0
 40
0.4401419622119817
 40
0.9161011315232528
 40
1.0
 40
1.0
 40
1.0
 40
1.0
 10
1682.098975963602
 20
1374.7972138131
 30
0.0
 10
1681.46074958844
 20
1374.841139553217
 30
0.0
 10
1680.132360217167
 20
1374.932565555913
 30
0.0
 10
1678.605078973512
 20
1374.875214048639
 30
0.0
 10
1677.817052658902
 20
1374.807379345212
 30
0.0
 10
1677.698961086283
 20
1374.7972138131
 30
0.0
  0
LINE
  5
15D
330
1F
100
AcDbEntity
  8
0
  6
Continuous
 62
     7
370
    15
100
AcDbLine
 10
1677.6989610863
 20
1424.0092560554
 30
0.0
 11
1677.6989610863
 21
1374.7972138131
 31
0.0
  0
SPLINE
  5
15E
330
1F
100
AcDbEntity
  8
0
  6
Continuous
 62
     7
370
    15
100
AcDbSpline
210
0.0
220
0.0
230
1.0
 70
     8
 71
     3
 72
    14
 73
    10
 74
     0
 42
0.00000001
 43
0.00000001
 40
0.0
 40
0.0
 40
0.0
 40
0.0
 40
0.1569467477645655
 40
0.3138970502510595
 40
0.4707143840693152
 40
0.6268373404729973
 40
0.7827644547257828
 40
0.9392952681209298
 40
1.0
 40
1.0
 40
1.0
 40
1.0
 10
1677.698961086283
 20
1424.009256055389
 30
0.0
 10
1677.856969341067
 20
1423.995924406549
 30
0.0
 10
1678.172989429397
 20
1423.969260806918
 30
0.0
 10
1678.908312370275
 20
1423.927624324769
 30
0.0
 10
1679.736874831622
 20
1423.907800177985
 30
0.0
 10
1680.587438837088
 20
1423.917141604155
 30
0.0
 10
1681.355394777153
 20
1423.951501026057
 30
0.0
 10
1681.846007738141
 20
1423.987401163386
 30
0.0
 10
1682.0437253592
 20
1424.004482744472
 30
0.0
 10
1682.098975963602
 20
1424.009256055389
 30
0.0
  0
SPLINE
  5
15F
330
1F
100
AcDbEntity
  8
0
  6
Continuous
 62
     7
370
    15
100
AcDbSpline
210
0.0
220
0.0
230
1.0
 70
     8
 71
     3
 72
    12
 73
     8
 74
     0
 42
0.00000001
 43
0.00000001
 40
0.0
 40
0.0
 40
0.0
 40
0.0
 40
0.2058457337502899
 40
0.4122891524727446
 40
0.6248289148046653
 40
0.8581322913248421
 40
0.9999999999999999
 40
0.9999999999999999
 40
0.9999999999999999
 40
0.9999999999999999
 10
1683.083823509226
 20
1375.537294884954
 30
0.0
 10
1683.05840961126
 20
1375.442541090093
 30
0.0
 10
1683.00750802461
 20
1375.252758377257
 30
0.0
 10
1682.827496018994
 20
1375.023705775893
 30
0.0
 10
1682.585678670111
 20
1374.860807495676
 30
0.0
 10
1682.330579070613
 20
1374.789217719591
 30
0.0
 10
1682.162524390729
 20
1374.795019804685
 30
0.0
 10
1682.098975963602
 20
1374.7972138131
 30
0.0
  0
SPLINE
  5
160
330
1F
100
AcDbEntity
  8
0
  6
Continuous
 62
     7
370
    15
100
AcDbSpline
210
0.0
220
0.0
230
1.0
 70
     8
 71
     3
 72
     9
 73
     5
 74
     0
 42
0.00000001
 43
0.00000001
 40
0.0
 40
0.0
 40
0.0
 40
0.0
 40
0.5003664845367454
 40
1.0
 40
1.0
 40
1.0
 40
1.0
 10
1682.098975963602
 20
1424.009256055389
 30
0.0
 10
1682.187522061078
 20
1424.008113852209
 30
0.0
 10
1682.364484548
 20
1424.005831119022
 30
0.0
 10
1682.373924460313
 20
1423.998672775369
 30
0.0
 10
1682.378640956889
 20
1423.995096226965
 30
0.0
  0
SPLINE
  5
161
330
1F
100
AcDbEntity
  8
0
  6
Continuous
 62
     7
370
    15
100
AcDbSpline
210
0.0
220
0.0
230
1.0
 70
     8
 71
     3
 72
    11
 73
     7
 74
     0
 42
0.00000001
 43
0.00000001
 40
0.0
 40
0.0
 40
0.0
 40
0.0
 40
0.2578083068071836
 40
0.5162993494463024
 40
0.760515821167665
 40
0.9999999999999999
 40
0.9999999999999999
 40
0.9999999999999999
 40
0.9999999999999999
 10
1677.698961086283
 20
1374.7972138131
 30
0.0
 10
1677.583008543874
 20
1374.798179391321
 30
0.0
 10
1677.350796389992
 20
1374.800113104837
 30
0.0
 10
1677.044690549772
 20
1374.955022313596
 30
0.0
 10
1676.808608877789
 20
1375.205280169835
 30
0.0
 10
1676.74544573694
 20
1375.427347513024
 30
0.0
 10
1676.714173145304
 20
1375.537294884954
 30
0.0
  0
SPLINE
  5
162
330
1F
100
AcDbEntity
  8
0
  6
Continuous
 62
     7
370
    15
100
AcDbSpline
210
0.0
220
0.0
230
1.0
 70
     8
 71
     3
 72
    10
 73
     6
 74
     0
 42
0.00000001
 43
0.00000001
 40
0.0
 40
0.0
 40
0.0
 40
0.0
 40
0.1335967853331957
 40
0.806096482081388
 40
0.9999999999999999
 40
0.9999999999999999
 40
0.9999999999999999
 40
0.9999999999999999
 10
1677.419355697642
 20
1423.99509808961
 30
0.0
 10
1677.413049821736
 20
1423.99394209442
 30
0.0
 10
1677.375001418317
 20
1423.986967048928
 30
0.0
 10
1677.50650939687
 20
1424.019860208524
 30
0.0
 10
1677.66376649734
 20
1424.011195289135
 30
0.0
 10
1677.698961086283
 20
1424.009256055389
 30
0.0
  0
LINE
  5
163
330
1F
100
AcDbEntity
  8
0
  6
Continuous
 62
     7
370
    15
100
AcDbLine
 10
1676.7141731453
 20
1375.537294885
 30
0.0
 11
1676.0989936066
 21
1379.0362812484
 31
0.0
  0
LINE
  5
164
330
1F
100
AcDbEntity
  8
0
  6
Continuous
 62
     7
370
    15
100
AcDbLine
 10
1676.0989936066
 20
1419.7221910486
 30
0.0
 11
1676.0989936066
 21
1379.0362812484
 31
0.0
  0
LINE
  5
165
330
1F
100
AcDbEntity
  8
0
  6
Continuous
 62
     7
370
    15
100
AcDbLine
 10
1683.699003048
 20
1419.7221910486
 30
0.0
 11
1683.699003048
 21
1379.0362812484
 31
0.0
  0
LINE
  5
166
330
1F
100
AcDbEntity
  8
0
  6
Continuous
 62
     7
370
    15
100
AcDbLine
 10
1683.699003048
 20
1379.0362812484
 30
0.0
 11
1683.0838235092
 21
1375.537294885
 31
0.0
  0
LINE
  5
167
330
1F
100
AcDbEntity
  8
0
  6
Continuous
 62
     7
370
    15
100
AcDbLine
 10
1671.3989885521
 20
1358.537472775
 30
0.0
 11
1688.3990081024
 21
1358.537472775
 31
0.0
  0
LINE
  5
168
330
1F
100
AcDbEntity
  8
0
  6
Continuous
 62
     7
370
    15
100
AcDbLine
 10
1673.8989861679
 20
1387.5374719406
 30
0.0
 11
1676.0989936066
 21
1387.5374719406
 31
0.0
  0
LINE
  5
169
330
1F
100
AcDbEntity
  8
0
  6
Continuous
 62
     7
370
    15
100
AcDbLine
 10
1683.699003048
 20
1387.5374719406
 30
0.0
 11
1685.8990104866
 21
1387.5374719406
 31
0.0
  0
LINE
  5
16A
330
1F
100
AcDbEntity
  8
0
  6
Continuous
 62
     7
370
    15
100
AcDbLine
 10
1074.0989880633
 20
1423.0777639801
 30
0.0
 11
1074.0989880633
 21
1373.8657236004
 31
0.0
  0
SPLINE
  5
16B
330
1F
100
AcDbEntity
  8
0
  6
Continuous
 62
     7
370
    15
100
AcDbSpline
210
0.0
220
0.0
230
1.0
 70
     8
 71
     3
 72
    10
 73
     6
 74
     0
 42
0.00000001
 43
0.00000001
 40
0.0
 40
0.0
 40
0.0
 40
0.0
 40
0.4401438935284767
 40
0.9161122267184835
 40
1.0
 40
1.0
 40
1.0
 40
1.0
 10
1074.098988063345
 20
1373.865723600421
 30
0.0
 10
1073.460761810222
 20
1373.90964626107
 30
0.0
 10
1072.132362433345
 20
1374.001066560299
 30
0.0
 10
1070.605070288665
 20
1373.943733165367
 30
0.0
 10
1069.817061781839
 20
1373.875889209608
 30
0.0
 10
1069.698988087187
 20
1373.865723600421
 30
0.0
  0
LINE
  5
16C
330
1F
100
AcDbEntity
  8
0
  6
Continuous
 62
     7
370
    15
100
AcDbLine
 10
1069.6989880872
 20
1423.0777639801
 30
0.0
 11
1069.6989880872
 21
1373.8657236004
 31
0.0
  0
SPLINE
  5
16D
330
1F
100
AcDbEntity
  8
0
  6
Continuous
 62
     7
370
    15
100
AcDbSpline
210
0.0
220
0.0
230
1.0
 70
     8
 71
     3
 72
    14
 73
    10
 74
     0
 42
0.00000001
 43
0.00000001
 40
0.0
 40
0.0
 40
0.0
 40
0.0
 40
0.1569475684321407
 40
0.3138942617658609
 40
0.4707159154169711
 40
0.6268370529658256
 40
0.7827598837360583
 40
0.9392925783922887
 40
1.0
 40
1.0
 40
1.0
 40
1.0
 10
1069.698988087187
 20
1423.077763980065
 30
0.0
 10
1069.856997580057
 20
1423.064433243703
 30
0.0
 10
1070.173015684777
 20
1423.037771845308
 30
0.0
 10
1070.908323296961
 20
1422.996132958129
 30
0.0
 10
1071.736886015281
 20
1422.97631035432
 30
0.0
 10
1072.587442825998
 20
1422.985651077179
 30
0.0
 10
1073.355383238228
 20
1423.020011208449
 30
0.0
 10
1073.845983862348
 20
1423.055912867869
 30
0.0
 10
1074.043728596699
 20
1423.072991407907
 30
0.0
 10
1074.098988063345
 20
1423.077763980065
 30
0.0
  0
SPLINE
  5
16E
330
1F
100
AcDbEntity
  8
0
  6
Continuous
 62
     7
370
    15
100
AcDbSpline
210
0.0
220
0.0
230
1.0
 70
     8
 71
     3
 72
    11
 73
     7
 74
     0
 42
0.00000001
 43
0.00000001
 40
0.0
 40
0.0
 40
0.0
 40
0.0
 40
0.2578368495217274
 40
0.51630173899492
 40
0.7605301048256948
 40
1.0
 40
1.0
 40
1.0
 40
1.0
 10
1069.698988087187
 20
1373.865723600421
 30
0.0
 10
1069.583014295453
 20
1373.866683285335
 30
0.0
 10
1069.350784222594
 20
1373.868604992766
 30
0.0
 10
1069.044698882177
 20
1374.023548873788
 30
0.0
 10
1068.808569571492
 20
1374.273770826261
 30
0.0
 10
1068.7454363995
 20
1374.495854988208
 30
0.0
 10
1068.714180355604
 20
1374.605804672275
 30
0.0
  0
SPLINE
  5
16F
330
1F
100
AcDbEntity
  8
0
  6
Continuous
 62
     7
370
    15
100
AcDbSpline
210
0.0
220
0.0
230
1.0
 70
     8
 71
     3
 72
    10
 73
     6
 74
     0
 42
0.00000001
 43
0.00000001
 40
0.0
 40
0.0
 40
0.0
 40
0.0
 40
0.1335962412018266
 40
0.8060823240075867
 40
1.0
 40
1.0
 40
1.0
 40
1.0
 10
1069.41936593474
 20
1423.063607876931
 30
0.0
 10
1069.413051248501
 20
1423.06245186406
 30
0.0
 10
1069.374950199305
 20
1423.055476805986
 30
0.0
 10
1069.506448403684
 20
1423.088371802329
 30
0.0
 10
1069.663775323645
 20
1423.079703999547
 30
0.0
 10
1069.698988087187
 20
1423.077763980065
 30
0.0
  0
SPLINE
  5
170
330
1F
100
AcDbEntity
  8
0
  6
Continuous
 62
     7
370
    15
100
AcDbSpline
210
0.0
220
0.0
230
1.0
 70
     8
 71
     3
 72
    12
 73
     8
 74
     0
 42
0.00000001
 43
0.00000001
 40
0.0
 40
0.0
 40
0.0
 40
0.0
 40
0.2058394912288291
 40
0.4122796284083226
 40
0.6248258172177259
 40
0.8581436861960319
 40
1.0
 40
1.0
 40
1.0
 40
1.0
 10
1075.083795794929
 20
1374.605804672275
 30
0.0
 10
1075.058394414654
 20
1374.511051173326
 30
0.0
 10
1075.007517532096
 20
1374.321267681809
 30
0.0
 10
1074.827519401862
 20
1374.092205193641
 30
0.0
 10
1074.585689139829
 20
1373.92931309347
 30
0.0
 10
1074.330581904315
 20
1373.85772363862
 30
0.0
 10
1074.162529863677
 20
1373.863528671691
 30
0.0
 10
1074.098988063345
 20
1373.865723600421
 30
0.0
  0
SPLINE
  5
171
330
1F
100
AcDbEntity
  8
0
  6
Continuous
 62
     7
370
    15
100
AcDbSpline
210
0.0
220
0.0
230
1.0
 70
     8
 71
     3
 72
     9
 73
     5
 74
     0
 42
0.00000001
 43
0.00000001
 40
0.0
 40
0.0
 40
0.0
 40
0.0
 40
0.5003663454941377
 40
1.0
 40
1.0
 40
1.0
 40
1.0
 10
1074.098988063345
 20
1423.077763980065
 30
0.0
 10
1074.187533174403
 20
1423.076621620768
 30
0.0
 10
1074.364493739108
 20
1423.074338574941
 30
0.0
 10
1074.373912767133
 20
1423.0671817866
 30
0.0
 10
1074.378618830527
 20
1423.063606014286
 30
0.0
  0
LINE
  5
172
330
1F
100
AcDbEntity
  8
0
  6
Continuous
 62
     7
370
    15
100
AcDbLine
 10
1075.6989881393
 20
1418.7906999046
 30
0.0
 11
1075.6989881393
 21
1378.104789173
 31
0.0
  0
LINE
  5
173
330
1F
100
AcDbEntity
  8
0
  6
Continuous
 62
     7
370
    15
100
AcDbLine
 10
1075.6989881393
 20
1378.104789173
 30
0.0
 11
1075.0837957949
 21
1374.6058046723
 31
0.0
  0
LINE
  5
174
330
1F
100
AcDbEntity
  8
0
  6
Continuous
 62
     7
370
    15
100
AcDbLine
 10
1068.7141803556
 20
1374.6058046723
 30
0.0
 11
1068.0989880112
 21
1378.104789173
 31
0.0
  0
LINE
  5
175
330
1F
100
AcDbEntity
  8
0
  6
Continuous
 62
     7
370
    15
100
AcDbLine
 10
1068.0989880112
 20
1418.7906999046
 30
0.0
 11
1068.0989880112
 21
1378.104789173
 31
0.0
  0
LINE
  5
176
330
1F
100
AcDbEntity
  8
0
  6
Continuous
 62
     7
370
    15
100
AcDbLine
 10
1063.3989876133
 20
1357.605978837
 30
0.0
 11
1080.3989885372
 21
1357.605978837
 31
0.0
  0
LINE
  5
177
330
1F
100
AcDbEntity
  8
0
  6
Continuous
 62
     7
370
    15
100
AcDbLine
 10
1065.8989880231
 20
1386.6059798652
 30
0.0
 11
1068.0989880112
 21
1386.6059798652
 31
0.0
  0
LINE
  5
178
330
1F
100
AcDbEntity
  8
0
  6
Continuous
 62
     7
370
    15
100
AcDbLine
 10
1075.6989881393
 20
1386.6059798652
 30
0.0
 11
1077.8989871961
 21
1386.6059798652
 31
0.0
  0
LINE
  5
179
330
1F
100
AcDbEntity
  8
0
  6
Continuous
 62
     7
370
    15
100
AcDbLine
 10
1728.9447696877
 20
1338.0374684835
 30
0.0
 11
1728.9447696877
 21
1343.0374711657
 31
0.0
  0
LINE
  5
17A
330
1F
100
AcDbEntity
  8
0
  6
Continuous
 62
     7
370
    15
100
AcDbLine
 10
1729.1947515679
 20
1338.3326977396
 30
0.0
 11
1729.1947515679
 21
1338.2874727154
 31
0.0
  0
LINE
  5
17B
330
1F
100
AcDbEntity
  8
0
  6
Continuous
 62
     7
370
    15
100
AcDbLine
 10
1729.1947515679
 20
1342.7874743843
 30
0.0
 11
1729.1947515679
 21
1338.3326977396
 31
0.0
  0
LINE
  5
17C
330
1F
100
AcDbEntity
  8
0
  6
Continuous
 62
     7
370
    15
100
AcDbLine
 10
1630.8532269669
 20
1343.0374711657
 30
0.0
 11
1630.8532269669
 21
1338.0374684835
 31
0.0
  0
LINE
  5
17D
330
1F
100
AcDbEntity
  8
0
  6
Continuous
 62
     7
370
    15
100
AcDbLine
 10
1630.6032450867
 20
1338.2874727154
 30
0.0
 11
1630.6032450867
 21
1342.7874743843
 31
0.0
  0
LINE
  5
17E
330
1F
100
AcDbEntity
  8
0
  6
Continuous
 62
     7
370
    15
100
AcDbLine
 10
1120.9447482598
 20
1337.1059819961
 30
0.0
 11
1120.9447482598
 21
1342.1059772277
 31
0.0
  0
LINE
  5
17F
330
1F
100
AcDbEntity
  8
0
  6
Continuous
 62
     7
370
    15
100
AcDbLine
 10
1121.1947487664
 20
1337.4012112522
 30
0.0
 11
1121.1947487664
 21
1337.3559787774
 31
0.0
  0
LINE
  5
180
330
1F
100
AcDbEntity
  8
0
  6
Continuous
 62
     7
370
    15
100
AcDbLine
 10
1121.1947487664
 20
1341.8559804464
 30
0.0
 11
1121.1947487664
 21
1337.4012112522
 31
0.0
  0
LINE
  5
181
330
1F
100
AcDbEntity
  8
0
  6
Continuous
 62
     7
370
    15
100
AcDbLine
 10
512.9447491837
 20
1334.6616402173
 30
0.0
 11
512.9447491837
 21
1339.6616428995
 31
0.0
  0
LINE
  5
182
330
1F
100
AcDbEntity
  8
0
  6
Continuous
 62
     7
370
    15
100
AcDbLine
 10
513.1947310639
 20
1334.9568694735
 30
0.0
 11
513.1947310639
 21
1334.9116369987
 31
0.0
  0
LINE
  5
183
330
1F
100
AcDbEntity
  8
0
  6
Continuous
 62
     7
370
    15
100
AcDbLine
 10
513.1947310639
 20
1339.4116386676
 30
0.0
 11
513.1947310639
 21
1334.9568694735
 31
0.0
  0
CIRCLE
  5
184
330
1F
100
AcDbEntity
  8
0
  6
Continuous
 62
     7
370
    15
100
AcDbCircle
 10
463.8989880753
 20
1337.1616397138
 30
0.0
 40
2.499999999999897
  0
CIRCLE
  5
185
330
1F
100
AcDbEntity
  8
0
  6
Continuous
 62
     7
370
    15
100
AcDbCircle
 10
463.8989880753
 20
1337.1616397138
 30
0.0
 40
2.250000000000134
  0
LINE
  5
186
330
1F
100
AcDbEntity
  8
0
  6
Continuous
 62
     7
370
    15
100
AcDbLine
 10
414.8532064629
 20
1339.6616428995
 30
0.0
 11
414.8532064629
 21
1334.6616402173
 31
0.0
  0
LINE
  5
187
330
1F
100
AcDbEntity
  8
0
  6
Continuous
 62
     7
370
    15
100
AcDbLine
 10
414.6032245827
 20
1334.9116369987
 30
0.0
 11
414.6032245827
 21
1339.4116386676
 31
0.0
  0
CIRCLE
  5
188
330
1F
100
AcDbEntity
  8
0
  6
Continuous
 62
     7
370
    15
100
AcDbCircle
 10
1679.8989880753
 20
1340.5374713286
 30
0.0
 40
2.500000000000154
  0
CIRCLE
  5
189
330
1F
100
AcDbEntity
  8
0
  6
Continuous
 62
     7
370
    15
100
AcDbCircle
 10
1679.8989880753
 20
1340.5374713286
 30
0.0
 40
2.249999999999956
  0
LINE
  5
18A
330
1F
100
AcDbEntity
  8
0
  6
Continuous
 62
     7
370
    15
100
AcDbLine
 10
1022.8532278907
 20
1342.1059772277
 30
0.0
 11
1022.8532278907
 21
1337.1059819961
 31
0.0
  0
LINE
  5
18B
330
1F
100
AcDbEntity
  8
0
  6
Continuous
 62
     7
370
    15
100
AcDbLine
 10
1022.6032273841
 20
1337.3559787774
 30
0.0
 11
1022.6032273841
 21
1341.8559804464
 31
0.0
  0
CIRCLE
  5
18C
330
1F
100
AcDbEntity
  8
0
  6
Continuous
 62
     7
370
    15
100
AcDbCircle
 10
1071.8989880753
 20
1339.605980353
 30
0.0
 40
2.499999999999886
  0
CIRCLE
  5
18D
330
1F
100
AcDbEntity
  8
0
  6
Continuous
 62
     7
370
    15
100
AcDbCircle
 10
1071.8989880753
 20
1339.605980353
 30
0.0
 40
2.249999999999911
  0
LINE
  5
18E
330
1F
100
AcDbEntity
  8
0
  6
Continuous
 62
     7
370
    15
100
AcDbLine
 10
1023.3989866448
 20
1353.6059819067
 30
0.0
 11
1120.3989895058
 21
1353.6059819067
 31
0.0
  0
LINE
  5
18F
330
1F
100
AcDbEntity
  8
0
  6
Continuous
 62
     7
370
    15
100
AcDbLine
 10
1121.398987807
 20
1352.6059798801
 30
0.0
 11
1022.3989883435
 21
1352.6059798801
 31
0.0
  0
LINE
  5
190
330
1F
100
AcDbEntity
  8
0
  6
Continuous
 62
     7
370
    15
100
AcDbLine
 10
1022.3989883435
 20
1350.6059795523
 30
0.0
 11
1121.398987807
 21
1350.6059795523
 31
0.0
  0
LINE
  5
191
330
1F
100
AcDbEntity
  8
0
  6
Continuous
 62
     7
370
    15
100
AcDbLine
 10
1631.3989670944
 20
1354.5374721194
 30
0.0
 11
1728.3989699555
 21
1354.5374721194
 31
0.0
  0
LINE
  5
192
330
1F
100
AcDbEntity
  8
0
  6
Continuous
 62
     7
370
    15
100
AcDbLine
 10
1729.3990166855
 20
1353.5374700928
 30
0.0
 11
1630.398979969
 21
1353.5374700928
 31
0.0
  0
LINE
  5
193
330
1F
100
AcDbEntity
  8
0
  6
Continuous
 62
     7
370
    15
100
AcDbLine
 10
1630.398979969
 20
1351.537469765
 30
0.0
 11
1729.3990166855
 21
1351.537469765
 31
0.0
  0
LINE
  5
194
330
1F
100
AcDbEntity
  8
0
  6
Continuous
 62
     7
370
    15
100
AcDbLine
 10
415.3990061951
 20
1351.1616401279
 30
0.0
 11
512.3990090561
 21
1351.1616401279
 31
0.0
  0
LINE
  5
195
330
1F
100
AcDbEntity
  8
0
  6
Continuous
 62
     7
370
    15
100
AcDbLine
 10
513.3989961815
 20
1350.1616381014
 30
0.0
 11
414.398959465
 21
1350.1616381014
 31
0.0
  0
LINE
  5
196
330
1F
100
AcDbEntity
  8
0
  6
Continuous
 62
     7
370
    15
100
AcDbLine
 10
414.398959465
 20
1348.1616414988
 30
0.0
 11
513.3989961815
 21
1348.1616414988
 31
0.0
  0
SPLINE
  5
197
330
1F
100
AcDbEntity
  8
0
  6
Continuous
 62
     7
370
    15
100
AcDbSpline
210
0.0
220
0.0
230
1.0
 70
     8
 71
     3
 72
    12
 73
     8
 74
     0
 42
0.00000001
 43
0.00000001
 40
0.0
 40
0.0
 40
0.0
 40
0.0
 40
0.2144733154611359
 40
0.4289344427576711
 40
0.6437312053585572
 40
0.858748210555286
 40
1.0
 40
1.0
 40
1.0
 40
1.0
 10
1114.292974210987
 20
1339.609391977821
 30
0.0
 10
1114.295368712382
 20
1339.272702723292
 30
0.0
 10
1114.300157579095
 20
1338.599343347728
 30
0.0
 10
1114.333814200619
 20
1337.699567920215
 30
0.0
 10
1114.370272605516
 20
1337.027169009784
 30
0.0
 10
1114.396438849843
 20
1336.645106031599
 30
0.0
 10
1114.396349277207
 20
1336.646923892503
 30
0.0
 10
1114.396313763867
 20
1336.647644629513
 30
0.0
  0
SPLINE
  5
198
330
1F
100
AcDbEntity
  8
0
  6
Continuous
 62
     7
370
    15
100
AcDbSpline
210
0.0
220
0.0
230
1.0
 70
     8
 71
     3
 72
    13
 73
     9
 74
     0
 42
0.00000001
 43
0.00000001
 40
0.0
 40
0.0
 40
0.0
 40
0.0
 40
0.0044324388520826
 40
0.2186163453673145
 40
0.4327971769821829
 40
0.6474387008486848
 40
0.8622905510242194
 40
0.9999999999999999
 40
0.9999999999999999
 40
0.9999999999999999
 40
0.9999999999999999
 10
1114.398753829012
 20
1342.60597079042
 30
0.0
 10
1114.398832334359
 20
1342.607109953418
 30
0.0
 10
1114.402704367914
 20
1342.66329564707
 30
0.0
 10
1114.388466757223
 20
1342.462801893172
 30
0.0
 10
1114.358354516536
 20
1341.992744155396
 30
0.0
 10
1114.320518472793
 20
1341.214871685256
 30
0.0
 10
1114.296511036394
 20
1340.377818100032
 30
0.0
 10
1114.293967650387
 20
1339.825230957145
 30
0.0
 10
1114.292974210987
 20
1339.609391977821
 30
0.0
  0
SPLINE
  5
199
330
1F
100
AcDbEntity
  8
0
  6
Continuous
 62
     7
370
    15
100
AcDbSpline
210
0.0
220
0.0
230
1.0
 70
     8
 71
     3
 72
    17
 73
    13
 74
     0
 42
0.00000001
 43
0.00000001
 40
0.0
 40
0.0
 40
0.0
 40
0.0
 40
0.0366856154027759
 40
0.1437795985488342
 40
0.2509711596142965
 40
0.3583956339781222
 40
0.4658256595277752
 40
0.5730240847326131
 40
0.6801150528115714
 40
0.7873905382901357
 40
0.8948542562353058
 40
1.0
 40
1.0
 40
1.0
 40
1.0
 10
1029.401662386666
 20
1336.647644629513
 30
0.0
 10
1029.400928824007
 20
1336.637142763599
 30
0.0
 10
1029.398053818545
 20
1336.595983468643
 30
0.0
 10
1029.417580822821
 20
1336.873050455383
 30
0.0
 10
1029.452015464139
 20
1337.449934516176
 30
0.0
 10
1029.488013030118
 20
1338.293437714819
 30
0.0
 10
1029.507830247811
 20
1339.27979715083
 30
0.0
 10
1029.503287346857
 20
1340.303527069548
 30
0.0
 10
1029.476177328336
 20
1341.249691910626
 30
0.0
 10
1029.438968866623
 20
1342.005326623883
 30
0.0
 10
1029.405916167086
 20
1342.513902417613
 30
0.0
 10
1029.401437326526
 20
1342.575505207578
 30
0.0
 10
1029.39922232152
 20
1342.60597079042
 30
0.0
  0
SPLINE
  5
19A
330
1F
100
AcDbEntity
  8
0
  6
Continuous
 62
     7
370
    15
100
AcDbSpline
210
0.0
220
0.0
230
1.0
 70
    11
 71
     3
 72
    26
 73
    22
 74
     0
 42
0.00000001
 43
0.00000001
 40
0.0
 40
0.0
 40
0.0
 40
0.0
 40
0.0535974416734501
 40
0.1071918374927346
 40
0.1608701094511548
 40
0.2146034206094834
 40
0.2682456001036897
 40
0.3217931191937364
 40
0.3753894277241284
 40
0.4291021940509723
 40
0.4828177359980735
 40
0.5364174766319644
 40
0.5899634881736096
 40
0.6436017593239424
 40
0.6973341476347621
 40
0.751016056526442
 40
0.804581815004338
 40
0.8581466101420627
 40
0.9118271129411417
 40
0.9655599190248394
 40
1.0
 40
1.0
 40
1.0
 40
1.0
 10
1074.898988101343
 20
1339.609391977821
 30
0.0
 10
1074.865903418313
 20
1339.946267028543
 30
0.0
 10
1074.7997359324
 20
1340.619997985934
 30
0.0
 10
1074.284035219463
 20
1341.51698521742
 30
0.0
 10
1073.523918012917
 20
1342.199998778927
 30
0.0
 10
1072.573513930502
 20
1342.591474186599
 30
0.0
 10
1071.549278062423
 20
1342.646608901986
 30
0.0
 10
1070.565094783998
 20
1342.36023892861
 30
0.0
 10
1069.730864878615
 20
1341.764957356119
 30
0.0
 10
1069.139664300802
 20
1340.926369446713
 30
0.0
 10
1068.859354046155
 20
1339.938790719309
 30
0.0
 10
1068.921657963684
 20
1338.915021181814
 30
0.0
 10
1069.318353679992
 20
1337.970230203594
 30
0.0
 10
1070.005199816957
 20
1337.209128538918
 30
0.0
 10
1070.906189461666
 20
1336.717554986389
 30
0.0
 10
1071.919253962993
 20
1336.552100442223
 30
0.0
 10
1072.928494038463
 20
1336.730822102589
 30
0.0
 10
1073.822953564505
 20
1337.232793811344
 30
0.0
 10
1074.496811402209
 20
1338.002078658204
 30
0.0
 10
1074.84964089103
 20
1338.841238094278
 30
0.0
 10
1074.885127235349
 20
1339.393629466116
 30
0.0
 10
1074.898988101343
 20
1339.609391977821
 30
0.0
  0
LINE
  5
19B
330
1F
100
AcDbEntity
  8
0
  6
Continuous
 62
     7
370
    15
100
AcDbLine
 10
1114.3989885223
 20
1349.1093926037
 30
0.0
 11
1029.3989876282
 21
1349.1093926037
 31
0.0
  0
LINE
  5
19C
330
1F
100
AcDbEntity
  8
0
  6
Continuous
 62
     7
370
    15
100
AcDbLine
 10
1029.8989886415
 20
1349.6093898917
 30
0.0
 11
1113.898987509
 21
1349.6093898917
 31
0.0
  0
LINE
  5
19D
330
1F
100
AcDbEntity
  8
0
  6
Continuous
 62
     7
370
    15
100
AcDbLine
 10
1637.8989728165
 20
1350.5408838296
 30
0.0
 11
1721.8989642334
 21
1350.5408838296
 31
0.0
  0
LINE
  5
19E
330
1F
100
AcDbEntity
  8
0
  6
Continuous
 62
     7
370
    15
100
AcDbLine
 10
1722.3989875984
 20
1350.0408828163
 30
0.0
 11
1637.3990090561
 21
1350.0408828163
 31
0.0
  0
SPLINE
  5
19F
330
1F
100
AcDbEntity
  8
0
  6
Continuous
 62
     7
370
    15
100
AcDbSpline
210
0.0
220
0.0
230
1.0
 70
     8
 71
     3
 72
    12
 73
     8
 74
     0
 42
0.00000001
 43
0.00000001
 40
0.0
 40
0.0
 40
0.0
 40
0.0
 40
0.2144747840700723
 40
0.428934304332459
 40
0.64373211794393
 40
0.8587483465508707
 40
0.9999999999999999
 40
0.9999999999999999
 40
0.9999999999999999
 40
0.9999999999999999
 10
1722.292950935374
 20
1340.54088591579
 30
0.0
 10
1722.295359408575
 20
1340.20419373708
 30
0.0
 10
1722.300176183569
 20
1339.530833341473
 30
0.0
 10
1722.333801657263
 20
1338.631061163814
 30
0.0
 10
1722.370299408962
 20
1337.95865314623
 30
0.0
 10
1722.396471581756
 20
1337.57660144851
 30
0.0
 10
1722.396352573377
 20
1337.578418249536
 30
0.0
 10
1722.396305389414
 20
1337.579138567482
 30
0.0
  0
SPLINE
  5
1A0
330
1F
100
AcDbEntity
  8
0
  6
Continuous
 62
     7
370
    15
100
AcDbSpline
210
0.0
220
0.0
230
1.0
 70
     8
 71
     3
 72
    13
 73
     9
 74
     0
 42
0.00000001
 43
0.00000001
 40
0.0
 40
0.0
 40
0.0
 40
0.0
 40
0.0044324606452146
 40
0.21861663091472
 40
0.432796778967769
 40
0.6474385458795863
 40
0.8622919783941918
 40
1.0
 40
1.0
 40
1.0
 40
1.0
 10
1722.39874917985
 20
1343.537457277809
 30
0.0
 10
1722.398830201256
 20
1343.538596441051
 30
0.0
 10
1722.402826317243
 20
1343.594781943878
 30
0.0
 10
1722.388364519955
 20
1343.394286983596
 30
0.0
 10
1722.358371157175
 20
1342.924238924204
 30
0.0
 10
1722.320481317816
 20
1342.146363953504
 30
0.0
 10
1722.296519116633
 20
1341.309308761176
 30
0.0
 10
1722.293953174359
 20
1340.756722297686
 30
0.0
 10
1722.292950935373
 20
1340.54088591579
 30
0.0
  0
SPLINE
  5
1A1
330
1F
100
AcDbEntity
  8
0
  6
Continuous
 62
     7
370
    15
100
AcDbSpline
210
0.0
220
0.0
230
1.0
 70
     8
 71
     3
 72
    17
 73
    13
 74
     0
 42
0.00000001
 43
0.00000001
 40
0.0
 40
0.0
 40
0.0
 40
0.0
 40
0.036685636902359
 40
0.143779681873005
 40
0.2509707228303056
 40
0.3583952685381562
 40
0.4658261191283065
 40
0.5730238009080841
 40
0.6801147221850711
 40
0.787390239888218
 40
0.8948543701579729
 40
1.0
 40
1.0
 40
1.0
 40
1.0
 10
1637.401691265116
 20
1337.579138567482
 30
0.0
 10
1637.400947324762
 20
1337.56863668027
 30
0.0
 10
1637.398031646679
 20
1337.52747730211
 30
0.0
 10
1637.41762317301
 20
1337.804545209433
 30
0.0
 10
1637.451992222149
 20
1338.381420880873
 30
0.0
 10
1637.488013750867
 20
1339.224926470999
 30
0.0
 10
1637.507867836924
 20
1340.21128642072
 30
0.0
 10
1637.503242405974
 20
1341.23501510827
 30
0.0
 10
1637.476202090931
 20
1342.181179585421
 30
0.0
 10
1637.438976182887
 20
1342.936811208569
 30
0.0
 10
1637.405923360158
 20
1343.445399842284
 30
0.0
 10
1637.401456532986
 20
1343.506995364822
 30
0.0
 10
1637.39924747468
 20
1343.537457277809
 30
0.0
  0
SPLINE
  5
1A2
330
1F
100
AcDbEntity
  8
0
  6
Continuous
 62
     7
370
    15
100
AcDbSpline
210
0.0
220
0.0
230
1.0
 70
    11
 71
     3
 72
    26
 73
    22
 74
     0
 42
0.00000001
 43
0.00000001
 40
0.0
 40
0.0
 40
0.0
 40
0.0
 40
0.0535974268029439
 40
0.1071911717951702
 40
0.1608713916294464
 40
0.2146030976022039
 40
0.2682451836452931
 40
0.3217934094877125
 40
0.3753885940764595
 40
0.4291013517529718
 40
0.4828174403877213
 40
0.5364172213568649
 40
0.5899633250817162
 40
0.6436010061562475
 40
0.6973348767349205
 40
0.7510164861343591
 40
0.8045817966268981
 40
0.8581475345496721
 40
0.9118265781924567
 40
0.9655599806948981
 40
1.0
 40
1.0
 40
1.0
 40
1.0
 10
1682.898989505778
 20
1340.54088591579
 30
0.0
 10
1682.865902488056
 20
1340.87775907166
 30
0.0
 10
1682.799730725486
 20
1341.551482242304
 30
0.0
 10
1682.284067458687
 20
1342.448505984594
 30
0.0
 10
1681.52390305288
 20
1343.131465709668
 30
0.0
 10
1680.573518994603
 20
1343.522980966484
 30
0.0
 10
1679.549284877864
 20
1343.578084796641
 30
0.0
 10
1678.565097420354
 20
1343.291747263906
 30
0.0
 10
1677.730880710814
 20
1342.696441283098
 30
0.0
 10
1677.139697052036
 20
1341.85785807513
 30
0.0
 10
1676.8593193042
 20
1340.870291152177
 30
0.0
 10
1676.92166235191
 20
1339.846512836637
 30
0.0
 10
1677.318356906174
 20
1338.901731793758
 30
0.0
 10
1678.005192186047
 20
1338.140609343116
 30
0.0
 10
1678.906194404043
 20
1337.649045996869
 30
0.0
 10
1679.91926430212
 20
1337.483593774224
 30
0.0
 10
1680.928498809
 20
1337.662324692745
 30
0.0
 10
1681.822977321174
 20
1338.164266662642
 30
0.0
 10
1682.496778642821
 20
1338.933596109384
 30
0.0
 10
1682.849662279912
 20
1339.772724200916
 30
0.0
 10
1682.885134331372
 20
1340.325122423227
 30
0.0
 10
1682.898989505778
 20
1340.54088591579
 30
0.0
  0
SPLINE
  5
1A3
330
1F
100
AcDbEntity
  8
0
  6
Continuous
 62
     7
370
    15
100
AcDbSpline
210
0.0
220
0.0
230
1.0
 70
     8
 71
     3
 72
    12
 73
     8
 74
     0
 42
0.00000001
 43
0.00000001
 40
0.0
 40
0.0
 40
0.0
 40
0.0
 40
0.2144732377572397
 40
0.4289343136034729
 40
0.6437312365254763
 40
0.8587482371446563
 40
1.0
 40
1.0
 40
1.0
 40
1.0
 10
506.2929900360206
 20
1337.165050199066
 30
0.0
 10
506.2953733747208
 20
1336.828360952313
 30
0.0
 10
506.3001399169714
 20
1336.155001551096
 30
0.0
 10
506.3337851742845
 20
1335.255225644106
 30
0.0
 10
506.3702779323244
 20
1334.58282756523
 30
0.0
 10
506.3964512230845
 20
1334.200764231663
 30
0.0
 10
506.3963321105811
 20
1334.202582107786
 30
0.0
 10
506.3962848854164
 20
1334.203302850757
 30
0.0
  0
SPLINE
  5
1A4
330
1F
100
AcDbEntity
  8
0
  6
Continuous
 62
     7
370
    15
100
AcDbSpline
210
0.0
220
0.0
230
1.0
 70
     8
 71
     3
 72
    13
 73
     9
 74
     0
 42
0.00000001
 43
0.00000001
 40
0.0
 40
0.0
 40
0.0
 40
0.0
 40
0.004432454623473
 40
0.2186161822022353
 40
0.4327960392797704
 40
0.6474387050210875
 40
0.8622906828485065
 40
1.0
 40
1.0
 40
1.0
 40
1.0
 10
506.3987286758522
 20
1340.161629011665
 30
0.0
 10
506.3988096910098
 20
1340.162768174961
 30
0.0
 10
506.4028054960377
 20
1340.218953641446
 30
0.0
 10
506.3884333865931
 20
1340.018458197134
 30
0.0
 10
506.3583944521915
 20
1339.548411074089
 30
0.0
 10
506.3205535915487
 20
1338.77052918206
 30
0.0
 10
506.2964597920671
 20
1337.933477390312
 30
0.0
 10
506.2939646360148
 20
1337.380889331922
 30
0.0
 10
506.2929900360206
 20
1337.165050199066
 30
0.0
  0
SPLINE
  5
1A5
330
1F
100
AcDbEntity
  8
0
  6
Continuous
 62
     7
370
    15
100
AcDbSpline
210
0.0
220
0.0
230
1.0
 70
     8
 71
     3
 72
    17
 73
    13
 74
     0
 42
0.00000001
 43
0.00000001
 40
0.0
 40
0.0
 40
0.0
 40
0.0
 40
0.0366856233756128
 40
0.1437796288584894
 40
0.250971091175727
 40
0.3583955972739458
 40
0.4658256445752752
 40
0.5730240524085565
 40
0.6801150922352434
 40
0.7873905703837081
 40
0.8948542809859167
 40
1.0
 40
1.0
 40
1.0
 40
1.0
 10
421.4016707611182
 20
1334.203302850757
 30
0.0
 10
421.4009268119767
 20
1334.192800988885
 30
0.0
 10
421.398011099455
 20
1334.151641710033
 30
0.0
 10
421.417603308453
 20
1334.428708261357
 30
0.0
 10
421.4519696299591
 20
1335.005593300945
 30
0.0
 10
421.4880005874966
 20
1335.849095870404
 30
0.0
 10
421.5078196680743
 20
1336.835455094416
 30
0.0
 10
421.503325148783
 20
1337.859185864045
 30
0.0
 10
421.4761539239159
 20
1338.805349669191
 30
0.0
 10
421.4389631615811
 20
1339.56098491953
 30
0.0
 10
421.4059009862131
 20
1340.069560591764
 30
0.0
 10
421.4014354137707
 20
1340.13116341496
 30
0.0
 10
421.3992269706825
 20
1340.161629011665
 30
0.0
  0
SPLINE
  5
1A6
330
1F
100
AcDbEntity
  8
0
  6
Continuous
 62
     7
370
    15
100
AcDbSpline
210
0.0
220
0.0
230
1.0
 70
    11
 71
     3
 72
    26
 73
    22
 74
     0
 42
0.00000001
 43
0.00000001
 40
0.0
 40
0.0
 40
0.0
 40
0.0
 40
0.0535974452355563
 40
0.1071912086591289
 40
0.1608690787846533
 40
0.2146037383398607
 40
0.2682458641558478
 40
0.321794219283893
 40
0.3753894223044814
 40
0.4291021984532695
 40
0.4828174387226291
 40
0.5364170453389187
 40
0.5899631674787321
 40
0.6436029934380183
 40
0.6973339056173188
 40
0.7510155974500105
 40
0.8045809263641169
 40
0.8581468770362742
 40
0.9118277393565781
 40
0.9655599688506816
 40
1.0
 40
1.0
 40
1.0
 40
1.0
 10
466.8989690017797
 20
1337.165050199066
 30
0.0
 10
466.8658827451736
 20
1337.501924312657
 30
0.0
 10
466.7997125047821
 20
1338.175649398678
 30
0.0
 10
466.2840454072923
 20
1339.072645563901
 30
0.0
 10
465.5239271958411
 20
1339.755667151174
 30
0.0
 10
464.5735103625295
 20
1340.14712813114
 30
0.0
 10
463.5492654932477
 20
1340.202265059903
 30
0.0
 10
462.5650758574787
 20
1339.915908147466
 30
0.0
 10
461.7308671771308
 20
1339.320605150237
 30
0.0
 10
461.1396534221649
 20
1338.48203237219
 30
0.0
 10
460.8593994741324
 20
1337.494446091214
 30
0.0
 10
460.9216183493568
 20
1336.470679140054
 30
0.0
 10
461.3183373785577
 20
1335.525872296238
 30
0.0
 10
462.0052202548017
 20
1334.764810916819
 30
0.0
 10
462.9061862810898
 20
1334.27320465328
 30
0.0
 10
463.9192432765974
 20
1334.107760220086
 30
0.0
 10
464.9284855209726
 20
1334.286483031676
 30
0.0
 10
465.8229450312599
 20
1334.788460408219
 30
0.0
 10
466.4968416052703
 20
1335.557723773145
 30
0.0
 10
466.8496302912093
 20
1336.396901865577
 30
0.0
 10
466.8851104668478
 20
1336.949288368455
 30
0.0
 10
466.8989690017799
 20
1337.165050199066
 30
0.0
  0
LINE
  5
1A7
330
1F
100
AcDbEntity
  8
0
  6
Continuous
 62
     7
370
    15
100
AcDbLine
 10
506.3989670944
 20
1346.6650508249
 30
0.0
 11
421.3989885521
 21
1346.6650508249
 31
0.0
  0
LINE
  5
1A8
330
1F
100
AcDbEntity
  8
0
  6
Continuous
 62
     7
370
    15
100
AcDbLine
 10
421.8990119171
 20
1347.1650518382
 30
0.0
 11
505.8990033341
 21
1347.1650518382
 31
0.0
  0
LINE
  5
1A9
330
1F
100
AcDbEntity
  8
0
  6
Continuous
 62
     7
370
    15
100
AcDbLine
 10
1817.9042251778
 20
2623.1883168125
 30
0.0
 11
1816.9186623764
 21
2623.1883168125
 31
0.0
  0
LINE
  5
1AA
330
1F
100
AcDbEntity
  8
0
  6
Continuous
 62
     7
370
    15
100
AcDbLine
 10
1816.9186623764
 20
2623.1883168125
 30
0.0
 11
1816.9186623764
 21
2621.9382882023
 31
0.0
  0
LINE
  5
1AB
330
1F
100
AcDbEntity
  8
0
  6
Continuous
 62
     7
370
    15
100
AcDbLine
 10
1817.9042251778
 20
2621.9382882023
 30
0.0
 11
1827.8989704323
 21
2621.9382882023
 31
0.0
  0
LINE
  5
1AC
330
1F
100
AcDbEntity
  8
0
  6
Continuous
 62
     7
370
    15
100
AcDbLine
 10
1815.8990057182
 20
2621.9382882023
 30
0.0
 11
1816.9186623764
 21
2621.9382882023
 31
0.0
  0
LINE
  5
1AD
330
1F
100
AcDbEntity
  8
0
  6
Continuous
 62
     7
370
    15
100
AcDbLine
 10
1817.9042251778
 20
2621.9382882023
 30
0.0
 11
1817.9042251778
 21
2623.1883168125
 31
0.0
  0
LINE
  5
1AE
330
1F
100
AcDbEntity
  8
0
  6
Continuous
 62
     7
370
    15
100
AcDbLine
 10
1815.8990057182
 20
2623.9382624531
 30
0.0
 11
1827.8989704323
 21
2623.9382624531
 31
0.0
  0
LINE
  5
1AF
330
1F
100
AcDbEntity
  8
0
  6
Continuous
 62
     7
370
    15
100
AcDbLine
 10
1818.7739761543
 20
2618.9382672215
 30
0.0
 11
1825.0239999962
 21
2618.9382672215
 31
0.0
  0
LINE
  5
1B0
330
1F
100
AcDbEntity
  8
0
  6
Continuous
 62
     7
370
    15
100
AcDbLine
 10
1818.7739761543
 20
2613.9382719899
 30
0.0
 11
1825.0239999962
 21
2613.9382719899
 31
0.0
  0
LINE
  5
1B1
330
1F
100
AcDbEntity
  8
0
  6
Continuous
 62
     7
370
    15
100
AcDbLine
 10
1817.9042251778
 20
2621.9382882023
 30
0.0
 11
1816.9186623764
 21
2621.9382882023
 31
0.0
  0
LINE
  5
1B2
330
1F
100
AcDbEntity
  8
0
  6
Continuous
 62
     7
370
    15
100
AcDbLine
 10
1813.8989718628
 20
2647.9383110905
 30
0.0
 11
1829.8990042877
 21
2647.9383110905
 31
0.0
  0
LINE
  5
1B3
330
1F
100
AcDbEntity
  8
0
  6
Continuous
 62
     7
370
    15
100
AcDbLine
 10
1813.8989718628
 20
2649.9382853413
 30
0.0
 11
1829.8990042877
 21
2649.9382853413
 31
0.0
  0
SPLINE
  5
1B4
330
1F
100
AcDbEntity
  8
0
  6
Continuous
 62
     7
370
    15
100
AcDbSpline
210
0.0
220
0.0
230
1.0
 70
    11
 71
     3
 72
    26
 73
    22
 74
     0
 42
0.00000001
 43
0.00000001
 40
0.0
 40
0.0
 40
0.0
 40
0.0
 40
0.0525299974791987
 40
0.105026612155652
 40
0.1585668755426274
 40
0.2128426786745587
 40
0.2660039475743821
 40
0.317999497589433
 40
0.3704723366625555
 40
0.4243716078790533
 40
0.4785057958828823
 40
0.5312114983989911
 40
0.5830692655767611
 40
0.6359529297738891
 40
0.6901420871746691
 40
0.7439277572464948
 40
0.7962599579350041
 40
0.8483278319358207
 40
0.9016528632145232
 40
0.955934053273303
 40
1.0
 40
1.0
 40
1.0
 40
1.0
 10
1817.342928237925
 20
2645.305097093616
 30
0.0
 10
1817.353635672944
 20
2645.139412994139
 30
0.0
 10
1817.375043738411
 20
2644.808150087397
 30
0.0
 10
1817.545889132426
 20
2644.365269070829
 30
0.0
 10
1817.812642428996
 20
2644.021482767481
 30
0.0
 10
1818.171818726001
 20
2643.818824301884
 30
0.0
 10
1818.584319050444
 20
2643.784834552135
 30
0.0
 10
1819.001354844007
 20
2643.91691696477
 30
0.0
 10
1819.377814384385
 20
2644.197892750434
 30
0.0
 10
1819.666279339669
 20
2644.604728820108
 30
0.0
 10
1819.816112932575
 20
2645.094178346892
 30
0.0
 10
1819.800755207292
 20
2645.602121666883
 30
0.0
 10
1819.63004798583
 20
2646.071169122333
 30
0.0
 10
1819.330012208405
 20
2646.460040586241
 30
0.0
 10
1818.937839279157
 20
2646.726199284722
 30
0.0
 10
1818.510940876023
 20
2646.832168322173
 30
0.0
 10
1818.109038117167
 20
2646.767911800502
 30
0.0
 10
1817.769257623535
 20
2646.546815731076
 30
0.0
 10
1817.51590421434
 20
2646.188997767319
 30
0.0
 10
1817.367442141197
 20
2645.753547287172
 30
0.0
 10
1817.350513414294
 20
2645.443858096829
 30
0.0
 10
1817.342928237925
 20
2645.305097093616
 30
0.0
  0
SPLINE
  5
1B5
330
1F
100
AcDbEntity
  8
0
  6
Continuous
 62
     7
370
    15
100
AcDbSpline
210
0.0
220
0.0
230
1.0
 70
     8
 71
     3
 72
    13
 73
     9
 74
     0
 42
0.00000001
 43
0.00000001
 40
0.0
 40
0.0
 40
0.0
 40
0.0
 40
0.1833921481530742
 40
0.3669631014794356
 40
0.5483749188518112
 40
0.7354379007465397
 40
0.9289715106707901
 40
1.0
 40
1.0
 40
1.0
 40
1.0
 10
1818.029216117869
 20
2645.93821763042
 30
0.0
 10
1817.993681304933
 20
2645.784544010418
 30
0.0
 10
1817.922577033038
 20
2645.477046940454
 30
0.0
 10
1817.944896162246
 20
2644.979250144313
 30
0.0
 10
1818.060445288026
 20
2644.518637757605
 30
0.0
 10
1818.283061108784
 20
2644.144786688889
 30
0.0
 10
1818.52642102521
 20
2643.913039848997
 30
0.0
 10
1818.710726061553
 20
2643.876803903776
 30
0.0
 10
1818.760207481394
 20
2643.867075433765
 30
0.0
  0
LINE
  5
1B6
330
1F
100
AcDbEntity
  8
0
  6
Continuous
 62
     7
370
    15
100
AcDbLine
 10
1819.6520121765
 20
2645.9382176304
 30
0.0
 11
1818.0108578873
 21
2645.9382176304
 31
0.0
  0
SPLINE
  5
1B7
330
1F
100
AcDbEntity
  8
0
  6
Continuous
 62
     7
370
    15
100
AcDbSpline
210
0.0
220
0.0
230
1.0
 70
     8
 71
     3
 72
    10
 73
     6
 74
     0
 42
0.00000001
 43
0.00000001
 40
0.0
 40
0.0
 40
0.0
 40
0.0
 40
0.3245344320736036
 40
0.7060486082138051
 40
1.0
 40
1.0
 40
1.0
 40
1.0
 10
1818.97633392335
 20
2646.668851366077
 30
0.0
 10
1818.860906264285
 20
2646.609450613457
 30
0.0
 10
1818.609784873217
 20
2646.480219892248
 30
0.0
 10
1818.289540958491
 20
2646.212372475579
 30
0.0
 10
1818.108153099991
 20
2646.021348214729
 30
0.0
 10
1818.029216117869
 20
2645.938217630421
 30
0.0
  0
LINE
  5
1B8
330
1F
100
AcDbEntity
  8
0
  6
Continuous
 62
     7
370
    15
100
AcDbLine
 10
1825.9582431984
 20
1678.3350706005
 30
0.0
 11
1836.1489685249
 21
1678.3350706005
 31
0.0
  0
LINE
  5
1B9
330
1F
100
AcDbEntity
  8
0
  6
Continuous
 62
     7
370
    15
100
AcDbLine
 10
1807.6490076256
 20
1678.3350706005
 30
0.0
 11
1825.9582431984
 21
1678.3350706005
 31
0.0
  0
LINE
  5
1BA
330
1F
100
AcDbEntity
  8
0
  6
Continuous
 62
     7
370
    15
100
AcDbLine
 10
1826.1006982994
 20
1677.8350472355
 30
0.0
 11
1807.1489842606
 21
1677.8350472355
 31
0.0
  0
LINE
  5
1BB
330
1F
100
AcDbEntity
  8
0
  6
Continuous
 62
     7
370
    15
100
AcDbLine
 10
1836.64899189
 20
1677.8350472355
 30
0.0
 11
1826.1006982994
 21
1677.8350472355
 31
0.0
  0
LINE
  5
1BC
330
1F
100
AcDbEntity
  8
0
  6
Continuous
 62
     7
370
    15
100
AcDbLine
 10
1826.1006982994
 20
1675.3350496197
 30
0.0
 11
1836.64899189
 21
1675.3350496197
 31
0.0
  0
LINE
  5
1BD
330
1F
100
AcDbEntity
  8
0
  6
Continuous
 62
     7
370
    15
100
AcDbLine
 10
1807.1489842606
 20
1675.3350496197
 30
0.0
 11
1826.1006982994
 21
1675.3350496197
 31
0.0
  0
LINE
  5
1BE
330
1F
100
AcDbEntity
  8
0
  6
Continuous
 62
     7
370
    15
100
AcDbLine
 10
1823.8930018616
 20
1656.3350558186
 30
0.0
 11
1828.8990171623
 21
1656.3350558186
 31
0.0
  0
LINE
  5
1BF
330
1F
100
AcDbEntity
  8
0
  6
Continuous
 62
     7
370
    15
100
AcDbLine
 10
1814.8989589882
 20
1656.3350558186
 30
0.0
 11
1823.8930018616
 21
1656.3350558186
 31
0.0
  0
LINE
  5
1C0
330
1F
100
AcDbEntity
  8
0
  6
Continuous
 62
     7
370
    15
100
AcDbLine
 10
326.7440112305
 20
1678.3350706005
 30
0.0
 11
336.1489685249
 21
1678.3350706005
 31
0.0
  0
LINE
  5
1C1
330
1F
100
AcDbEntity
  8
0
  6
Continuous
 62
     7
370
    15
100
AcDbLine
 10
307.6490076256
 20
1678.3350706005
 30
0.0
 11
326.7440112305
 21
1678.3350706005
 31
0.0
  0
LINE
  5
1C2
330
1F
100
AcDbEntity
  8
0
  6
Continuous
 62
     7
370
    15
100
AcDbLine
 10
326.9140036774
 20
1677.8350472355
 30
0.0
 11
307.1489842606
 21
1677.8350472355
 31
0.0
  0
LINE
  5
1C3
330
1F
100
AcDbEntity
  8
0
  6
Continuous
 62
     7
370
    15
100
AcDbLine
 10
336.64899189
 20
1677.8350472355
 30
0.0
 11
326.9140036774
 21
1677.8350472355
 31
0.0
  0
LINE
  5
1C4
330
1F
100
AcDbEntity
  8
0
  6
Continuous
 62
     7
370
    15
100
AcDbLine
 10
326.9140036774
 20
1675.3350496197
 30
0.0
 11
336.64899189
 21
1675.3350496197
 31
0.0
  0
LINE
  5
1C5
330
1F
100
AcDbEntity
  8
0
  6
Continuous
 62
     7
370
    15
100
AcDbLine
 10
307.1489842606
 20
1675.3350496197
 30
0.0
 11
326.9140036774
 21
1675.3350496197
 31
0.0
  0
SPLINE
  5
1C6
330
1F
100
AcDbEntity
  8
0
  6
Continuous
 62
     7
370
    15
100
AcDbSpline
210
0.0
220
0.0
230
1.0
 70
     8
 71
     3
 72
    12
 73
     8
 74
     0
 42
0.00000001
 43
0.00000001
 40
0.0
 40
0.0
 40
0.0
 40
0.0
 40
0.2052659474710016
 40
0.4101946226650725
 40
0.6235381286124662
 40
0.8432525747418202
 40
1.0
 40
1.0
 40
1.0
 40
1.0
 10
321.7709572982887
 20
1671.335041513477
 30
0.0
 10
321.798704113795
 20
1671.605868639296
 30
0.0
 10
321.8541521540424
 20
1672.14707789515
 30
0.0
 10
322.277996658414
 20
1672.876176341085
 30
0.0
 10
322.8984796209999
 20
1673.445722488536
 30
0.0
 10
323.6116730912926
 20
1673.793497404934
 30
0.0
 10
324.0820275655938
 20
1673.804100324756
 30
0.0
 10
324.2778690528968
 20
1673.808515062366
 30
0.0
  0
SPLINE
  5
1C7
330
1F
100
AcDbEntity
  8
0
  6
Continuous
 62
     7
370
    15
100
AcDbSpline
210
0.0
220
0.0
230
1.0
 70
     8
 71
     3
 72
    12
 73
     8
 74
     0
 42
0.00000001
 43
0.00000001
 40
0.0
 40
0.0
 40
0.0
 40
0.0
 40
0.1502251121033401
 40
0.3515390370238322
 40
0.5609774113306623
 40
0.7801286437387455
 40
1.0
 40
1.0
 40
1.0
 40
1.0
 10
324.2777498436072
 20
1668.860942115818
 30
0.0
 10
324.090240422913
 20
1668.864296949528
 30
0.0
 10
323.6514530573334
 20
1668.872147534531
 30
0.0
 10
322.9698195012597
 20
1669.183980406646
 30
0.0
 10
322.3360243996594
 20
1669.72042852057
 30
0.0
 10
321.8666380530624
 20
1670.465279704558
 30
0.0
 10
321.8028857406154
 20
1671.044804048066
 30
0.0
 10
321.7709572982887
 20
1671.335041513477
 30
0.0
  0
LINE
  5
1C8
330
1F
100
AcDbEntity
  8
0
  6
Continuous
 62
     7
370
    15
100
AcDbLine
 10
324.2790015411
 20
1656.3350558186
 30
0.0
 11
328.8990171623
 21
1656.3350558186
 31
0.0
  0
LINE
  5
1C9
330
1F
100
AcDbEntity
  8
0
  6
Continuous
 62
     7
370
    15
100
AcDbLine
 10
314.8989589882
 20
1656.3350558186
 30
0.0
 11
324.2790015411
 21
1656.3350558186
 31
0.0
  0
LINE
  5
1CC
330
1F
100
AcDbEntity
  8
0
  6
Continuous
 62
     7
370
    15
100
AcDbLine
 10
327.3990066719
 20
2603.9382815266
 30
0.0
 11
316.3989694786
 21
2603.9382815266
 31
0.0
  0
LINE
  5
1CD
330
1F
100
AcDbEntity
  8
0
  6
Continuous
 62
     7
370
    15
100
AcDbLine
 10
313.3260520172
 20
2606.4382195378
 30
0.0
 11
330.8989914131
 21
2606.4382195378
 31
0.0
  0
LINE
  5
1CE
330
1F
100
AcDbEntity
  8
0
  6
Continuous
 62
     7
370
    15
100
AcDbLine
 10
312.8989847374
 20
2606.4382195378
 30
0.0
 11
313.3260520172
 21
2606.4382195378
 31
0.0
  0
LINE
  5
1CF
330
1F
100
AcDbEntity
  8
0
  6
Continuous
 62
     7
370
    15
100
AcDbLine
 10
316.3027675819
 20
2604.438245287
 30
0.0
 11
327.7739794922
 21
2604.438245287
 31
0.0
  0
LINE
  5
1D0
330
1F
100
AcDbEntity
  8
0
  6
Continuous
 62
     7
370
    15
100
AcDbLine
 10
316.0239966583
 20
2604.438245287
 30
0.0
 11
316.3027675819
 21
2604.438245287
 31
0.0
  0
LINE
  5
1D1
330
1F
100
AcDbEntity
  8
0
  6
Continuous
 62
     7
370
    15
100
AcDbLine
 10
356.4553173256
 20
2611.9382977391
 30
0.0
 11
240.8990176392
 21
2611.9382977391
 31
0.0
  0
LINE
  5
1D2
330
1F
100
AcDbEntity
  8
0
  6
Continuous
 62
     7
370
    15
100
AcDbLine
 10
402.8989585114
 20
2611.9382977391
 30
0.0
 11
356.4553173256
 21
2611.9382977391
 31
0.0
  0
LINE
  5
1D3
330
1F
100
AcDbEntity
  8
0
  6
Continuous
 62
     7
370
    15
100
AcDbLine
 10
357.7352078629
 20
2649.9382853413
 30
0.0
 11
237.8989966583
 21
2649.9382853413
 31
0.0
  0
LINE
  5
1D4
330
1F
100
AcDbEntity
  8
0
  6
Continuous
 62
     7
370
    15
100
AcDbLine
 10
405.8989794922
 20
2649.9382853413
 30
0.0
 11
357.7352078629
 21
2649.9382853413
 31
0.0
  0
SPLINE
  5
1D5
330
1F
100
AcDbEntity
  8
0
  6
Continuous
 62
     7
370
    15
100
AcDbSpline
210
0.0
220
0.0
230
1.0
 70
     8
 71
     3
 72
    11
 73
     7
 74
     0
 42
0.00000001
 43
0.00000001
 40
0.0
 40
0.0
 40
0.0
 40
0.0
 40
0.1444962623298406
 40
0.4217933878089979
 40
0.7205614302820518
 40
1.0
 40
1.0
 40
1.0
 40
1.0
 10
1685.840955562601
 20
1399.38475237209
 30
0.0
 10
1685.853137596547
 20
1399.374444635815
 30
0.0
 10
1685.888697695373
 20
1399.344355726013
 30
0.0
 10
1685.477328851471
 20
1399.691626627674
 30
0.0
 10
1684.789505684748
 20
1400.280138554552
 30
0.0
 10
1684.05431140102
 20
1400.81285469049
 30
0.0
 10
1683.699003047953
 20
1401.070308396403
 30
0.0
  0
SPLINE
  5
1D6
330
1F
100
AcDbEntity
  8
0
  6
Continuous
 62
     7
370
    15
100
AcDbSpline
210
0.0
220
0.0
230
1.0
 70
     8
 71
     3
 72
    11
 73
     7
 74
     0
 42
0.00000001
 43
0.00000001
 40
0.0
 40
0.0
 40
0.0
 40
0.0
 40
0.0106952088692822
 40
0.4525102216279803
 40
0.7601228412018193
 40
1.0
 40
1.0
 40
1.0
 40
1.0
 10
1676.098993606577
 20
1401.092050121908
 30
0.0
 10
1676.083674490885
 20
1401.082496765635
 30
0.0
 10
1675.435528529303
 20
1400.678297893337
 30
0.0
 10
1674.711753959793
 20
1400.002169330055
 30
0.0
 10
1673.980955703948
 20
1399.409370297648
 30
0.0
 10
1673.954379899519
 20
1399.383698411711
 30
0.0
 10
1673.942735977183
 20
1399.372450532202
 30
0.0
  0
SPLINE
  5
1D7
330
1F
100
AcDbEntity
  8
0
  6
Continuous
 62
     7
370
    15
100
AcDbSpline
210
0.0
220
0.0
230
1.0
 70
     8
 71
     3
 72
    11
 73
     7
 74
     0
 42
0.00000001
 43
0.00000001
 40
0.0
 40
0.0
 40
0.0
 40
0.0
 40
0.1444960627032968
 40
0.4217936917935418
 40
0.7205583337108985
 40
1.0
 40
1.0
 40
1.0
 40
1.0
 10
1077.840933203409
 20
1399.38475237209
 30
0.0
 10
1077.853125150798
 20
1399.374444786316
 30
0.0
 10
1077.888714262385
 20
1399.344356252582
 30
0.0
 10
1077.477287508815
 20
1399.691621157935
 30
0.0
 10
1076.789531550641
 20
1400.28014848548
 30
0.0
 10
1076.054312558073
 20
1400.812855911573
 30
0.0
 10
1075.698988139341
 20
1401.070308396403
 30
0.0
  0
SPLINE
  5
1D8
330
1F
100
AcDbEntity
  8
0
  6
Continuous
 62
     7
370
    15
100
AcDbSpline
210
0.0
220
0.0
230
1.0
 70
     8
 71
     3
 72
    11
 73
     7
 74
     0
 42
0.00000001
 43
0.00000001
 40
0.0
 40
0.0
 40
0.0
 40
0.0
 40
0.0106951204393254
 40
0.4525119244030184
 40
0.7601224099932009
 40
1.0
 40
1.0
 40
1.0
 40
1.0
 10
1068.098988011191
 20
1401.092050121908
 30
0.0
 10
1068.083669134651
 20
1401.082496763707
 30
0.0
 10
1067.435525493591
 20
1400.678292946792
 30
0.0
 10
1066.711709718716
 20
1400.002176472845
 30
0.0
 10
1065.980989482974
 20
1399.409368444298
 30
0.0
 10
1065.954388606171
 20
1399.383697885457
 30
0.0
 10
1065.942733641426
 20
1399.372450532202
 30
0.0
  0
SPLINE
  5
1D9
330
1F
100
AcDbEntity
  8
0
  6
Continuous
 62
     7
370
    15
100
AcDbSpline
210
0.0
220
0.0
230
1.0
 70
     8
 71
     3
 72
    11
 73
     7
 74
     0
 42
0.00000001
 43
0.00000001
 40
0.0
 40
0.0
 40
0.0
 40
0.0
 40
0.1444959673585829
 40
0.4217925267699367
 40
0.7205550637878566
 40
1.0
 40
1.0
 40
1.0
 40
1.0
 10
469.8409350586036
 20
1399.38475237209
 30
0.0
 10
469.8531176103219
 20
1399.374444787647
 30
0.0
 10
469.8886792205575
 20
1399.344356321048
 30
0.0
 10
469.4772931427522
 20
1399.691618990094
 30
0.0
 10
468.7895577874821
 20
1400.280156557887
 30
0.0
 10
468.0543196548952
 20
1400.812856860465
 30
0.0
 10
467.6989825439551
 20
1401.070308396403
 30
0.0
  0
SPLINE
  5
1DA
330
1F
100
AcDbEntity
  8
0
  6
Continuous
 62
     7
370
    15
100
AcDbSpline
210
0.0
220
0.0
230
1.0
 70
     8
 71
     3
 72
    11
 73
     7
 74
     0
 42
0.00000001
 43
0.00000001
 40
0.0
 40
0.0
 40
0.0
 40
0.0
 40
0.0106952384711724
 40
0.452511474072702
 40
0.7601213322124236
 40
0.9999999999999999
 40
0.9999999999999999
 40
0.9999999999999999
 40
0.9999999999999999
 10
460.0989731025793
 20
1401.092050121908
 30
0.0
 10
460.0836539914462
 20
1401.082496765323
 30
0.0
 10
459.435508222748
 20
1400.678297879821
 30
0.0
 10
458.711696291918
 20
1400.002175323307
 30
0.0
 10
457.981027541743
 20
1399.409367769528
 30
0.0
 10
457.9543875977531
 20
1399.383697708588
 30
0.0
 10
457.9427154731849
 20
1399.372450532202
 30
0.0
  0
LINE
  5
1DB
330
1F
100
AcDbEntity
  8
0
  6
Continuous
 62
     7
370
    15
100
AcDbLine
 10
321.8989880753
 20
1656.3350558186
 30
0.0
 11
328.8990171623
 21
1656.3350558186
 31
0.0
  0
LINE
  5
1DC
330
1F
100
AcDbEntity
  8
0
  6
Continuous
 62
     7
370
    15
100
AcDbLine
 10
314.8989589882
 20
1656.3350558186
 30
0.0
 11
321.8989880753
 21
1656.3350558186
 31
0.0
  0
LINE
  5
1DD
330
1F
100
AcDbEntity
  8
0
  6
Continuous
 62
     7
370
    15
100
AcDbLine
 10
1821.8989880753
 20
1656.3350558186
 30
0.0
 11
1814.8989589882
 21
1656.3350558186
 31
0.0
  0
LINE
  5
1DE
330
1F
100
AcDbEntity
  8
0
  6
Continuous
 62
     7
370
    15
100
AcDbLine
 10
1828.8990171623
 20
1656.3350558186
 30
0.0
 11
1821.8989880753
 21
1656.3350558186
 31
0.0
  0
SPLINE
  5
1DF
330
1F
100
AcDbEntity
  8
0
  6
Continuous
 62
     7
370
    15
100
AcDbSpline
210
0.0
220
0.0
230
1.0
 70
     8
 71
     3
 72
    12
 73
     8
 74
     0
 42
0.00000001
 43
0.00000001
 40
0.0
 40
0.0
 40
0.0
 40
0.0
 40
0.2092604515690893
 40
0.4183251518229865
 40
0.6324271950633902
 40
0.8501190376170663
 40
1.0
 40
1.0
 40
1.0
 40
1.0
 10
1077.667653653483
 20
1396.835056124066
 30
0.0
 10
1077.672792217168
 20
1397.01655434031
 30
0.0
 10
1077.683064537704
 20
1397.379380991484
 30
0.0
 10
1077.75464720983
 20
1397.866503248676
 30
0.0
 10
1077.833486130424
 20
1398.239934448709
 30
0.0
 10
1077.892284061581
 20
1398.460953675166
 30
0.0
 10
1077.893340206296
 20
1398.464464462262
 30
0.0
 10
1077.893770858357
 20
1398.465896015797
 30
0.0
  0
LINE
  5
1E0
330
1F
100
AcDbEntity
  8
0
  6
Continuous
 62
     7
370
    15
100
AcDbLine
 10
1077.6731298302
 20
1396.9535529518
 30
0.0
 11
1077.675199229
 21
1396.6511310914
 31
0.0
  0
SPLINE
  5
1E1
330
1F
100
AcDbEntity
  8
0
  6
Continuous
 62
     7
370
    15
100
AcDbSpline
210
0.0
220
0.0
230
1.0
 70
     8
 71
     3
 72
    12
 73
     8
 74
     0
 42
0.00000001
 43
0.00000001
 40
0.0
 40
0.0
 40
0.0
 40
0.0
 40
0.1776974002395837
 40
0.3845768897472097
 40
0.5972885444823196
 40
0.8149585482797508
 40
1.0
 40
1.0
 40
1.0
 40
1.0
 10
1077.89597110794
 20
1395.196199407611
 30
0.0
 10
1077.893652510385
 20
1395.204376923345
 30
0.0
 10
1077.888634547066
 20
1395.222074895079
 30
0.0
 10
1077.826517804115
 20
1395.459905788466
 30
0.0
 10
1077.74742390637
 20
1395.842648424082
 30
0.0
 10
1077.680396143147
 20
1396.325691638125
 30
0.0
 10
1077.671665354245
 20
1396.674693592852
 30
0.0
 10
1077.667653653483
 20
1396.835056124066
 30
0.0
  0
LINE
  5
1E2
330
1F
100
AcDbEntity
  8
0
  6
Continuous
 62
     7
370
    15
100
AcDbLine
 10
1075.6989881393
 20
1393.8350556323
 30
0.0
 11
1077.8989881274
 21
1393.8350556323
 31
0.0
  0
LINE
  5
1E3
330
1F
100
AcDbEntity
  8
0
  6
Continuous
 62
     7
370
    15
100
AcDbLine
 10
1065.8989880231
 20
1393.8350556323
 30
0.0
 11
1068.0989880112
 21
1393.8350556323
 31
0.0
  0
LINE
  5
1E4
330
1F
100
AcDbEntity
  8
0
  6
Continuous
 62
     7
370
    15
100
AcDbLine
 10
1068.0989880112
 20
1393.3350555504
 30
0.0
 11
1066.3989881051
 21
1393.3350555504
 31
0.0
  0
LINE
  5
1E5
330
1F
100
AcDbEntity
  8
0
  6
Continuous
 62
     7
370
    15
100
AcDbLine
 10
1077.3989880455
 20
1393.3350555504
 30
0.0
 11
1075.7719090671
 21
1393.3350555504
 31
0.0
  0
LINE
  5
1E6
330
1F
100
AcDbEntity
  8
0
  6
Continuous
 62
     7
370
    15
100
AcDbLine
 10
467.698982544
 20
1393.8350556323
 30
0.0
 11
469.8989899826
 21
1393.8350556323
 31
0.0
  0
LINE
  5
1E7
330
1F
100
AcDbEntity
  8
0
  6
Continuous
 62
     7
370
    15
100
AcDbLine
 10
457.8989656639
 20
1393.8350556323
 30
0.0
 11
460.0989731026
 21
1393.8350556323
 31
0.0
  0
LINE
  5
1E8
330
1F
100
AcDbEntity
  8
0
  6
Continuous
 62
     7
370
    15
100
AcDbLine
 10
460.0989731026
 20
1393.3350555504
 30
0.0
 11
458.3989890289
 21
1393.3350555504
 31
0.0
  0
LINE
  5
1E9
330
1F
100
AcDbEntity
  8
0
  6
Continuous
 62
     7
370
    15
100
AcDbLine
 10
469.3989666176
 20
1393.3350555504
 30
0.0
 11
467.698982544
 21
1393.3350555504
 31
0.0
  0
SPLINE
  5
1EA
330
1F
100
AcDbEntity
  8
0
  6
Continuous
 62
     7
370
    15
100
AcDbSpline
210
0.0
220
0.0
230
1.0
 70
     8
 71
     3
 72
    12
 73
     8
 74
     0
 42
0.00000001
 43
0.00000001
 40
0.0
 40
0.0
 40
0.0
 40
0.0
 40
0.2092601522761012
 40
0.4183256678025844
 40
0.6324285229673315
 40
0.8501191969361996
 40
0.9999999999999999
 40
0.9999999999999999
 40
0.9999999999999999
 40
0.9999999999999999
 10
469.6676643562416
 20
1396.835056124066
 30
0.0
 10
469.6727942526058
 20
1397.016554555911
 30
0.0
 10
469.6830492739225
 20
1397.379382604544
 30
0.0
 10
469.7546591535839
 20
1397.866503161546
 30
0.0
 10
469.8335249370259
 20
1398.239932734755
 30
0.0
 10
469.8922820565815
 20
1398.460954047488
 30
0.0
 10
469.8933210956905
 20
1398.464464567513
 30
0.0
 10
469.8937447738746
 20
1398.465896015797
 30
0.0
  0
LINE
  5
1EB
330
1F
100
AcDbEntity
  8
0
  6
Continuous
 62
     7
370
    15
100
AcDbLine
 10
469.6731479836
 20
1396.9535529518
 30
0.0
 11
469.6751745415
 21
1396.6511310914
 31
0.0
  0
SPLINE
  5
1EC
330
1F
100
AcDbEntity
  8
0
  6
Continuous
 62
     7
370
    15
100
AcDbSpline
210
0.0
220
0.0
230
1.0
 70
     8
 71
     3
 72
    12
 73
     8
 74
     0
 42
0.00000001
 43
0.00000001
 40
0.0
 40
0.0
 40
0.0
 40
0.0
 40
0.1776975008565865
 40
0.3845758837066106
 40
0.5972889484410512
 40
0.8149587829420546
 40
1.0
 40
1.0
 40
1.0
 40
1.0
 10
469.8959501457313
 20
1395.196199407611
 30
0.0
 10
469.8936279474295
 20
1395.204376707207
 30
0.0
 10
469.8886022072827
 20
1395.222074154854
 30
0.0
 10
469.8265453333956
 20
1395.459908395461
 30
0.0
 10
469.7473946331452
 20
1395.842646152197
 30
0.0
 10
469.6803835697229
 20
1396.325691710672
 30
0.0
 10
469.6716687282674
 20
1396.674693644815
 30
0.0
 10
469.6676643562416
 20
1396.835056124066
 30
0.0
  0
SPLINE
  5
1ED
330
1F
100
AcDbEntity
  8
0
  6
Continuous
 62
     7
370
    15
100
AcDbSpline
210
0.0
220
0.0
230
1.0
 70
     8
 71
     3
 72
    12
 73
     8
 74
     0
 42
0.00000001
 43
0.00000001
 40
0.0
 40
0.0
 40
0.0
 40
0.0
 40
0.209261062619032
 40
0.4183237768175978
 40
0.6324264910783016
 40
0.8501192955748242
 40
1.0
 40
1.0
 40
1.0
 40
1.0
 10
1685.667625255595
 20
1396.835056124066
 30
0.0
 10
1685.672786470594
 20
1397.016553704385
 30
0.0
 10
1685.683104008527
 20
1397.379376832265
 30
0.0
 10
1685.754599966135
 20
1397.866507109871
 30
0.0
 10
1685.833471446409
 20
1398.239934035358
 30
0.0
 10
1685.892314497069
 20
1398.460953453207
 30
0.0
 10
1685.893345058956
 20
1398.464464401669
 30
0.0
 10
1685.893765277872
 20
1398.465896015797
 30
0.0
  0
LINE
  5
1EE
330
1F
100
AcDbEntity
  8
0
  6
Continuous
 62
     7
370
    15
100
AcDbLine
 10
1685.6731088829
 20
1396.9535529518
 30
0.0
 11
1685.6751950455
 21
1396.6511310914
 31
0.0
  0
SPLINE
  5
1EF
330
1F
100
AcDbEntity
  8
0
  6
Continuous
 62
     7
370
    15
100
AcDbSpline
210
0.0
220
0.0
230
1.0
 70
     8
 71
     3
 72
    12
 73
     8
 74
     0
 42
0.00000001
 43
0.00000001
 40
0.0
 40
0.0
 40
0.0
 40
0.0
 40
0.1776973350461068
 40
0.3845755248568156
 40
0.5972883911075683
 40
0.8149580224996956
 40
1.0
 40
1.0
 40
1.0
 40
1.0
 10
1685.895970649729
 20
1395.196199407611
 30
0.0
 10
1685.893648361559
 20
1395.204376703495
 30
0.0
 10
1685.888622426918
 20
1395.222074143108
 30
0.0
 10
1685.826567212205
 20
1395.459908452248
 30
0.0
 10
1685.747409794141
 20
1395.842645931503
 30
0.0
 10
1685.680423112766
 20
1396.325693233672
 30
0.0
 10
1685.671654394427
 20
1396.67469382482
 30
0.0
 10
1685.667625255595
 20
1396.835056124066
 30
0.0
  0
LINE
  5
1F0
330
1F
100
AcDbEntity
  8
0
  6
Continuous
 62
     7
370
    15
100
AcDbLine
 10
1673.8989861679
 20
1393.8350556323
 30
0.0
 11
1676.0989936066
 21
1393.8350556323
 31
0.0
  0
LINE
  5
1F1
330
1F
100
AcDbEntity
  8
0
  6
Continuous
 62
     7
370
    15
100
AcDbLine
 10
1683.699003048
 20
1393.8350556323
 30
0.0
 11
1685.8990104866
 21
1393.8350556323
 31
0.0
  0
LINE
  5
1F2
330
1F
100
AcDbEntity
  8
0
  6
Continuous
 62
     7
370
    15
100
AcDbLine
 10
1685.3989871216
 20
1393.3350555504
 30
0.0
 11
1683.699003048
 21
1393.3350555504
 31
0.0
  0
LINE
  5
1F3
330
1F
100
AcDbEntity
  8
0
  6
Continuous
 62
     7
370
    15
100
AcDbLine
 10
1676.0989936066
 20
1393.3350555504
 30
0.0
 11
1674.3990095329
 21
1393.3350555504
 31
0.0
  0
LINE
  5
1F4
330
1F
100
AcDbEntity
  8
0
  6
Continuous
 62
     8
370
    15
100
AcDbLine
 10
467.0838030052
 20
1419.8352880681
 30
0.0
 11
467.0838030052
 21
1372.1614628935
 31
0.0
  0
LINE
  5
1F5
330
1F
100
AcDbEntity
  8
0
  6
Continuous
 62
     8
370
    15
100
AcDbLine
 10
460.7141526413
 20
1419.8352880681
 30
0.0
 11
460.7141526413
 21
1372.1614628935
 31
0.0
  0
LINE
  5
1F6
330
1F
100
AcDbEntity
  8
0
  6
Continuous
 62
     8
370
    15
100
AcDbLine
 10
457.3990019035
 20
1357.1616411114
 30
0.0
 11
470.3990133476
 21
1357.1616411114
 31
0.0
  0
LINE
  5
1F7
330
1F
100
AcDbEntity
  8
0
  6
Continuous
 62
     8
370
    15
100
AcDbLine
 10
470.3990133476
 20
1383.6616389358
 30
0.0
 11
467.698982544
 21
1383.6616389358
 31
0.0
  0
LINE
  5
1F8
330
1F
100
AcDbEntity
  8
0
  6
Continuous
 62
     8
370
    15
100
AcDbLine
 10
460.0989731026
 20
1383.6616389358
 30
0.0
 11
457.3990019035
 21
1383.6616389358
 31
0.0
  0
LINE
  5
1F9
330
1F
100
AcDbEntity
  8
0
  6
Continuous
 62
     8
370
    15
100
AcDbLine
 10
1683.0838235092
 20
1423.2111200595
 30
0.0
 11
1683.0838235092
 21
1375.537294885
 31
0.0
  0
LINE
  5
1FA
330
1F
100
AcDbEntity
  8
0
  6
Continuous
 62
     8
370
    15
100
AcDbLine
 10
1676.7141731453
 20
1423.2111200595
 30
0.0
 11
1676.7141731453
 21
1375.537294885
 31
0.0
  0
LINE
  5
1FB
330
1F
100
AcDbEntity
  8
0
  6
Continuous
 62
     8
370
    15
100
AcDbLine
 10
1673.3989628029
 20
1360.5374731028
 30
0.0
 11
1686.398974247
 21
1360.5374731028
 31
0.0
  0
LINE
  5
1FC
330
1F
100
AcDbEntity
  8
0
  6
Continuous
 62
     8
370
    15
100
AcDbLine
 10
1686.398974247
 20
1387.0374709273
 30
0.0
 11
1683.699003048
 21
1387.0374709273
 31
0.0
  0
LINE
  5
1FD
330
1F
100
AcDbEntity
  8
0
  6
Continuous
 62
     8
370
    15
100
AcDbLine
 10
1676.0989936066
 20
1387.0374709273
 30
0.0
 11
1673.3989628029
 21
1387.0374709273
 31
0.0
  0
LINE
  5
1FE
330
1F
100
AcDbEntity
  8
0
  6
Continuous
 62
     8
370
    15
100
AcDbLine
 10
1068.7141803556
 20
1422.2796279842
 30
0.0
 11
1068.7141803556
 21
1374.6058046723
 31
0.0
  0
LINE
  5
1FF
330
1F
100
AcDbEntity
  8
0
  6
Continuous
 62
     8
370
    15
100
AcDbLine
 10
1075.0837957949
 20
1422.2796279842
 30
0.0
 11
1075.0837957949
 21
1374.6058046723
 31
0.0
  0
LINE
  5
200
330
1F
100
AcDbEntity
  8
0
  6
Continuous
 62
     8
370
    15
100
AcDbLine
 10
1065.3989879412
 20
1359.6059791649
 30
0.0
 11
1078.3989882094
 21
1359.6059791649
 31
0.0
  0
LINE
  5
201
330
1F
100
AcDbEntity
  8
0
  6
Continuous
 62
     8
370
    15
100
AcDbLine
 10
1078.3989882094
 20
1386.1059807146
 30
0.0
 11
1075.6989881393
 21
1386.1059807146
 31
0.0
  0
LINE
  5
202
330
1F
100
AcDbEntity
  8
0
  6
Continuous
 62
     8
370
    15
100
AcDbLine
 10
1068.0989880112
 20
1386.1059807146
 30
0.0
 11
1065.3989879412
 21
1386.1059807146
 31
0.0
  0
LINE
  5
203
330
1F
100
AcDbEntity
  8
0
  6
Continuous
 62
     8
370
    15
100
AcDbLine
 10
1024.648989178
 20
1323.2085928226
 30
0.0
 11
1119.1489869726
 21
1323.2085928226
 31
0.0
  0
LINE
  5
204
330
1F
100
AcDbEntity
  8
0
  6
Continuous
 62
     8
370
    15
100
AcDbLine
 10
1029.3989876282
 20
1331.7196145559
 30
0.0
 11
1114.3989885223
 21
1331.7196145559
 31
0.0
  0
LINE
  5
205
330
1F
100
AcDbEntity
  8
0
  6
Continuous
 62
     8
370
    15
100
AcDbLine
 10
1632.6489957047
 20
1324.14007931
 30
0.0
 11
1727.1490009499
 21
1324.14007931
 31
0.0
  0
LINE
  5
206
330
1F
100
AcDbEntity
  8
0
  6
Continuous
 62
     8
370
    15
100
AcDbLine
 10
1637.3990090561
 20
1332.6511084938
 30
0.0
 11
1722.3989875984
 21
1332.6511084938
 31
0.0
  0
LINE
  5
207
330
1F
100
AcDbEntity
  8
0
  6
Continuous
 62
     8
370
    15
100
AcDbLine
 10
416.6489752007
 20
1320.7642510438
 30
0.0
 11
511.1489804459
 21
1320.7642510438
 31
0.0
  0
LINE
  5
208
330
1F
100
AcDbEntity
  8
0
  6
Continuous
 62
     8
370
    15
100
AcDbLine
 10
421.3989885521
 20
1329.2752727771
 30
0.0
 11
506.3989670944
 21
1329.2752727771
 31
0.0
  0
LINE
  5
209
330
1F
100
AcDbEntity
  8
0
  6
Continuous
 62
     8
370
    15
100
AcDbLine
 10
357.7352078629
 20
2614.9383187199
 30
0.0
 11
237.8989966583
 21
2614.9383187199
 31
0.0
  0
LINE
  5
20A
330
1F
100
AcDbEntity
  8
0
  6
Continuous
 62
     8
370
    15
100
AcDbLine
 10
405.8989794922
 20
2614.9383187199
 30
0.0
 11
357.7352078629
 21
2614.9383187199
 31
0.0
  0
LINE
  5
20B
330
1F
100
AcDbEntity
  8
0
  6
Continuous
 62
     8
370
    15
100
AcDbLine
 10
351.898959465
 20
1406.3350558186
 30
0.0
 11
351.898959465
 21
1413.3350560347
 31
0.0
  0
LINE
  5
20C
330
1F
100
AcDbEntity
  8
0
  6
Continuous
 62
     8
370
    15
100
AcDbLine
 10
351.898959465
 20
1399.3350556025
 30
0.0
 11
351.898959465
 21
1406.3350558186
 31
0.0
  0
LINE
  5
20D
330
1F
100
AcDbEntity
  8
0
  6
Continuous
 62
     8
370
    15
100
AcDbLine
 10
1791.8990166855
 20
1406.3350558186
 30
0.0
 11
1791.8990166855
 21
1413.3350560347
 31
0.0
  0
LINE
  5
20E
330
1F
100
AcDbEntity
  8
0
  6
Continuous
 62
     8
370
    15
100
AcDbLine
 10
1791.8990166855
 20
1399.3350556025
 30
0.0
 11
1791.8990166855
 21
1406.3350558186
 31
0.0
  0
LINE
  5
20F
330
1F
100
AcDbEntity
  8
0
  6
Continuous
 62
     8
370
    15
100
AcDbLine
 10
321.8989880753
 20
1436.335055148
 30
0.0
 11
328.8990171623
 21
1436.335055148
 31
0.0
  0
LINE
  5
210
330
1F
100
AcDbEntity
  8
0
  6
Continuous
 62
     8
370
    15
100
AcDbLine
 10
314.8989589882
 20
1436.335055148
 30
0.0
 11
321.8989880753
 21
1436.335055148
 31
0.0
  0
LINE
  5
211
330
1F
100
AcDbEntity
  8
0
  6
Continuous
 62
     8
370
    15
100
AcDbLine
 10
1821.8989880753
 20
1436.335055148
 30
0.0
 11
1814.8989589882
 21
1436.335055148
 31
0.0
  0
LINE
  5
212
330
1F
100
AcDbEntity
  8
0
  6
Continuous
 62
     8
370
    15
100
AcDbLine
 10
1828.8990171623
 20
1436.335055148
 30
0.0
 11
1821.8989880753
 21
1436.335055148
 31
0.0
  0
LINE
  5
213
330
1F
100
AcDbEntity
  8
0
  6
CENTERX2
 62
     7
370
     0
100
AcDbLine
 10
463.8989880753
 20
1154.1650507213
 30
0.0
 11
463.8989880753
 21
1139.5412333627
 31
0.0
  0
LINE
  5
214
330
1F
100
AcDbEntity
  8
0
  6
CENTERX2
 62
     7
370
     0
100
AcDbLine
 10
1791.1880113092
 20
1154.1650507213
 30
0.0
 11
1851.7884364962
 21
1154.1650507213
 31
0.0
  0
DIMENSION
  5
215
330
1F
100
AcDbEntity
  8
0
  6
Continuous
 62
     7
370
     0
100
AcDbDimension
  2
_D
 10
1679.8989880753
 20
1056.6093913604
 30
0.0
 11
1071.9043421669
 21
1056.6093913604
 31
0.0
 70
    32
  1
<>
 71
     2
 42
-1.0
 73
     0
 74
     0
 75
     0
  3
SLDDIMSTYLE0
100
AcDbAlignedDimension
 13
463.8989880753
 23
1139.5412333627
 33
0.0
 14
1679.8989880753
 24
1247.540882336
 34
0.0
100
AcDbRotatedDimension
  0
DIMENSION
  5
220
330
1F
100
AcDbEntity
  8
0
  6
Continuous
 62
     7
370
     0
100
AcDbDimension
  2
_D_1
 10
1951.7884364962
 20
1678.3350558186
 30
0.0
 11
1951.7884364962
 21
1474.7992420516
 31
0.0
 70
    32
  1
525
 71
     2
 42
-1.0
 73
     0
 74
     0
 75
     0
  3
SLDDIMSTYLE1
100
AcDbAlignedDimension
 13
1851.7884364962
 23
1154.1650507213
 33
0.0
 14
1836.1489880753
 24
1678.3350558186
 34
0.0
 50
90.0
100
AcDbRotatedDimension
  0
DIMENSION
  5
22B
330
1F
100
AcDbEntity
  8
0
  6
Continuous
 62
     7
370
     0
100
AcDbDimension
  2
_D_2
 10
1828.8989880753
 20
936.6093913604
 30
0.0
 11
1071.9043421669
 21
936.6093913604
 31
0.0
 70
    32
  1
<>
 71
     2
 42
-1.0
 73
     0
 74
     0
 75
     0
  3
SLDDIMSTYLE0
100
AcDbAlignedDimension
 13
314.8989880753
 23
1436.3350558186
 33
0.0
 14
1828.8989880753
 24
1436.3350558186
 34
0.0
100
AcDbRotatedDimension
  0
DIMENSION
  5
235
330
1F
100
AcDbEntity
  8
0
  6
Continuous
 62
     7
370
     0
100
AcDbDimension
  2
_D_3
 10
463.8989880753
 20
1244.1650507213
 30
0.0
 11
130.0751246774
 21
1123.3955166083
 31
0.0
 70
    36
  1
<>
 71
     1
 42
-1.0
 73
     0
 74
     0
 75
     0
  3
SLDDIMSTYLE2
100
AcDbRadialDimension
 15
385.4851813204
 25
1199.9918132328
 35
0.0
 40
0.0
  0
DIMENSION
  5
23F
330
1F
100
AcDbEntity
  8
0
  6
Continuous
 62
     7
370
     0
100
AcDbDimension
  2
_D_4
 10
1951.7884364962
 20
2649.9382630404
 30
0.0
 11
1951.7884364962
 21
2141.2949490019
 31
0.0
 70
    32
  1
MAX.2,5
 71
     2
 42
-1.0
 73
     0
 74
     0
 75
     0
  3
SLDDIMSTYLE0
100
AcDbAlignedDimension
 13
1836.1489880753
 23
1678.3350558186
 33
0.0
 14
1829.8989880753
 24
2649.9382630404
 34
0.0
 50
90.0
100
AcDbRotatedDimension
  0
DIMENSION
  5
249
330
1F
100
AcDbEntity
  8
0
  6
Continuous
 62
     7
370
     0
100
AcDbDimension
  2
_D_5
 10
405.8989880753
 20
2773.6502329859
 30
0.0
 11
308.1613399782
 21
2773.6502329859
 31
0.0
 70
    32
  1
%%c<>
 71
     2
 42
-1.0
 73
     0
 74
     0
 75
     0
  3
SLDDIMSTYLE3
100
AcDbAlignedDimension
 13
237.8989880753
 23
2649.9382630404
 33
0.0
 14
405.8989880753
 24
2649.9382630404
 34
0.0
100
AcDbRotatedDimension
  0
ENDSEC
  0
SECTION
  2
OBJECTS
  0
DICTIONARY
  5
C
330
0
100
AcDbDictionary
281
     1
  3
ACAD_COLOR
350
6C
  3
ACAD_GROUP
350
D
  3
ACAD_LAYOUT
350
1A
  3
ACAD_MATERIAL
350
6B
  3
ACAD_MLEADERSTYLE
350
2BA
  3
ACAD_MLINESTYLE
350
17
  3
ACAD_PLOTSETTINGS
350
19
  3
ACAD_PLOTSTYLENAME
350
E
  3
ACAD_SCALELIST
350
99
  3
ACAD_TABLESTYLE
350
92
  3
AcDbVariableDictionary
350
59
  0
DICTIONARY
  5
2B9
330
1F
100
AcDbDictionary
280
     1
281
     1
  0
DICTIONARY
  5
6C
102
{ACAD_REACTORS
330
C
102
}
330
C
100
AcDbDictionary
281
     1
  0
DICTIONARY
  5
D
102
{ACAD_REACTORS
330
C
102
}
330
C
100
AcDbDictionary
281
     1
  0
DICTIONARY
  5
1A
102
{ACAD_REACTORS
330
C
102
}
330
C
100
AcDbDictionary
281
     1
  3
Layout1
350
74
  3
Layout2
350
26
  3
Model
350
22
  0
DICTIONARY
  5
6B
102
{ACAD_REACTORS
330
C
102
}
330
C
100
AcDbDictionary
281
     1
  0
DICTIONARY
  5
2BA
102
{ACAD_REACTORS
330
C
102
}
330
C
100
AcDbDictionary
281
     1
  0
DICTIONARY
  5
17
102
{ACAD_REACTORS
330
C
102
}
330
C
100
AcDbDictionary
281
     1
  3
Standard
350
18
  0
DICTIONARY
  5
19
102
{ACAD_REACTORS
330
C
102
}
330
C
100
AcDbDictionary
281
     1
  0
ACDBDICTIONARYWDFLT
  5
E
102
{ACAD_REACTORS
330
C
102
}
330
C
100
AcDbDictionary
281
     1
  3
Normal
350
F
100
AcDbDictionaryWithDefault
340
F
  0
DICTIONARY
  5
99
102
{ACAD_REACTORS
330
C
102
}
330
C
100
AcDbDictionary
281
     1
  3
A0
350
258
  3
A1
350
259
  3
A2
350
25A
  3
A3
350
25B
  3
A4
350
25C
  3
A5
350
25D
  3
A6
350
25E
  3
A7
350
25F
  3
A8
350
260
  3
A9
350
261
  3
B0
350
262
  3
B1
350
263
  3
B2
350
264
  3
B3
350
265
  3
B4
350
266
  3
B5
350
267
  3
B6
350
268
  3
B7
350
269
  3
B8
350
26A
  3
B9
350
26B
  3
C0
350
26C
  3
C1
350
26D
  3
C2
350
26E
  3
C3
350
26F
  3
C4
350
270
  3
C5
350
271
  3
C6
350
272
  3
C7
350
273
  3
C8
350
274
  3
C9
350
275
  3
D0
350
276
  3
D1
350
277
  3
D2
350
278
  0
DICTIONARY
  5
92
102
{ACAD_REACTORS
330
C
102
}
330
C
100
AcDbDictionary
281
     1
  3
Standard
350
93
  0
DICTIONARY
  5
59
102
{ACAD_REACTORS
330
C
102
}
330
C
100
AcDbDictionary
281
     1
  3
CANNOSCALE
350
2BB
  3
CTABLESTYLE
350
98
  3
DIMASSOC
350
27B
  3
HIDETEXT
350
5E
  0
LAYOUT
  5
74
102
{ACAD_REACTORS
330
1A
102
}
330
1A
100
AcDbPlotSettings
  1

  2
none_device
  4
ISO_C5_(229.00_x_162.00_MM)
  6

 40
0.0
 41
0.0
 42
0.0
 43
0.0
 44
229.0
 45
162.0
 46
0.0
 47
0.0
 48
0.0
 49
0.0
140
0.0
141
0.0
142
1.0
143
1.0
 70
   688
 72
     1
 73
     0
 74
     5
  7

 75
    16
 76
     0
 77
     2
 78
   300
147
1.0
148
0.0
149
0.0
100
AcDbLayout
  1
Layout1
 70
     1
 71
     1
 10
0.0
 20
0.0
 11
420.0
 21
297.0
 12
0.0
 22
0.0
 32
0.0
 14
1.000000000000000E+20
 24
1.000000000000000E+20
 34
1.000000000000000E+20
 15
-1.000000000000000E+20
 25
-1.000000000000000E+20
 35
-1.000000000000000E+20
146
0.0
 13
0.0
 23
0.0
 33
0.0
 16
1.0
 26
0.0
 36
0.0
 17
0.0
 27
1.0
 37
0.0
 76
     0
330
73
  0
LAYOUT
  5
26
102
{ACAD_REACTORS
330
1A
102
}
330
1A
100
AcDbPlotSettings
  1

  2
none_device
  4
ISO_C5_(229.00_x_162.00_MM)
  6

 40
0.0
 41
0.0
 42
0.0
 43
0.0
 44
229.0
 45
162.0
 46
0.0
 47
0.0
 48
0.0
 49
0.0
140
0.0
141
0.0
142
1.0
143
1.0
 70
   688
 72
     1
 73
     0
 74
     5
  7

 75
    16
 76
     0
 77
     2
 78
   300
147
1.0
148
0.0
149
0.0
100
AcDbLayout
  1
Layout2
 70
     1
 71
     2
 10
0.0
 20
0.0
 11
0.0
 21
0.0
 12
0.0
 22
0.0
 32
0.0
 14
0.0
 24
0.0
 34
0.0
 15
0.0
 25
0.0
 35
0.0
146
0.0
 13
0.0
 23
0.0
 33
0.0
 16
1.0
 26
0.0
 36
0.0
 17
0.0
 27
1.0
 37
0.0
 76
     0
330
23
  0
LAYOUT
  5
22
102
{ACAD_REACTORS
330
1A
102
}
330
1A
100
AcDbPlotSettings
  1

  2
none_device
  4
ISO_C5_(229.00_x_162.00_MM)
  6

 40
0.0
 41
0.0
 42
0.0
 43
0.0
 44
229.0
 45
162.0
 46
0.0
 47
0.0
 48
0.0
 49
0.0
140
0.0
141
0.0
142
1.0
143
1.0
 70
 11952
 72
     1
 73
     0
 74
     0
  7

 75
    16
 76
     0
 77
     2
 78
   300
147
1.0
148
0.0
149
0.0
100
AcDbLayout
  1
Model
 70
     1
 71
     0
 10
0.0
 20
0.0
 11
2100.0
 21
2970.0
 12
0.0
 22
0.0
 32
0.0
 14
75.8251237014
 24
49.9980727422
 34
0.0
 15
2049.4323743066
 25
4119.0704703236
 35
0.1
146
0.0
 13
0.0
 23
0.0
 33
0.0
 16
1.0
 26
0.0
 36
0.0
 17
0.0
 27
1.0
 37
0.0
 76
     0
330
1F
331
97
  0
MLINESTYLE
  5
18
102
{ACAD_REACTORS
330
17
102
}
330
17
100
AcDbMlineStyle
  2
Standard
 70
     0
  3

 62
   256
 51
90.0
 52
90.0
 71
     2
 49
0.5
 62
   256
  6
BYLAYER
 49
-0.5
 62
   256
  6
BYLAYER
  0
ACDBPLACEHOLDER
  5
F
102
{ACAD_REACTORS
330
E
102
}
330
E
  0
SCALE
  5
258
102
{ACAD_REACTORS
330
99
102
}
330
99
100
AcDbScale
 70
     0
300
1:1
140
1.0
141
1.0
290
     1
  0
SCALE
  5
259
102
{ACAD_REACTORS
330
99
102
}
330
99
100
AcDbScale
 70
     0
300
1:2
140
1.0
141
2.0
290
     0
  0
SCALE
  5
25A
102
{ACAD_REACTORS
330
99
102
}
330
99
100
AcDbScale
 70
     0
300
1:4
140
1.0
141
4.0
290
     0
  0
SCALE
  5
25B
102
{ACAD_REACTORS
330
99
102
}
330
99
100
AcDbScale
 70
     0
300
1:5
140
1.0
141
5.0
290
     0
  0
SCALE
  5
25C
102
{ACAD_REACTORS
330
99
102
}
330
99
100
AcDbScale
 70
     0
300
1:8
140
1.0
141
8.0
290
     0
  0
SCALE
  5
25D
102
{ACAD_REACTORS
330
99
102
}
330
99
100
AcDbScale
 70
     0
300
1:10
140
1.0
141
10.0
290
     0
  0
SCALE
  5
25E
102
{ACAD_REACTORS
330
99
102
}
330
99
100
AcDbScale
 70
     0
300
1:16
140
1.0
141
16.0
290
     0
  0
SCALE
  5
25F
102
{ACAD_REACTORS
330
99
102
}
330
99
100
AcDbScale
 70
     0
300
1:20
140
1.0
141
20.0
290
     0
  0
SCALE
  5
260
102
{ACAD_REACTORS
330
99
102
}
330
99
100
AcDbScale
 70
     0
300
1:30
140
1.0
141
30.0
290
     0
  0
SCALE
  5
261
102
{ACAD_REACTORS
330
99
102
}
330
99
100
AcDbScale
 70
     0
300
1:40
140
1.0
141
40.0
290
     0
  0
SCALE
  5
262
102
{ACAD_REACTORS
330
99
102
}
330
99
100
AcDbScale
 70
     0
300
1:50
140
1.0
141
50.0
290
     0
  0
SCALE
  5
263
102
{ACAD_REACTORS
330
99
102
}
330
99
100
AcDbScale
 70
     0
300
1:100
140
1.0
141
100.0
290
     0
  0
SCALE
  5
264
102
{ACAD_REACTORS
330
99
102
}
330
99
100
AcDbScale
 70
     0
300
2:1
140
2.0
141
1.0
290
     0
  0
SCALE
  5
265
102
{ACAD_REACTORS
330
99
102
}
330
99
100
AcDbScale
 70
     0
300
4:1
140
4.0
141
1.0
290
     0
  0
SCALE
  5
266
102
{ACAD_REACTORS
330
99
102
}
330
99
100
AcDbScale
 70
     0
300
8:1
140
8.0
141
1.0
290
     0
  0
SCALE
  5
267
102
{ACAD_REACTORS
330
99
102
}
330
99
100
AcDbScale
 70
     0
300
10:1
140
10.0
141
1.0
290
     0
  0
SCALE
  5
268
102
{ACAD_REACTORS
330
99
102
}
330
99
100
AcDbScale
 70
     0
300
100:1
140
100.0
141
1.0
290
     0
  0
SCALE
  5
269
102
{ACAD_REACTORS
330
99
102
}
330
99
100
AcDbScale
 70
     0
300
1/128" = 1'-0"
140
0.0078125
141
12.0
290
     0
  0
SCALE
  5
26A
102
{ACAD_REACTORS
330
99
102
}
330
99
100
AcDbScale
 70
     0
300
1/64" = 1'-0"
140
0.015625
141
12.0
290
     0
  0
SCALE
  5
26B
102
{ACAD_REACTORS
330
99
102
}
330
99
100
AcDbScale
 70
     0
300
1/32" = 1'-0"
140
0.03125
141
12.0
290
     0
  0
SCALE
  5
26C
102
{ACAD_REACTORS
330
99
102
}
330
99
100
AcDbScale
 70
     0
300
1/16" = 1'-0"
140
0.0625
141
12.0
290
     0
  0
SCALE
  5
26D
102
{ACAD_REACTORS
330
99
102
}
330
99
100
AcDbScale
 70
     0
300
3/32" = 1'-0"
140
0.09375
141
12.0
290
     0
  0
SCALE
  5
26E
102
{ACAD_REACTORS
330
99
102
}
330
99
100
AcDbScale
 70
     0
300
1/8" = 1'-0"
140
0.125
141
12.0
290
     0
  0
SCALE
  5
26F
102
{ACAD_REACTORS
330
99
102
}
330
99
100
AcDbScale
 70
     0
300
3/16" = 1'-0"
140
0.1875
141
12.0
290
     0
  0
SCALE
  5
270
102
{ACAD_REACTORS
330
99
102
}
330
99
100
AcDbScale
 70
     0
300
1/4" = 1'-0"
140
0.25
141
12.0
290
     0
  0
SCALE
  5
271
102
{ACAD_REACTORS
330
99
102
}
330
99
100
AcDbScale
 70
     0
300
3/8" = 1'-0"
140
0.375
141
12.0
290
     0
  0
SCALE
  5
272
102
{ACAD_REACTORS
330
99
102
}
330
99
100
AcDbScale
 70
     0
300
1/2" = 1'-0"
140
0.5
141
12.0
290
     0
  0
SCALE
  5
273
102
{ACAD_REACTORS
330
99
102
}
330
99
100
AcDbScale
 70
     0
300
3/4" = 1'-0"
140
0.75
141
12.0
290
     0
  0
SCALE
  5
274
102
{ACAD_REACTORS
330
99
102
}
330
99
100
AcDbScale
 70
     0
300
1" = 1'-0"
140
1.0
141
12.0
290
     0
  0
SCALE
  5
275
102
{ACAD_REACTORS
330
99
102
}
330
99
100
AcDbScale
 70
     0
300
1-1/2" = 1'-0"
140
1.5
141
12.0
290
     0
  0
SCALE
  5
276
102
{ACAD_REACTORS
330
99
102
}
330
99
100
AcDbScale
 70
     0
300
3" = 1'-0"
140
3.0
141
12.0
290
     0
  0
SCALE
  5
277
102
{ACAD_REACTORS
330
99
102
}
330
99
100
AcDbScale
 70
     0
300
6" = 1'-0"
140
6.0
141
12.0
290
     0
  0
SCALE
  5
278
102
{ACAD_REACTORS
330
99
102
}
330
99
100
AcDbScale
 70
     0
300
1'-0" = 1'-0"
140
12.0
141
12.0
290
     0
  0
TABLESTYLE
  5
93
102
{ACAD_REACTORS
330
92
102
}
330
92
100
AcDbTableStyle
  3
Standard
 70
     0
 71
     0
 40
0.06
 41
0.06
280
     0
281
     0
  7
Standard
140
0.18
170
     2
 62
     0
 63
     7
283
     0
 90
      512
 91
        0
  1

274
    -2
284
     1
 64
     0
275
    -2
285
     1
 65
     0
276
    -2
286
     1
 66
     0
277
    -2
287
     1
 67
     0
278
    -2
288
     1
 68
     0
279
    -2
289
     1
 69
     0
  7
Standard
140
0.25
170
     5
 62
     0
 63
     7
283
     0
 90
      512
 91
        0
  1

274
    -2
284
     1
 64
     0
275
    -2
285
     1
 65
     0
276
    -2
286
     1
 66
     0
277
    -2
287
     1
 67
     0
278
    -2
288
     1
 68
     0
279
    -2
289
     1
 69
     0
  7
Standard
140
0.18
170
     5
 62
     0
 63
     7
283
     0
 90
      512
 91
        0
  1

274
    -2
284
     1
 64
     0
275
    -2
285
     1
 65
     0
276
    -2
286
     1
 66
     0
277
    -2
287
     1
 67
     0
278
    -2
288
     1
 68
     0
279
    -2
289
     1
 69
     0
  0
DICTIONARYVAR
  5
2BB
102
{ACAD_REACTORS
330
59
102
}
330
59
100
DictionaryVariables
280
     0
  1
1:1
  0
DICTIONARYVAR
  5
98
102
{ACAD_REACTORS
330
59
102
}
330
59
100
DictionaryVariables
280
     0
  1
Standard
  0
DICTIONARYVAR
  5
27B
102
{ACAD_REACTORS
330
59
102
}
330
59
100
DictionaryVariables
280
     0
  1
2
  0
DICTIONARYVAR
  5
5E
102
{ACAD_REACTORS
330
59
102
}
330
59
100
DictionaryVariables
280
     0
  1
1
  0
ENDSEC
  0
EOF
