  0
SECTION
  2
HEADER
  9
$ACADVER
  1
AC1015
  9
$ACADMAINTVER
 70
     6
  9
$DWGCODEPAGE
  3
ANSI_1252
  9
$INSBASE
 10
0.0
 20
0.0
 30
0.0
  9
$EXTMIN
 10
0.0
 20
0.0
 30
0.0
  9
$EXTMAX
 10
1189.0
 20
841.0
 30
0.0
  9
$LIMMIN
 10
0.0
 20
0.0
  9
$LIMMAX
 10
1189.0
 20
841.0
  9
$ORTHOMODE
 70
     0
  9
$REGENMODE
 70
     1
  9
$FILLMODE
 70
     1
  9
$QTEXTMODE
 70
     0
  9
$MIRRTEXT
 70
     1
  9
$LTSCALE
 40
1.0
  9
$ATTMODE
 70
     1
  9
$TEXTSIZE
 40
3.5
  9
$TRACEWID
 40
1.0
  9
$TEXTSTYLE
  7
Standard
  9
$CLAYER
  8
0
  9
$CELTYPE
  6
ByLayer
  9
$CECOLOR
 62
   256
  9
$CELTSCALE
 40
1.0
  9
$DISPSILH
 70
     0
  9
$DIMSCALE
 40
1.0
  9
$DIMASZ
 40
3.302
  9
$DIMEXO
 40
1.0
  9
$DIMDLI
 40
3.75
  9
$DIMRND
 40
0.0
  9
$DIMDLE
 40
0.0
  9
$DIMEXE
 40
1.0
  9
$DIMTP
 40
0.0
  9
$DIMTM
 40
0.0
  9
$DIMTXT
 40
3.5
  9
$DIMCEN
 40
2.5
  9
$DIMTSZ
 40
0.0
  9
$DIMTOL
 70
     0
  9
$DIMLIM
 70
     0
  9
$DIMTIH
 70
     1
  9
$DIMTOH
 70
     1
  9
$DIMSE1
 70
     0
  9
$DIMSE2
 70
     0
  9
$DIMTAD
 70
     1
  9
$DIMZIN
 70
     1
  9
$DIMBLK
  1

  9
$DIMASO
 70
     1
  9
$DIMSHO
 70
     1
  9
$DIMPOST
  1

  9
$DIMAPOST
  1

  9
$DIMALT
 70
     0
  9
$DIMALTD
 70
     3
  9
$DIMALTF
 40
0.0393700787
  9
$DIMLFAC
 40
1.0
  9
$DIMTOFL
 70
     1
  9
$DIMTVP
 40
0.0
  9
$DIMTIX
 70
     0
  9
$DIMSOXD
 70
     0
  9
$DIMSAH
 70
     0
  9
$DIMBLK1
  1

  9
$DIMBLK2
  1

  9
$DIMSTYLE
  2
ISO-25
  9
$DIMCLRD
 70
     0
  9
$DIMCLRE
 70
     0
  9
$DIMCLRT
 70
     0
  9
$DIMTFAC
 40
1.0
  9
$DIMGAP
 40
1.524
  9
$DIMJUST
 70
     0
  9
$DIMSD1
 70
     0
  9
$DIMSD2
 70
     0
  9
$DIMTOLJ
 70
     0
  9
$DIMTZIN
 70
     1
  9
$DIMALTZ
 70
     0
  9
$DIMALTTZ
 70
     0
  9
$DIMUPT
 70
     0
  9
$DIMDEC
 70
     3
  9
$DIMTDEC
 70
     3
  9
$DIMALTU
 70
     2
  9
$DIMALTTD
 70
     3
  9
$DIMTXSTY
  7
Standard
  9
$DIMAUNIT
 70
     0
  9
$DIMADEC
 70
     2
  9
$DIMALTRND
 40
0.0
  9
$DIMAZIN
 70
     0
  9
$DIMDSEP
 70
    44
  9
$DIMATFIT
 70
     3
  9
$DIMFRAC
 70
     0
  9
$DIMLDRBLK
  1

  9
$DIMLUNIT
 70
     2
  9
$DIMLWD
 70
    -2
  9
$DIMLWE
 70
    -2
  9
$DIMTMOVE
 70
     0
  9
$LUNITS
 70
     2
  9
$LUPREC
 70
     2
  9
$SKETCHINC
 40
1.0
  9
$FILLETRAD
 40
10.0
  9
$AUNITS
 70
     0
  9
$AUPREC
 70
     2
  9
$MENU
  1
.
  9
$ELEVATION
 40
0.0
  9
$PELEVATION
 40
0.0
  9
$THICKNESS
 40
0.0
  9
$LIMCHECK
 70
     0
  9
$CHAMFERA
 40
10.0
  9
$CHAMFERB
 40
10.0
  9
$CHAMFERC
 40
20.0
  9
$CHAMFERD
 40
0.0
  9
$SKPOLY
 70
     0
  9
$TDCREATE
 40
2459334.744947975
  9
$TDUCREATE
 40
2459334.661614641
  9
$TDUPDATE
 40
2459334.744949074
  9
$TDUUPDATE
 40
2459334.661615741
  9
$TDINDWG
 40
0.0000000116
  9
$TDUSRTIMER
 40
0.0000000116
  9
$USRTIMER
 70
     1
  9
$ANGBASE
 50
0.0
  9
$ANGDIR
 70
     0
  9
$PDMODE
 70
     0
  9
$PDSIZE
 40
-1.0
  9
$PLINEWID
 40
0.0
  9
$SPLFRAME
 70
     0
  9
$SPLINETYPE
 70
     6
  9
$SPLINESEGS
 70
     8
  9
$HANDSEED
  5
BD
  9
$SURFTAB1
 70
     6
  9
$SURFTAB2
 70
     6
  9
$SURFTYPE
 70
     6
  9
$SURFU
 70
     6
  9
$SURFV
 70
     6
  9
$UCSBASE
  2

  9
$UCSNAME
  2

  9
$UCSORG
 10
0.0
 20
0.0
 30
0.0
  9
$UCSXDIR
 10
1.0
 20
0.0
 30
0.0
  9
$UCSYDIR
 10
0.0
 20
1.0
 30
0.0
  9
$UCSORTHOREF
  2

  9
$UCSORTHOVIEW
 70
     0
  9
$UCSORGTOP
 10
0.0
 20
0.0
 30
0.0
  9
$UCSORGBOTTOM
 10
0.0
 20
0.0
 30
0.0
  9
$UCSORGLEFT
 10
0.0
 20
0.0
 30
0.0
  9
$UCSORGRIGHT
 10
0.0
 20
0.0
 30
0.0
  9
$UCSORGFRONT
 10
0.0
 20
0.0
 30
0.0
  9
$UCSORGBACK
 10
0.0
 20
0.0
 30
0.0
  9
$PUCSBASE
  2

  9
$PUCSNAME
  2

  9
$PUCSORG
 10
0.0
 20
0.0
 30
0.0
  9
$PUCSXDIR
 10
1.0
 20
0.0
 30
0.0
  9
$PUCSYDIR
 10
0.0
 20
1.0
 30
0.0
  9
$PUCSORTHOREF
  2

  9
$PUCSORTHOVIEW
 70
     0
  9
$PUCSORGTOP
 10
0.0
 20
0.0
 30
0.0
  9
$PUCSORGBOTTOM
 10
0.0
 20
0.0
 30
0.0
  9
$PUCSORGLEFT
 10
0.0
 20
0.0
 30
0.0
  9
$PUCSORGRIGHT
 10
0.0
 20
0.0
 30
0.0
  9
$PUCSORGFRONT
 10
0.0
 20
0.0
 30
0.0
  9
$PUCSORGBACK
 10
0.0
 20
0.0
 30
0.0
  9
$USERI1
 70
     0
  9
$USERI2
 70
     0
  9
$USERI3
 70
     0
  9
$USERI4
 70
     0
  9
$USERI5
 70
     0
  9
$USERR1
 40
0.0
  9
$USERR2
 40
0.0
  9
$USERR3
 40
0.0
  9
$USERR4
 40
0.0
  9
$USERR5
 40
0.0
  9
$WORLDVIEW
 70
     1
  9
$SHADEDGE
 70
     3
  9
$SHADEDIF
 70
    70
  9
$TILEMODE
 70
     1
  9
$MAXACTVP
 70
    64
  9
$PINSBASE
 10
0.0
 20
0.0
 30
0.0
  9
$PLIMCHECK
 70
     0
  9
$PEXTMIN
 10
1.0000000000E+20
 20
1.0000000000E+20
 30
1.0000000000E+20
  9
$PEXTMAX
 10
-1.0000000000E+20
 20
-1.0000000000E+20
 30
-1.0000000000E+20
  9
$PLIMMIN
 10
0.0
 20
0.0
  9
$PLIMMAX
 10
420.0
 20
297.0
  9
$UNITMODE
 70
     0
  9
$VISRETAIN
 70
     1
  9
$PLINEGEN
 70
     0
  9
$PSLTSCALE
 70
     1
  9
$TREEDEPTH
 70
  3020
  9
$CMLSTYLE
  2
Standard
  9
$CMLJUST
 70
     0
  9
$CMLSCALE
 40
20.0
  9
$PROXYGRAPHICS
 70
     1
  9
$MEASUREMENT
 70
     1
  9
$CELWEIGHT
370
    -1
  9
$ENDCAPS
280
     0
  9
$JOINSTYLE
280
     0
  9
$LWDISPLAY
290
     1
  9
$INSUNITS
 70
     4
  9
$HYPERLINKBASE
  1

  9
$STYLESHEET
  1

  9
$XEDIT
290
     1
  9
$CEPSNTYPE
380
     0
  9
$PSTYLEMODE
290
     1
  9
$FINGERPRINTGUID
  2
{C83DC2B6-3578-4359-A9A6-4298C24C78A2}
  9
$VERSIONGUID
  2
{FAEB1C32-E019-11D5-929B-00C0DF256EC4}
  9
$EXTNAMES
290
     1
  9
$PSVPSCALE
 40
0.0
  9
$OLESTARTUP
290
     0
  0
ENDSEC
  0
SECTION
  2
CLASSES
  0
CLASS
  1
ACDBDICTIONARYWDFLT
  2
AcDbDictionaryWithDefault
  3
ObjectDBX Classes
 90
        0
280
     0
281
     0
  0
CLASS
  1
VISUALSTYLE
  2
AcDbVisualStyle
  3
ObjectDBX Classes
 90
     4095
280
     0
281
     0
  0
CLASS
  1
MATERIAL
  2
AcDbMaterial
  3
ObjectDBX Classes
 90
     1153
280
     0
281
     0
  0
CLASS
  1
ACDBPLACEHOLDER
  2
AcDbPlaceHolder
  3
ObjectDBX Classes
 90
        0
280
     0
281
     0
  0
CLASS
  1
LAYOUT
  2
AcDbLayout
  3
ObjectDBX Classes
 90
        0
280
     0
281
     0
  0
ENDSEC
  0
SECTION
  2
TABLES
  0
TABLE
  2
VPORT
  5
8
330
0
100
AcDbSymbolTable
 70
     1
  0
VPORT
  5
29
330
8
100
AcDbSymbolTableRecord
100
AcDbViewportTableRecord
  2
*Active
 70
     0
 10
0.0
 20
0.0
 11
1.0
 21
1.0
 12
594.5
 22
420.5
 13
0.0
 23
0.0
 14
10.0
 24
10.0
 15
10.0
 25
10.0
 16
0.0
 26
0.0
 36
1.0
 17
0.0
 27
0.0
 37
0.0
 40
841.0
 41
1.4137931034
 42
50.0
 43
0.0
 44
0.0
 50
0.0
 51
0.0
 71
     0
 72
  2000
 73
     1
 74
     3
 75
     0
 76
     0
 77
     0
 78
     0
281
     0
 65
     1
110
0.0
120
0.0
130
0.0
111
1.0
121
0.0
131
0.0
112
0.0
122
1.0
132
0.0
 79
     0
146
0.0
  0
ENDTAB
  0
TABLE
  2
LTYPE
  5
5
330
0
100
AcDbSymbolTable
 70
     6
  0
LTYPE
  5
14
330
5
100
AcDbSymbolTableRecord
100
AcDbLinetypeTableRecord
  2
ByBlock
 70
     0
  3

 72
    65
 73
     0
 40
0.0
  0
LTYPE
  5
15
330
5
100
AcDbSymbolTableRecord
100
AcDbLinetypeTableRecord
  2
ByLayer
 70
     0
  3

 72
    65
 73
     0
 40
0.0
  0
LTYPE
  5
16
330
5
100
AcDbSymbolTableRecord
100
AcDbLinetypeTableRecord
  2
Continuous
 70
     0
  3
Solid line
 72
    65
 73
     0
 40
0.0
  0
LTYPE
  5
3F
330
5
100
AcDbSymbolTableRecord
100
AcDbLinetypeTableRecord
  2
HIDDEN
 70
     0
  3
Hidden __ __ __ __ __ __ __ __ __ __ __ __ __ __
 72
    65
 73
     2
 40
1.905
 49
1.27
 74
     0
 49
-0.635
 74
     0
  0
LTYPE
  5
40
330
5
100
AcDbSymbolTableRecord
100
AcDbLinetypeTableRecord
  2
PHANTOM
 70
     0
  3
Phantom ______  __  __  ______  __  __  ______
 72
    65
 73
     6
 40
12.7
 49
6.35
 74
     0
 49
-1.27
 74
     0
 49
1.27
 74
     0
 49
-1.27
 74
     0
 49
1.27
 74
     0
 49
-1.27
 74
     0
  0
LTYPE
  5
41
330
5
100
AcDbSymbolTableRecord
100
AcDbLinetypeTableRecord
  2
CENTER
 70
     0
  3
Center ____ _ ____ _ ____ _ ____ _ ____ _ ____
 72
    65
 73
     4
 40
10.16
 49
6.35
 74
     0
 49
-1.27
 74
     0
 49
1.27
 74
     0
 49
-1.27
 74
     0
  0
LTYPE
  5
42
330
5
100
AcDbSymbolTableRecord
100
AcDbLinetypeTableRecord
  2
CENTERX2
 70
     0
  3
Center (2x) ________  __  ________  __  _____
 72
    65
 73
     4
 40
20.32
 49
12.7
 74
     0
 49
-2.54
 74
     0
 49
2.54
 74
     0
 49
-2.54
 74
     0
  0
LTYPE
  5
43
330
5
100
AcDbSymbolTableRecord
100
AcDbLinetypeTableRecord
  2
DOT2
 70
     0
  3
Dot (.5x) ........................................
 72
    65
 73
     2
 40
0.635
 49
0.0
 74
     0
 49
-0.635
 74
     0
  0
ENDTAB
  0
TABLE
  2
LAYER
  5
2
330
0
100
AcDbSymbolTable
 70
     2
  0
LAYER
  5
10
330
2
100
AcDbSymbolTableRecord
100
AcDbLayerTableRecord
  2
0
 70
     0
 62
     7
  6
Continuous
370
    -3
390
F
  0
LAYER
  5
44
330
2
100
AcDbSymbolTableRecord
100
AcDbLayerTableRecord
  2
SLD-0
 70
     0
 62
   179
  6
Continuous
370
    -3
390
F
  0
ENDTAB
  0
TABLE
  2
STYLE
  5
3
330
0
100
AcDbSymbolTable
 70
     3
  0
STYLE
  5
11
330
3
100
AcDbSymbolTableRecord
100
AcDbTextStyleTableRecord
  2
Standard
 70
     0
 40
0.0
 41
1.0
 50
0.0
 71
     0
 42
3.5
  3
txt
  4

  0
STYLE
  5
85
330
3
100
AcDbSymbolTableRecord
100
AcDbTextStyleTableRecord
  2
SLDTEXTSTYLE0
 70
     0
 40
0.0
 41
0.75
 50
0.0
 71
     0
 42
0.2
  3
TXT
  4

  0
STYLE
  5
92
330
3
100
AcDbSymbolTableRecord
100
AcDbTextStyleTableRecord
  2
SLDTEXTSTYLE1
 70
     0
 40
0.0
 41
0.96
 50
0.0
 71
     0
 42
0.2
  3
TXT
  4

  0
ENDTAB
  0
TABLE
  2
VIEW
  5
6
330
0
100
AcDbSymbolTable
 70
     0
  0
ENDTAB
  0
TABLE
  2
UCS
  5
7
330
0
100
AcDbSymbolTable
 70
     0
  0
ENDTAB
  0
TABLE
  2
APPID
  5
9
330
0
100
AcDbSymbolTable
 70
     1
  0
APPID
  5
12
330
9
100
AcDbSymbolTableRecord
100
AcDbRegAppTableRecord
  2
ACAD
 70
     0
  0
ENDTAB
  0
TABLE
  2
DIMSTYLE
  5
A
330
0
100
AcDbSymbolTable
 70
     3
100
AcDbDimStyleTable
  0
DIMSTYLE
105
27
330
A
100
AcDbSymbolTableRecord
100
AcDbDimStyleTableRecord
  2
ISO-25
 70
     0
 41
2.5
 42
0.625
 43
3.75
 44
1.25
 73
     0
 74
     0
 77
     1
 78
     8
140
2.5
141
2.5
143
0.0393700787
147
0.625
171
     3
172
     1
178
     0
271
     2
272
     2
274
     3
278
    44
283
     0
284
     8
340
11
  0
DIMSTYLE
105
86
102
{ACAD_REACTORS
330
84
330
97
330
A3
102
}
330
A
100
AcDbSymbolTableRecord
100
AcDbDimStyleTableRecord
  2
SLDDIMSTYLE0
 70
     0
 41
3.302
 44
0.0
 45
0.000000001
 73
     0
 74
     0
 77
     1
 78
    12
 79
     3
140
35.0
147
8.75
173
     1
178
     0
271
     0
272
     3
276
     2
284
    12
340
85
341
87
343
87
344
87
  0
DIMSTYLE
105
B1
102
{ACAD_REACTORS
330
B0
102
}
330
A
100
AcDbSymbolTableRecord
100
AcDbDimStyleTableRecord
  2
SLDDIMSTYLE1
 70
     0
 41
3.302
 44
0.0
 45
0.000000001
 73
     0
 74
     0
 77
     1
 78
    12
 79
     3
140
35.0
147
8.75
173
     1
178
     0
271
     0
272
     0
276
     2
284
    12
340
85
341
87
343
87
344
87
  0
ENDTAB
  0
TABLE
  2
BLOCK_RECORD
  5
1
330
0
100
AcDbSymbolTable
 70
     6
  0
BLOCK_RECORD
  5
1F
330
1
100
AcDbSymbolTableRecord
100
AcDbBlockTableRecord
  2
*Model_Space
340
22
  0
BLOCK_RECORD
  5
1B
330
1
100
AcDbSymbolTableRecord
100
AcDbBlockTableRecord
  2
*Paper_Space
340
1E
  0
BLOCK_RECORD
  5
23
330
1
100
AcDbSymbolTableRecord
100
AcDbBlockTableRecord
  2
*Paper_Space0
340
26
  0
BLOCK_RECORD
  5
87
330
1
100
AcDbSymbolTableRecord
100
AcDbBlockTableRecord
  2
_NONE
340
0
  0
BLOCK_RECORD
  5
8A
330
1
100
AcDbSymbolTableRecord
100
AcDbBlockTableRecord
  2
_D
340
0
  0
BLOCK_RECORD
  5
98
330
1
100
AcDbSymbolTableRecord
100
AcDbBlockTableRecord
  2
_D_1
340
0
  0
BLOCK_RECORD
  5
A4
330
1
100
AcDbSymbolTableRecord
100
AcDbBlockTableRecord
  2
_D_2
340
0
  0
BLOCK_RECORD
  5
B2
330
1
100
AcDbSymbolTableRecord
100
AcDbBlockTableRecord
  2
_D_3
340
0
  0
ENDTAB
  0
ENDSEC
  0
SECTION
  2
BLOCKS
  0
BLOCK
  5
20
330
1F
100
AcDbEntity
  8
0
100
AcDbBlockBegin
  2
*Model_Space
 70
     0
 10
0.0
 20
0.0
 30
0.0
  3
*Model_Space
  1

  0
ENDBLK
  5
21
330
1F
100
AcDbEntity
  8
0
100
AcDbBlockEnd
  0
BLOCK
  5
1C
330
1B
100
AcDbEntity
 67
     1
  8
0
100
AcDbBlockBegin
  2
*Paper_Space
 70
     0
 10
0.0
 20
0.0
 30
0.0
  3
*Paper_Space
  1

  0
ENDBLK
  5
1D
330
1B
100
AcDbEntity
 67
     1
  8
0
100
AcDbBlockEnd
  0
BLOCK
  5
24
330
23
100
AcDbEntity
  8
0
100
AcDbBlockBegin
  2
*Paper_Space0
 70
     0
 10
0.0
 20
0.0
 30
0.0
  3
*Paper_Space0
  1

  0
ENDBLK
  5
25
330
23
100
AcDbEntity
  8
0
100
AcDbBlockEnd
  0
BLOCK
  5
88
330
87
100
AcDbEntity
  8
0
100
AcDbBlockBegin
  2
_NONE
 70
     0
 10
0.0
 20
0.0
 30
0.0
  3
_NONE
  1

  0
ENDBLK
  5
89
330
87
100
AcDbEntity
  8
0
100
AcDbBlockEnd
  0
BLOCK
  5
8B
330
8A
100
AcDbEntity
  8
0
100
AcDbBlockBegin
  2
_D
 70
     0
 10
0.0
 20
0.0
 30
0.0
  3
_D
  1

  0
LINE
  5
8D
330
8A
100
AcDbEntity
  8
SLD-0
 62
   179
100
AcDbLine
 10
1066.5859550562
 20
2484.772927297
 30
0.0
 11
1066.5859550562
 21
2584.772927297
 31
0.0
  0
LINE
  5
8E
330
8A
100
AcDbEntity
  8
SLD-0
 62
   179
100
AcDbLine
 10
1186.5859550562
 20
2484.772927297
 30
0.0
 11
1186.5859550562
 21
2584.772927297
 31
0.0
  0
LINE
  5
8F
330
8A
100
AcDbEntity
  8
SLD-0
 62
   179
100
AcDbLine
 10
1066.5859550562
 20
2574.772927297
 30
0.0
 11
1003.0859550562
 21
2574.772927297
 31
0.0
  0
LINE
  5
90
330
8A
100
AcDbEntity
  8
SLD-0
 62
   179
100
AcDbLine
 10
1066.5859550562
 20
2574.772927297
 30
0.0
 11
1186.5859550562
 21
2574.772927297
 31
0.0
  0
LINE
  5
91
330
8A
100
AcDbEntity
  8
SLD-0
 62
   179
100
AcDbLine
 10
1186.5859550562
 20
2574.772927297
 30
0.0
 11
1250.0859550562
 21
2574.772927297
 31
0.0
  0
MTEXT
  5
93
330
8A
100
AcDbEntity
  8
SLD-0
 62
   179
100
AcDbMText
 10
1011.3990156327
 20
2617.2666628181
 30
-67.9373189732
 40
35.0
 41
0.0
 71
     1
 72
     1
  1
%%c
  7
SLDTEXTSTYLE1
 73
     1
 44
1.0
  0
MTEXT
  5
94
330
8A
100
AcDbEntity
  8
SLD-0
 62
   179
100
AcDbMText
 10
1081.6833896164
 20
2617.8013845847
 30
-67.9373189732
 40
35.0
 41
0.0
 71
     1
 72
     1
  1
120
  7
SLDTEXTSTYLE1
 73
     1
 44
1.0
  0
SOLID
  5
95
330
8A
100
AcDbEntity
  8
SLD-0
 62
   179
100
AcDbTrace
 10
1066.5859550562
 20
2574.772927297
 30
0.0
 11
1033.5659550562
 21
2579.852927297
 31
0.0
 12
1033.5659550562
 22
2569.692927297
 32
0.0
 13
1033.5659550562
 23
2569.692927297
 33
0.0
  0
SOLID
  5
96
330
8A
100
AcDbEntity
  8
SLD-0
 62
   179
100
AcDbTrace
 10
1186.5859550562
 20
2574.772927297
 30
0.0
 11
1219.6059550562
 21
2569.692927297
 31
0.0
 12
1219.6059550562
 22
2579.852927297
 32
0.0
 13
1219.6059550562
 23
2579.852927297
 33
0.0
  0
ENDBLK
  5
8C
330
8A
100
AcDbEntity
  8
0
100
AcDbBlockEnd
  0
BLOCK
  5
99
330
98
100
AcDbEntity
  8
0
100
AcDbBlockBegin
  2
_D_1
 70
     0
 10
0.0
 20
0.0
 30
0.0
  3
_D_1
  1

  0
LINE
  5
9B
330
98
100
AcDbEntity
  8
SLD-0
 62
   179
100
AcDbLine
 10
1181.5859550562
 20
2474.772927297
 30
0.0
 11
1339.2839521433
 21
2474.772927297
 31
0.0
  0
LINE
  5
9C
330
98
100
AcDbEntity
  8
SLD-0
 62
   179
100
AcDbLine
 10
1193.5859550562
 20
2424.772927297
 30
0.0
 11
1339.2839521433
 21
2424.772927297
 31
0.0
  0
LINE
  5
9D
330
98
100
AcDbEntity
  8
SLD-0
 62
   179
100
AcDbLine
 10
1329.2839521433
 20
2474.772927297
 30
0.0
 11
1329.2839521433
 21
2538.272927297
 31
0.0
  0
LINE
  5
9E
330
98
100
AcDbEntity
  8
SLD-0
 62
   179
100
AcDbLine
 10
1329.2839521433
 20
2474.772927297
 30
0.0
 11
1329.2839521433
 21
2424.772927297
 31
0.0
  0
LINE
  5
9F
330
98
100
AcDbEntity
  8
SLD-0
 62
   179
100
AcDbLine
 10
1329.2839521433
 20
2424.772927297
 30
0.0
 11
1329.2839521433
 21
2361.272927297
 31
0.0
  0
MTEXT
  5
A0
330
98
100
AcDbEntity
  8
SLD-0
 62
   179
100
AcDbMText
 10
1286.7902183684
 20
2409.5486084075
 30
-67.9373189732
 40
35.0
 41
0.0
 71
     1
 72
     1
  1
50
  7
SLDTEXTSTYLE1
 11
-7.044195017643634E-15
 21
1.0
 31
0.0
 73
     1
 44
1.0
  0
SOLID
  5
A1
330
98
100
AcDbEntity
  8
SLD-0
 62
   179
100
AcDbTrace
 10
1329.2839521433
 20
2474.772927297
 30
0.0
 11
1334.3639521433
 21
2507.792927297
 31
0.0
 12
1324.2039521433
 22
2507.792927297
 32
0.0
 13
1324.2039521433
 23
2507.792927297
 33
0.0
  0
SOLID
  5
A2
330
98
100
AcDbEntity
  8
SLD-0
 62
   179
100
AcDbTrace
 10
1329.2839521433
 20
2424.772927297
 30
0.0
 11
1324.2039521433
 21
2391.752927297
 31
0.0
 12
1334.3639521433
 22
2391.752927297
 32
0.0
 13
1334.3639521433
 23
2391.752927297
 33
0.0
  0
ENDBLK
  5
9A
330
98
100
AcDbEntity
  8
0
100
AcDbBlockEnd
  0
BLOCK
  5
A5
330
A4
100
AcDbEntity
  8
0
100
AcDbBlockBegin
  2
_D_2
 70
     0
 10
0.0
 20
0.0
 30
0.0
  3
_D_2
  1

  0
LINE
  5
A7
330
A4
100
AcDbEntity
  8
SLD-0
 62
   179
100
AcDbLine
 10
1051.5859550562
 20
1039.7549465257
 30
0.0
 11
1051.5859550562
 21
892.079796943
 31
0.0
  0
LINE
  5
A8
330
A4
100
AcDbEntity
  8
SLD-0
 62
   179
100
AcDbLine
 10
1201.5859550562
 20
1039.7549465257
 30
0.0
 11
1201.5859550562
 21
892.079796943
 31
0.0
  0
LINE
  5
A9
330
A4
100
AcDbEntity
  8
SLD-0
 62
   179
100
AcDbLine
 10
1051.5859550562
 20
902.079796943
 30
0.0
 11
988.0859550562
 21
902.079796943
 31
0.0
  0
LINE
  5
AA
330
A4
100
AcDbEntity
  8
SLD-0
 62
   179
100
AcDbLine
 10
1051.5859550562
 20
902.079796943
 30
0.0
 11
1201.5859550562
 21
902.079796943
 31
0.0
  0
LINE
  5
AB
330
A4
100
AcDbEntity
  8
SLD-0
 62
   179
100
AcDbLine
 10
1201.5859550562
 20
902.079796943
 30
0.0
 11
1265.0859550562
 21
902.079796943
 31
0.0
  0
MTEXT
  5
AC
330
A4
100
AcDbEntity
  8
SLD-0
 62
   179
100
AcDbMText
 10
1018.4087168407
 20
944.5735324641
 30
-67.9373189732
 40
35.0
 41
0.0
 71
     1
 72
     1
  1
%%c
  7
SLDTEXTSTYLE1
 73
     1
 44
1.0
  0
MTEXT
  5
AD
330
A4
100
AcDbEntity
  8
SLD-0
 62
   179
100
AcDbMText
 10
1088.6930908245
 20
945.1082542307
 30
-67.9373189732
 40
35.0
 41
0.0
 71
     1
 72
     1
  1
150
  7
SLDTEXTSTYLE1
 73
     1
 44
1.0
  0
SOLID
  5
AE
330
A4
100
AcDbEntity
  8
SLD-0
 62
   179
100
AcDbTrace
 10
1051.5859550562
 20
902.079796943
 30
0.0
 11
1018.5659550562
 21
907.159796943
 31
0.0
 12
1018.5659550562
 22
896.999796943
 32
0.0
 13
1018.5659550562
 23
896.999796943
 33
0.0
  0
SOLID
  5
AF
330
A4
100
AcDbEntity
  8
SLD-0
 62
   179
100
AcDbTrace
 10
1201.5859550562
 20
902.079796943
 30
0.0
 11
1234.6059550562
 21
896.999796943
 31
0.0
 12
1234.6059550562
 22
907.159796943
 32
0.0
 13
1234.6059550562
 23
907.159796943
 33
0.0
  0
ENDBLK
  5
A6
330
A4
100
AcDbEntity
  8
0
100
AcDbBlockEnd
  0
BLOCK
  5
B3
330
B2
100
AcDbEntity
  8
0
100
AcDbBlockBegin
  2
_D_3
 70
     0
 10
0.0
 20
0.0
 30
0.0
  3
_D_3
  1

  0
LINE
  5
B5
330
B2
100
AcDbEntity
  8
SLD-0
 62
   179
100
AcDbLine
 10
1140.3359550562
 20
1223.668182193
 30
0.0
 11
1328.7710659266
 21
1223.668182193
 31
0.0
  0
LINE
  5
B6
330
B2
100
AcDbEntity
  8
SLD-0
 62
   179
100
AcDbLine
 10
1211.5859550562
 20
1049.7549465257
 30
0.0
 11
1328.7710659266
 21
1049.7549465257
 31
0.0
  0
LINE
  5
B7
330
B2
100
AcDbEntity
  8
SLD-0
 62
   179
100
AcDbLine
 10
1318.7710659266
 20
1223.668182193
 30
0.0
 11
1318.7710659266
 21
1287.168182193
 31
0.0
  0
LINE
  5
B8
330
B2
100
AcDbEntity
  8
SLD-0
 62
   179
100
AcDbLine
 10
1318.7710659266
 20
1223.668182193
 30
0.0
 11
1318.7710659266
 21
1049.7549465257
 31
0.0
  0
LINE
  5
B9
330
B2
100
AcDbEntity
  8
SLD-0
 62
   179
100
AcDbLine
 10
1318.7710659266
 20
1049.7549465257
 30
0.0
 11
1318.7710659266
 21
986.2549465257
 31
0.0
  0
MTEXT
  5
BA
330
B2
100
AcDbEntity
  8
SLD-0
 62
   179
100
AcDbMText
 10
1276.2773321517
 20
1078.1998199318
 30
-67.9373189732
 40
35.0
 41
0.0
 71
     1
 72
     1
  1
174
  7
SLDTEXTSTYLE1
 11
-7.044195017643634E-15
 21
1.0
 31
0.0
 73
     1
 44
1.0
  0
SOLID
  5
BB
330
B2
100
AcDbEntity
  8
SLD-0
 62
   179
100
AcDbTrace
 10
1318.7710659266
 20
1223.668182193
 30
0.0
 11
1323.8510659266
 21
1256.688182193
 31
0.0
 12
1313.6910659266
 22
1256.688182193
 32
0.0
 13
1313.6910659266
 23
1256.688182193
 33
0.0
  0
SOLID
  5
BC
330
B2
100
AcDbEntity
  8
SLD-0
 62
   179
100
AcDbTrace
 10
1318.7710659266
 20
1049.7549465257
 30
0.0
 11
1313.6910659266
 21
1016.7349465257
 31
0.0
 12
1323.8510659266
 22
1016.7349465257
 32
0.0
 13
1323.8510659266
 23
1016.7349465257
 33
0.0
  0
ENDBLK
  5
B4
330
B2
100
AcDbEntity
  8
0
100
AcDbBlockEnd
  0
ENDSEC
  0
SECTION
  2
ENTITIES
  0
LINE
  5
45
330
1F
100
AcDbEntity
  8
SLD-0
  6
Continuous
 62
   179
370
    15
100
AcDbLine
 10
1123.5859550301
 20
2414.6586349565
 30
0.0
 11
1123.5859550301
 21
1223.6681869585
 31
0.0
  0
LINE
  5
46
330
1F
100
AcDbEntity
  8
SLD-0
  6
Continuous
 62
   179
370
    15
100
AcDbLine
 10
1129.5859550823
 20
1223.6681869585
 30
0.0
 11
1129.5859550823
 21
2414.6586349565
 31
0.0
  0
LINE
  5
47
330
1F
100
AcDbEntity
  8
SLD-0
  6
Continuous
 62
   179
370
    15
100
AcDbLine
 10
1133.5859551063
 20
1205.7573935348
 30
0.0
 11
1133.5859551063
 21
1217.75738796
 31
0.0
  0
LINE
  5
48
330
1F
100
AcDbEntity
  8
SLD-0
  6
Continuous
 62
   179
370
    15
100
AcDbLine
 10
1119.5859549523
 20
1217.75738796
 30
0.0
 11
1119.5859549523
 21
1205.7573935348
 31
0.0
  0
LINE
  5
49
330
1F
100
AcDbEntity
  8
SLD-0
  6
Continuous
 62
   179
370
    15
100
AcDbLine
 10
1133.5859552722
 20
1179.7573855478
 30
0.0
 11
1133.5859552722
 21
1189.7573909122
 31
0.0
  0
LINE
  5
4A
330
1F
100
AcDbEntity
  8
SLD-0
  6
Continuous
 62
   179
370
    15
100
AcDbLine
 10
1119.5859548401
 20
1189.7573909122
 30
0.0
 11
1119.5859548401
 21
1179.7573855478
 31
0.0
  0
LINE
  5
4B
330
1F
100
AcDbEntity
  8
SLD-0
  6
Continuous
 62
   179
370
    15
100
AcDbLine
 10
1067.0859536853
 20
1189.7573909122
 30
0.0
 11
1072.0859563675
 21
1189.7573909122
 31
0.0
  0
LINE
  5
4C
330
1F
100
AcDbEntity
  8
SLD-0
  6
Continuous
 62
   179
370
    15
100
AcDbLine
 10
1072.0859563675
 20
1205.7573935348
 30
0.0
 11
1067.0859536853
 21
1205.7573935348
 31
0.0
  0
LINE
  5
4D
330
1F
100
AcDbEntity
  8
SLD-0
  6
Continuous
 62
   179
370
    15
100
AcDbLine
 10
1186.0859564271
 20
1205.7573935348
 30
0.0
 11
1181.0859537449
 21
1205.7573935348
 31
0.0
  0
LINE
  5
4E
330
1F
100
AcDbEntity
  8
SLD-0
  6
Continuous
 62
   179
370
    15
100
AcDbLine
 10
1181.0859537449
 20
1189.7573909122
 30
0.0
 11
1186.0859564271
 21
1189.7573909122
 31
0.0
  0
LINE
  5
4F
330
1F
100
AcDbEntity
  8
SLD-0
  6
Continuous
 62
   179
370
    15
100
AcDbLine
 10
1133.5859552722
 20
1189.7573909122
 30
0.0
 11
1181.0859537449
 21
1189.7573909122
 31
0.0
  0
LINE
  5
50
330
1F
100
AcDbEntity
  8
SLD-0
  6
Continuous
 62
   179
370
    15
100
AcDbLine
 10
1072.0859563675
 20
1189.7573909122
 30
0.0
 11
1119.5859548401
 21
1189.7573909122
 31
0.0
  0
LINE
  5
51
330
1F
100
AcDbEntity
  8
SLD-0
  6
Continuous
 62
   179
370
    15
100
AcDbLine
 10
1119.5859549523
 20
1205.7573935348
 30
0.0
 11
1072.0859563675
 21
1205.7573935348
 31
0.0
  0
LINE
  5
52
330
1F
100
AcDbEntity
  8
SLD-0
  6
Continuous
 62
   179
370
    15
100
AcDbLine
 10
1181.0859537449
 20
1205.7573935348
 30
0.0
 11
1133.5859551063
 21
1205.7573935348
 31
0.0
  0
LINE
  5
53
330
1F
100
AcDbEntity
  8
SLD-0
  6
Continuous
 62
   179
370
    15
100
AcDbLine
 10
1201.5859580364
 20
1049.7549465257
 30
0.0
 11
1185.646334919
 21
1134.877963956
 31
0.0
  0
LINE
  5
54
330
1F
100
AcDbEntity
  8
SLD-0
  6
Continuous
 62
   179
370
    15
100
AcDbLine
 10
1067.5255751934
 20
1134.877963956
 30
0.0
 11
1051.5859520759
 21
1049.7549465257
 31
0.0
  0
LINE
  5
55
330
1F
100
AcDbEntity
  8
SLD-0
  6
Continuous
 62
   179
370
    15
100
AcDbLine
 10
1118.0859545942
 20
2424.6586254198
 30
0.0
 11
1118.0859545942
 21
2417.158692177
 31
0.0
  0
LINE
  5
56
330
1F
100
AcDbEntity
  8
SLD-0
  6
Continuous
 62
   179
370
    15
100
AcDbLine
 10
1135.0859555181
 20
2417.158692177
 30
0.0
 11
1135.0859555181
 21
2424.6586254198
 31
0.0
  0
LINE
  5
57
330
1F
100
AcDbEntity
  8
SLD-0
  6
Continuous
 62
   179
370
    15
100
AcDbLine
 10
1120.585955004
 20
2424.7729471285
 30
0.0
 11
1120.585955004
 21
2424.6586254198
 31
0.0
  0
LINE
  5
58
330
1F
100
AcDbEntity
  8
SLD-0
  6
Continuous
 62
   179
370
    15
100
AcDbLine
 10
1132.5859551083
 20
2424.6586254198
 30
0.0
 11
1132.5859551083
 21
2424.7729471285
 31
0.0
  0
LINE
  5
59
330
1F
100
AcDbEntity
  8
SLD-0
  6
Continuous
 62
   179
370
    15
100
AcDbLine
 10
1121.5859544852
 20
1179.7573863702
 30
0.0
 11
1121.5859543735
 21
1179.7549473481
 31
0.0
  0
LINE
  5
5A
330
1F
100
AcDbEntity
  8
SLD-0
  6
Continuous
 62
   179
370
    15
100
AcDbLine
 10
1131.5859543735
 20
1179.7549473481
 30
0.0
 11
1131.5859542617
 21
1179.7573863702
 31
0.0
  0
LINE
  5
5B
330
1F
100
AcDbEntity
  8
SLD-0
  6
Continuous
 62
   179
370
    15
100
AcDbLine
 10
1066.5859563973
 20
2474.7728994447
 30
0.0
 11
1066.5859563973
 21
2427.7729681093
 31
0.0
  0
LINE
  5
5C
330
1F
100
AcDbEntity
  8
SLD-0
  6
Continuous
 62
   179
370
    15
100
AcDbLine
 10
1186.5859537151
 20
2427.7729681093
 30
0.0
 11
1186.5859537151
 21
2474.7728994447
 31
0.0
  0
LINE
  5
5D
330
1F
100
AcDbEntity
  8
SLD-0
  6
Continuous
 62
   179
370
    15
100
AcDbLine
 10
1122.8359550562
 20
1223.668182193
 30
0.0
 11
1130.3359550562
 21
1223.668182193
 31
0.0
  0
LINE
  5
5E
330
1F
100
AcDbEntity
  8
SLD-0
  6
Continuous
 62
   179
370
    15
100
AcDbLine
 10
1119.5859548401
 20
1179.7573855478
 30
0.0
 11
1133.5859552722
 21
1179.7573855478
 31
0.0
  0
LINE
  5
5F
330
1F
100
AcDbEntity
  8
SLD-0
  6
Continuous
 62
   179
370
    15
100
AcDbLine
 10
1072.0859563675
 20
1189.7573909122
 30
0.0
 11
1072.0859563675
 21
1205.7573935348
 31
0.0
  0
LINE
  5
60
330
1F
100
AcDbEntity
  8
SLD-0
  6
Continuous
 62
   179
370
    15
100
AcDbLine
 10
1181.0859537449
 20
1205.4482093412
 30
0.0
 11
1181.0859537449
 21
1189.7573909122
 31
0.0
  0
LINE
  5
61
330
1F
100
AcDbEntity
  8
SLD-0
  6
Continuous
 62
   179
370
    15
100
AcDbLine
 10
1181.0859537449
 20
1205.7573935348
 30
0.0
 11
1181.0859537449
 21
1205.4482093412
 31
0.0
  0
LINE
  5
62
330
1F
100
AcDbEntity
  8
SLD-0
  6
Continuous
 62
   179
370
    15
100
AcDbLine
 10
1181.0859537449
 20
1205.7573935348
 30
0.0
 11
1181.0859537449
 21
1189.7573909122
 31
0.0
  0
LINE
  5
63
330
1F
100
AcDbEntity
  8
SLD-0
  6
Continuous
 62
   179
370
    15
100
AcDbLine
 10
1126.5859550562
 20
1049.7549465257
 30
0.0
 11
1201.5859580364
 21
1049.7549465257
 31
0.0
  0
LINE
  5
64
330
1F
100
AcDbEntity
  8
SLD-0
  6
Continuous
 62
   179
370
    15
100
AcDbLine
 10
1051.5859520759
 20
1049.7549465257
 30
0.0
 11
1126.5859550562
 21
1049.7549465257
 31
0.0
  0
LINE
  5
65
330
1F
100
AcDbEntity
  8
SLD-0
  6
Continuous
 62
   179
370
    15
100
AcDbLine
 10
1126.5859543735
 20
1179.7549425798
 30
0.0
 11
1131.5859543735
 21
1179.7549473481
 31
0.0
  0
LINE
  5
66
330
1F
100
AcDbEntity
  8
SLD-0
  6
Continuous
 62
   179
370
    15
100
AcDbLine
 10
1121.5859543735
 20
1179.7549473481
 30
0.0
 11
1126.5859543735
 21
1179.7549425798
 31
0.0
  0
LINE
  5
67
330
1F
100
AcDbEntity
  8
SLD-0
  6
Continuous
 62
   179
370
    15
100
AcDbLine
 10
1133.9376585323
 20
2424.6586254198
 30
0.0
 11
1118.0859545942
 21
2424.6586254198
 31
0.0
  0
LINE
  5
68
330
1F
100
AcDbEntity
  8
SLD-0
  6
Continuous
 62
   179
370
    15
100
AcDbLine
 10
1135.0859555181
 20
2424.6586254198
 30
0.0
 11
1133.9376585323
 21
2424.6586254198
 31
0.0
  0
LINE
  5
69
330
1F
100
AcDbEntity
  8
SLD-0
  6
Continuous
 62
   179
370
    15
100
AcDbLine
 10
1131.7753924754
 20
2414.6586349565
 30
0.0
 11
1120.5859550562
 21
2414.6586329563
 31
0.0
  0
LINE
  5
6A
330
1F
100
AcDbEntity
  8
SLD-0
  6
Continuous
 62
   179
370
    15
100
AcDbLine
 10
1132.5859550562
 20
2414.6586329563
 30
0.0
 11
1131.7753924754
 21
2414.6586349565
 31
0.0
  0
LINE
  5
6B
330
1F
100
AcDbEntity
  8
SLD-0
  6
Continuous
 62
   179
370
    15
100
AcDbLine
 10
1072.113784286
 20
2474.7728994447
 30
0.0
 11
1186.5859537151
 21
2474.7728994447
 31
0.0
  0
LINE
  5
6C
330
1F
100
AcDbEntity
  8
SLD-0
  6
Continuous
 62
   179
370
    15
100
AcDbLine
 10
1066.5859563973
 20
2474.7728994447
 30
0.0
 11
1072.113784286
 21
2474.7728994447
 31
0.0
  0
LINE
  5
6D
330
1F
100
AcDbEntity
  8
SLD-0
  6
Continuous
 62
   179
370
    15
100
AcDbLine
 10
1074.837392452
 20
2424.7729471285
 30
0.0
 11
1183.585955086
 21
2424.7729471285
 31
0.0
  0
LINE
  5
6E
330
1F
100
AcDbEntity
  8
SLD-0
  6
Continuous
 62
   179
370
    15
100
AcDbLine
 10
1069.5859550264
 20
2424.7729471285
 30
0.0
 11
1074.837392452
 21
2424.7729471285
 31
0.0
  0
LINE
  5
6F
330
1F
100
AcDbEntity
  8
SLD-0
  6
Continuous
 62
     8
370
    15
100
AcDbLine
 10
1126.5859549983
 20
1217.757386893
 30
0.0
 11
1119.5859549523
 21
1217.75738796
 31
0.0
  0
LINE
  5
70
330
1F
100
AcDbEntity
  8
SLD-0
  6
Continuous
 62
     8
370
    15
100
AcDbLine
 10
1133.5859551063
 20
1217.75738796
 30
0.0
 11
1126.5859549983
 21
1217.757386893
 31
0.0
  0
LINE
  5
71
330
1F
100
AcDbEntity
  8
SLD-0
  6
Continuous
 62
     8
370
    15
100
AcDbLine
 10
1067.0859536853
 20
1189.7573909122
 30
0.0
 11
1067.0859536853
 21
1205.7573935348
 31
0.0
  0
LINE
  5
72
330
1F
100
AcDbEntity
  8
SLD-0
  6
Continuous
 62
     8
370
    15
100
AcDbLine
 10
1186.0859564271
 20
1205.4482093412
 30
0.0
 11
1186.0859564271
 21
1189.7573909122
 31
0.0
  0
LINE
  5
73
330
1F
100
AcDbEntity
  8
SLD-0
  6
Continuous
 62
     8
370
    15
100
AcDbLine
 10
1186.0859564271
 20
1205.7573935348
 30
0.0
 11
1186.0859564271
 21
1205.4482093412
 31
0.0
  0
LINE
  5
74
330
1F
100
AcDbEntity
  8
SLD-0
  6
Continuous
 62
     8
370
    15
100
AcDbLine
 10
1126.5859550562
 20
1134.877963956
 30
0.0
 11
1185.646334919
 21
1134.877963956
 31
0.0
  0
LINE
  5
75
330
1F
100
AcDbEntity
  8
SLD-0
  6
Continuous
 62
     8
370
    15
100
AcDbLine
 10
1067.5255751934
 20
1134.877963956
 30
0.0
 11
1126.5859550562
 21
1134.877963956
 31
0.0
  0
LINE
  5
76
330
1F
100
AcDbEntity
  8
SLD-0
  6
Continuous
 62
     8
370
    15
100
AcDbLine
 10
1133.9376585323
 20
2417.158692177
 30
0.0
 11
1135.0859555181
 21
2417.158692177
 31
0.0
  0
LINE
  5
77
330
1F
100
AcDbEntity
  8
SLD-0
  6
Continuous
 62
     8
370
    15
100
AcDbLine
 10
1118.0859545942
 20
2417.158692177
 30
0.0
 11
1133.9376585323
 21
2417.158692177
 31
0.0
  0
LINE
  5
78
330
1F
100
AcDbEntity
  8
SLD-0
  6
Continuous
 62
     8
370
    15
100
AcDbLine
 10
1072.113784286
 20
2427.7729681093
 30
0.0
 11
1186.5859537151
 21
2427.7729681093
 31
0.0
  0
LINE
  5
79
330
1F
100
AcDbEntity
  8
SLD-0
  6
Continuous
 62
     8
370
    15
100
AcDbLine
 10
1066.5859563973
 20
2427.7729681093
 30
0.0
 11
1072.113784286
 21
2427.7729681093
 31
0.0
  0
ARC
  5
7A
330
1F
100
AcDbEntity
  8
SLD-0
  6
Continuous
 62
   179
370
    15
100
AcDbCircle
 10
1126.5859549983
 20
1217.757386893
 30
0.0
 40
7.000000046010281
100
AcDbArc
 50
122.392364686
 51
179.9999912665
  0
ARC
  5
7B
330
1F
100
AcDbEntity
  8
SLD-0
  6
Continuous
 62
   179
370
    15
100
AcDbCircle
 10
1126.5859549983
 20
1217.757386893
 30
0.0
 40
7.000000108000188
100
AcDbArc
 50
0.0000087335
 51
57.6076345142
  0
ARC
  5
7C
330
1F
100
AcDbEntity
  8
SLD-0
  6
Continuous
 62
   179
370
    15
100
AcDbCircle
 10
1067.0859550562
 20
1197.7573922235
 30
0.0
 40
8.000001311300256
100
AcDbArc
 50
90.0000098184
 51
269.9999901816
  0
ARC
  5
7D
330
1F
100
AcDbEntity
  8
SLD-0
  6
Continuous
 62
   179
370
    15
100
AcDbCircle
 10
1186.0859564271
 20
1197.7573922235
 30
0.0
 40
8.000001311300139
100
AcDbArc
 50
270.0
 51
90.0
  0
ARC
  5
7E
330
1F
100
AcDbEntity
  8
SLD-0
  6
Continuous
 62
   179
370
    15
100
AcDbCircle
 10
1121.5859543735
 20
1124.7549466535
 30
0.0
 40
55.00000069456521
100
AcDbArc
 50
90.0
 51
169.3939664609
  0
ARC
  5
7F
330
1F
100
AcDbEntity
  8
SLD-0
  6
Continuous
 62
   179
370
    15
100
AcDbCircle
 10
1131.5859557389
 20
1124.7549466535
 30
0.0
 40
55.00000069456521
100
AcDbArc
 50
10.6060335391
 51
90.0000014224
  0
ARC
  5
80
330
1F
100
AcDbEntity
  8
SLD-0
  6
Continuous
 62
   179
370
    15
100
AcDbCircle
 10
1132.5859550562
 20
2417.1586329563
 30
0.0
 40
2.500000000000455
100
AcDbArc
 50
270.0
 51
0.0
  0
ARC
  5
81
330
1F
100
AcDbEntity
  8
SLD-0
  6
Continuous
 62
   179
370
    15
100
AcDbCircle
 10
1120.5859550562
 20
2417.1586329563
 30
0.0
 40
2.500000000000455
100
AcDbArc
 50
180.0
 51
270.0
  0
ARC
  5
82
330
1F
100
AcDbEntity
  8
SLD-0
  6
Continuous
 62
   179
370
    15
100
AcDbCircle
 10
1069.5859550562
 20
2427.772927297
 30
0.0
 40
3.0
100
AcDbArc
 50
180.0
 51
270.0
  0
ARC
  5
83
330
1F
100
AcDbEntity
  8
SLD-0
  6
Continuous
 62
   179
370
    15
100
AcDbCircle
 10
1183.5859550562
 20
2427.772927297
 30
0.0
 40
3.0
100
AcDbArc
 50
270.0
 51
0.0
  0
DIMENSION
  5
84
330
1F
100
AcDbEntity
  8
SLD-0
 62
   179
100
AcDbDimension
  2
_D
 10
1066.5859550562
 20
2574.772927297
 30
0.0
 11
1108.301622567
 21
2574.772927297
 31
0.0
 70
   160
  1
%%c<>
 71
     2
 42
-1.0
  3
SLDDIMSTYLE0
100
AcDbAlignedDimension
 13
1186.5859550562
 23
2474.772927297
 33
0.0
 14
1066.5859550562
 24
2474.772927297
 34
0.0
100
AcDbRotatedDimension
  0
DIMENSION
  5
97
330
1F
100
AcDbEntity
  8
SLD-0
 62
   179
100
AcDbDimension
  2
_D_1
 10
1329.2839521433
 20
2474.772927297
 30
0.0
 11
1329.2839521433
 21
2449.6284712182
 31
0.0
 70
   160
  1
<>
 71
     2
 42
-1.0
  3
SLDDIMSTYLE0
100
AcDbAlignedDimension
 13
1183.5859550562
 23
2424.772927297
 33
0.0
 14
1171.5859550562
 24
2474.772927297
 34
0.0
 50
90.0
100
AcDbRotatedDimension
  0
DIMENSION
  5
A3
330
1F
100
AcDbEntity
  8
SLD-0
 62
   179
100
AcDbDimension
  2
_D_2
 10
1051.5859550562
 20
902.079796943
 30
0.0
 11
1115.311323775
 21
902.079796943
 31
0.0
 70
   160
  1
%%c<>
 71
     2
 42
-1.0
  3
SLDDIMSTYLE0
100
AcDbAlignedDimension
 13
1201.5859550562
 23
1049.7549465257
 33
0.0
 14
1051.5859550562
 24
1049.7549465257
 34
0.0
100
AcDbRotatedDimension
  0
DIMENSION
  5
B0
330
1F
100
AcDbEntity
  8
SLD-0
 62
   179
100
AcDbDimension
  2
_D_3
 10
1318.7710659266
 20
1223.668182193
 30
0.0
 11
1318.7710659266
 21
1131.2102352177
 31
0.0
 70
   160
  1
<>
 71
     2
 42
-1.0
  3
SLDDIMSTYLE1
100
AcDbAlignedDimension
 13
1201.5859550562
 23
1049.7549465257
 33
0.0
 14
1130.3359550562
 24
1223.668182193
 34
0.0
 50
90.0
100
AcDbRotatedDimension
  0
ENDSEC
  0
SECTION
  2
OBJECTS
  0
DICTIONARY
  5
C
330
0
100
AcDbDictionary
281
     1
  3
ACAD_GROUP
350
D
  3
ACAD_LAYOUT
350
1A
  3
ACAD_MLINESTYLE
350
17
  3
ACAD_PLOTSETTINGS
350
19
  3
ACAD_PLOTSTYLENAME
350
E
  0
DICTIONARY
  5
D
102
{ACAD_REACTORS
330
C
102
}
330
C
100
AcDbDictionary
281
     1
  0
DICTIONARY
  5
1A
102
{ACAD_REACTORS
330
C
102
}
330
C
100
AcDbDictionary
281
     1
  3
Layout1
350
1E
  3
Layout2
350
26
  3
Model
350
22
  0
DICTIONARY
  5
17
102
{ACAD_REACTORS
330
C
102
}
330
C
100
AcDbDictionary
281
     1
  3
Standard
350
18
  0
DICTIONARY
  5
19
102
{ACAD_REACTORS
330
C
102
}
330
C
100
AcDbDictionary
281
     1
  0
ACDBDICTIONARYWDFLT
  5
E
102
{ACAD_REACTORS
330
C
102
}
330
C
100
AcDbDictionary
281
     1
  3
Normal
350
F
100
AcDbDictionaryWithDefault
340
F
  0
LAYOUT
  5
1E
102
{ACAD_REACTORS
330
1A
102
}
330
1A
100
AcDbPlotSettings
  1

  2
none_device
  4

  6

 40
0.0
 41
0.0
 42
0.0
 43
0.0
 44
0.0
 45
0.0
 46
0.0
 47
0.0
 48
0.0
 49
0.0
140
0.0
141
0.0
142
1.0
143
1.0
 70
   688
 72
     0
 73
     0
 74
     5
  7

 75
    16
147
1.0
148
0.0
149
0.0
100
AcDbLayout
  1
Layout1
 70
     1
 71
     1
 10
0.0
 20
0.0
 11
420.0
 21
297.0
 12
0.0
 22
0.0
 32
0.0
 14
1.0000000000E+20
 24
1.0000000000E+20
 34
1.0000000000E+20
 15
-1.0000000000E+20
 25
-1.0000000000E+20
 35
-1.0000000000E+20
146
0.0
 13
0.0
 23
0.0
 33
0.0
 16
1.0
 26
0.0
 36
0.0
 17
0.0
 27
1.0
 37
0.0
 76
     0
330
1B
  0
LAYOUT
  5
26
102
{ACAD_REACTORS
330
1A
102
}
330
1A
100
AcDbPlotSettings
  1

  2
none_device
  4

  6

 40
0.0
 41
0.0
 42
0.0
 43
0.0
 44
0.0
 45
0.0
 46
0.0
 47
0.0
 48
0.0
 49
0.0
140
0.0
141
0.0
142
1.0
143
1.0
 70
   688
 72
     0
 73
     0
 74
     5
  7

 75
    16
147
1.0
148
0.0
149
0.0
100
AcDbLayout
  1
Layout2
 70
     1
 71
     2
 10
0.0
 20
0.0
 11
0.0
 21
0.0
 12
0.0
 22
0.0
 32
0.0
 14
0.0
 24
0.0
 34
0.0
 15
0.0
 25
0.0
 35
0.0
146
0.0
 13
0.0
 23
0.0
 33
0.0
 16
1.0
 26
0.0
 36
0.0
 17
0.0
 27
1.0
 37
0.0
 76
     0
330
23
  0
LAYOUT
  5
22
102
{ACAD_REACTORS
330
1A
102
}
330
1A
100
AcDbPlotSettings
  1

  2
none_device
  4

  6

 40
0.0
 41
0.0
 42
0.0
 43
0.0
 44
0.0
 45
0.0
 46
0.0
 47
0.0
 48
0.0
 49
0.0
140
0.0
141
0.0
142
1.0
143
1.0
 70
  1712
 72
     0
 73
     0
 74
     0
  7

 75
     0
147
1.0
148
0.0
149
0.0
100
AcDbLayout
  1
Model
 70
     1
 71
     0
 10
0.0
 20
0.0
 11
1189.0
 21
841.0
 12
0.0
 22
0.0
 32
0.0
 14
0.0
 24
0.0
 34
0.0
 15
1189.0
 25
841.0
 35
0.0
146
0.0
 13
0.0
 23
0.0
 33
0.0
 16
1.0
 26
0.0
 36
0.0
 17
0.0
 27
1.0
 37
0.0
 76
     0
330
1F
331
29
  0
MLINESTYLE
  5
18
102
{ACAD_REACTORS
330
17
102
}
330
17
100
AcDbMlineStyle
  2
Standard
 70
     0
  3

 62
   256
 51
90.0
 52
90.0
 71
     2
 49
0.5
 62
   256
  6
BYLAYER
 49
-0.5
 62
   256
  6
BYLAYER
  0
ACDBPLACEHOLDER
  5
F
102
{ACAD_REACTORS
330
E
102
}
330
E
  0
ENDSEC
  0
EOF
