  0
SECTION
  2
HEADER
  9
$ACADVER
  1
AC1021
  9
$ACADMAINTVER
 70
    25
  9
$DWGCODEPAGE
  3
ANSI_1252
  9
$LASTSAVEDBY
  1
Josep Sancho
  9
$INSBASE
 10
0.0
 20
0.0
 30
0.0
  9
$EXTMIN
 10
1.5768713071
 20
4.2956031328
 30
0.0
  9
$EXTMAX
 10
4201.5768713071
 20
5944.2956031328
 30
0.1
  9
$LIMMIN
 10
0.0
 20
0.0
  9
$LIMMAX
 10
4200.0
 20
5940.0
  9
$ORTHOMODE
 70
     0
  9
$REGENMODE
 70
     1
  9
$FILLMODE
 70
     1
  9
$QTEXTMODE
 70
     0
  9
$MIRRTEXT
 70
     1
  9
$LTSCALE
 40
20.0
  9
$ATTMODE
 70
     1
  9
$TEXTSIZE
 40
70.0
  9
$TRACEWID
 40
1.0
  9
$TEXTSTYLE
  7
Standard
  9
$CLAYER
  8
0
  9
$CELTYPE
  6
ByLayer
  9
$CECOLOR
 62
   256
  9
$CELTSCALE
 40
1.0
  9
$DISPSILH
 70
     0
  9
$DIMSCALE
 40
1.0
  9
$DIMASZ
 40
66.04
  9
$DIMEXO
 40
20.0
  9
$DIMDLI
 40
3.75
  9
$DIMRND
 40
0.0
  9
$DIMDLE
 40
0.0
  9
$DIMEXE
 40
20.0
  9
$DIMTP
 40
0.0
  9
$DIMTM
 40
0.0
  9
$DIMTXT
 40
70.0
  9
$DIMCEN
 40
2.5
  9
$DIMTSZ
 40
0.0
  9
$DIMTOL
 70
     0
  9
$DIMLIM
 70
     0
  9
$DIMTIH
 70
     1
  9
$DIMTOH
 70
     1
  9
$DIMSE1
 70
     0
  9
$DIMSE2
 70
     0
  9
$DIMTAD
 70
     1
  9
$DIMZIN
 70
     0
  9
$DIMBLK
  1

  9
$DIMASO
 70
     1
  9
$DIMSHO
 70
     1
  9
$DIMPOST
  1

  9
$DIMAPOST
  1

  9
$DIMALT
 70
     0
  9
$DIMALTD
 70
     3
  9
$DIMALTF
 40
0.0393700787
  9
$DIMLFAC
 40
1.0
  9
$DIMTOFL
 70
     1
  9
$DIMTVP
 40
0.0
  9
$DIMTIX
 70
     0
  9
$DIMSOXD
 70
     0
  9
$DIMSAH
 70
     0
  9
$DIMBLK1
  1

  9
$DIMBLK2
  1

  9
$DIMSTYLE
  2
ISO-25
  9
$DIMCLRD
 70
     0
  9
$DIMCLRE
 70
     0
  9
$DIMCLRT
 70
     0
  9
$DIMTFAC
 40
1.0
  9
$DIMGAP
 40
30.48
  9
$DIMJUST
 70
     0
  9
$DIMSD1
 70
     0
  9
$DIMSD2
 70
     0
  9
$DIMTOLJ
 70
     0
  9
$DIMTZIN
 70
     0
  9
$DIMALTZ
 70
     0
  9
$DIMALTTZ
 70
     0
  9
$DIMUPT
 70
     0
  9
$DIMDEC
 70
     3
  9
$DIMTDEC
 70
     3
  9
$DIMALTU
 70
     2
  9
$DIMALTTD
 70
     3
  9
$DIMTXSTY
  7
Standard
  9
$DIMAUNIT
 70
     0
  9
$DIMADEC
 70
     2
  9
$DIMALTRND
 40
0.0
  9
$DIMAZIN
 70
     0
  9
$DIMDSEP
 70
    44
  9
$DIMATFIT
 70
     3
  9
$DIMFRAC
 70
     0
  9
$DIMLDRBLK
  1

  9
$DIMLUNIT
 70
     2
  9
$DIMLWD
 70
    -2
  9
$DIMLWE
 70
    -2
  9
$DIMTMOVE
 70
     0
  9
$DIMFXL
 40
1.0
  9
$DIMFXLON
 70
     0
  9
$DIMJOGANG
 40
0.7853981633974483
  9
$DIMTFILL
 70
     0
  9
$DIMTFILLCLR
 70
     0
  9
$DIMARCSYM
 70
     0
  9
$DIMLTYPE
  6

  9
$DIMLTEX1
  6

  9
$DIMLTEX2
  6

  9
$LUNITS
 70
     2
  9
$LUPREC
 70
     2
  9
$SKETCHINC
 40
1.0
  9
$FILLETRAD
 40
10.0
  9
$AUNITS
 70
     0
  9
$AUPREC
 70
     2
  9
$MENU
  1
.
  9
$ELEVATION
 40
0.0
  9
$PELEVATION
 40
0.0
  9
$THICKNESS
 40
0.0
  9
$LIMCHECK
 70
     0
  9
$CHAMFERA
 40
10.0
  9
$CHAMFERB
 40
10.0
  9
$CHAMFERC
 40
20.0
  9
$CHAMFERD
 40
0.0
  9
$SKPOLY
 70
     0
  9
$TDCREATE
 40
2453353.800459155
  9
$TDUCREATE
 40
2453353.717125822
  9
$TDUPDATE
 40
2457309.785957662
  9
$TDUUPDATE
 40
2457309.702624329
  9
$TDINDWG
 40
0.0428009375
  9
$TDUSRTIMER
 40
0.0428009375
  9
$USRTIMER
 70
     1
  9
$ANGBASE
 50
0.0
  9
$ANGDIR
 70
     0
  9
$PDMODE
 70
     0
  9
$PDSIZE
 40
-1.0
  9
$PLINEWID
 40
0.0
  9
$SPLFRAME
 70
     0
  9
$SPLINETYPE
 70
     6
  9
$SPLINESEGS
 70
     8
  9
$HANDSEED
  5
1BA
  9
$SURFTAB1
 70
     6
  9
$SURFTAB2
 70
     6
  9
$SURFTYPE
 70
     6
  9
$SURFU
 70
     6
  9
$SURFV
 70
     6
  9
$UCSBASE
  2

  9
$UCSNAME
  2

  9
$UCSORG
 10
0.0
 20
0.0
 30
0.0
  9
$UCSXDIR
 10
1.0
 20
0.0
 30
0.0
  9
$UCSYDIR
 10
0.0
 20
1.0
 30
0.0
  9
$UCSORTHOREF
  2

  9
$UCSORTHOVIEW
 70
     0
  9
$UCSORGTOP
 10
0.0
 20
0.0
 30
0.0
  9
$UCSORGBOTTOM
 10
0.0
 20
0.0
 30
0.0
  9
$UCSORGLEFT
 10
0.0
 20
0.0
 30
0.0
  9
$UCSORGRIGHT
 10
0.0
 20
0.0
 30
0.0
  9
$UCSORGFRONT
 10
0.0
 20
0.0
 30
0.0
  9
$UCSORGBACK
 10
0.0
 20
0.0
 30
0.0
  9
$PUCSBASE
  2

  9
$PUCSNAME
  2

  9
$PUCSORG
 10
0.0
 20
0.0
 30
0.0
  9
$PUCSXDIR
 10
1.0
 20
0.0
 30
0.0
  9
$PUCSYDIR
 10
0.0
 20
1.0
 30
0.0
  9
$PUCSORTHOREF
  2

  9
$PUCSORTHOVIEW
 70
     0
  9
$PUCSORGTOP
 10
0.0
 20
0.0
 30
0.0
  9
$PUCSORGBOTTOM
 10
0.0
 20
0.0
 30
0.0
  9
$PUCSORGLEFT
 10
0.0
 20
0.0
 30
0.0
  9
$PUCSORGRIGHT
 10
0.0
 20
0.0
 30
0.0
  9
$PUCSORGFRONT
 10
0.0
 20
0.0
 30
0.0
  9
$PUCSORGBACK
 10
0.0
 20
0.0
 30
0.0
  9
$USERI1
 70
     0
  9
$USERI2
 70
     0
  9
$USERI3
 70
     0
  9
$USERI4
 70
     0
  9
$USERI5
 70
     0
  9
$USERR1
 40
0.0
  9
$USERR2
 40
0.0
  9
$USERR3
 40
0.0
  9
$USERR4
 40
0.0
  9
$USERR5
 40
0.0
  9
$WORLDVIEW
 70
     1
  9
$SHADEDGE
 70
     3
  9
$SHADEDIF
 70
    70
  9
$TILEMODE
 70
     1
  9
$MAXACTVP
 70
    64
  9
$PINSBASE
 10
0.0
 20
0.0
 30
0.0
  9
$PLIMCHECK
 70
     0
  9
$PEXTMIN
 10
1.000000000000000E+20
 20
1.000000000000000E+20
 30
1.000000000000000E+20
  9
$PEXTMAX
 10
-1.000000000000000E+20
 20
-1.000000000000000E+20
 30
-1.000000000000000E+20
  9
$PLIMMIN
 10
0.0
 20
0.0
  9
$PLIMMAX
 10
420.0
 20
297.0
  9
$UNITMODE
 70
     0
  9
$VISRETAIN
 70
     1
  9
$PLINEGEN
 70
     0
  9
$PSLTSCALE
 70
     1
  9
$TREEDEPTH
 70
  3020
  9
$CMLSTYLE
  2
Standard
  9
$CMLJUST
 70
     0
  9
$CMLSCALE
 40
20.0
  9
$PROXYGRAPHICS
 70
     1
  9
$MEASUREMENT
 70
     1
  9
$CELWEIGHT
370
    -1
  9
$ENDCAPS
280
     0
  9
$JOINSTYLE
280
     0
  9
$LWDISPLAY
290
     1
  9
$INSUNITS
 70
     4
  9
$HYPERLINKBASE
  1

  9
$STYLESHEET
  1

  9
$XEDIT
290
     0
  9
$CEPSNTYPE
380
     0
  9
$PSTYLEMODE
290
     1
  9
$FINGERPRINTGUID
  2
{D0320270-5CCA-49BD-9A21-74CFD134C191}
  9
$VERSIONGUID
  2
{FAEB1C32-E019-11D5-929B-00C0DF256EC4}
  9
$EXTNAMES
290
     1
  9
$PSVPSCALE
 40
0.0
  9
$OLESTARTUP
290
     0
  9
$SORTENTS
280
   127
  9
$INDEXCTL
280
     0
  9
$HIDETEXT
280
     1
  9
$XCLIPFRAME
290
     0
  9
$HALOGAP
280
     0
  9
$OBSCOLOR
 70
   257
  9
$OBSLTYPE
280
     0
  9
$INTERSECTIONDISPLAY
280
     0
  9
$INTERSECTIONCOLOR
 70
   257
  9
$DIMASSOC
280
     2
  9
$PROJECTNAME
  1

  9
$CAMERADISPLAY
290
     0
  9
$LENSLENGTH
 40
50.0
  9
$CAMERAHEIGHT
 40
0.0
  9
$STEPSPERSEC
 40
2.0
  9
$STEPSIZE
 40
6.0
  9
$3DDWFPREC
 40
2.0
  9
$PSOLWIDTH
 40
0.25
  9
$PSOLHEIGHT
 40
4.0
  9
$LOFTANG1
 40
1.570796326794897
  9
$LOFTANG2
 40
1.570796326794897
  9
$LOFTMAG1
 40
0.0
  9
$LOFTMAG2
 40
0.0
  9
$LOFTPARAM
 70
     7
  9
$LOFTNORMALS
280
     1
  9
$LATITUDE
 40
37.795
  9
$LONGITUDE
 40
-122.394
  9
$NORTHDIRECTION
 40
0.0
  9
$TIMEZONE
 70
 -8000
  9
$LIGHTGLYPHDISPLAY
280
     1
  9
$TILEMODELIGHTSYNCH
280
     1
  9
$SOLIDHIST
280
     1
  9
$SHOWHIST
280
     1
  9
$DWFFRAME
280
     2
  9
$DGNFRAME
280
     2
  9
$REALWORLDSCALE
290
     1
  9
$INTERFERECOLOR
 62
   256
  9
$CSHADOW
280
     0
  9
$SHADOWPLANELOCATION
 40
0.0
  0
ENDSEC
  0
SECTION
  2
CLASSES
  0
CLASS
  1
ACDBDICTIONARYWDFLT
  2
AcDbDictionaryWithDefault
  3
ObjectDBX Classes
 90
        0
 91
        4
280
     0
281
     0
  0
CLASS
  1
ACDBPLACEHOLDER
  2
AcDbPlaceHolder
  3
ObjectDBX Classes
 90
        0
 91
        1
280
     0
281
     0
  0
CLASS
  1
LAYOUT
  2
AcDbLayout
  3
ObjectDBX Classes
 90
        0
 91
        1
280
     0
281
     0
  0
CLASS
  1
DICTIONARYVAR
  2
AcDbDictionaryVar
  3
ObjectDBX Classes
 90
        0
 91
        4
280
     0
281
     0
  0
CLASS
  1
TABLESTYLE
  2
AcDbTableStyle
  3
ObjectDBX Classes
 90
     4095
 91
        4
280
     0
281
     0
  0
CLASS
  1
SCALE
  2
AcDbScale
  3
ObjectDBX Classes
 90
     1153
 91
        4
280
     0
281
     0
  0
ENDSEC
  0
SECTION
  2
TABLES
  0
TABLE
  2
VPORT
  5
8
330
0
100
AcDbSymbolTable
 70
     2
  0
VPORT
  5
97
330
8
100
AcDbSymbolTableRecord
100
AcDbViewportTableRecord
  2
*Active
 70
     0
 10
0.0
 20
0.0
 11
1.0
 21
1.0
 12
1906.362010307137
 22
2940.322760049638
 13
0.0
 23
0.0
 14
10.0
 24
10.0
 15
10.0
 25
10.0
 16
0.0
 26
0.0
 36
1.0
 17
0.0
 27
0.0
 37
0.0
 40
3501.834309577642
 41
0.7070707071
 42
50.0
 43
0.0
 44
0.0
 50
0.0
 51
0.0
 71
    16
 72
  2000
 73
     1
 74
     3
 75
     0
 76
     0
 77
     0
 78
     0
281
     0
 65
     0
110
0.0
120
0.0
130
0.0
111
1.0
121
0.0
131
0.0
112
0.0
122
1.0
132
0.0
 79
     0
146
0.0
 60
     3
 61
     5
292
     1
282
     1
141
0.0
142
0.0
 63
   256
  0
ENDTAB
  0
TABLE
  2
LTYPE
  5
5
330
0
100
AcDbSymbolTable
 70
     6
  0
LTYPE
  5
14
330
5
100
AcDbSymbolTableRecord
100
AcDbLinetypeTableRecord
  2
ByBlock
 70
     0
  3

 72
    65
 73
     0
 40
0.0
  0
LTYPE
  5
15
330
5
100
AcDbSymbolTableRecord
100
AcDbLinetypeTableRecord
  2
ByLayer
 70
     0
  3

 72
    65
 73
     0
 40
0.0
  0
LTYPE
  5
16
330
5
100
AcDbSymbolTableRecord
100
AcDbLinetypeTableRecord
  2
Continuous
 70
     0
  3
Solid line
 72
    65
 73
     0
 40
0.0
  0
LTYPE
  5
181
330
5
100
AcDbSymbolTableRecord
100
AcDbLinetypeTableRecord
  2
HIDDEN
 70
     0
  3
Hidden __ __ __ __ __ __ __ __ __ __ __ __ __ __
 72
    65
 73
     2
 40
1.905
 49
1.27
 74
     4
 75
     0
340
0
 46
1.0
 50
0.0
 44
0.0
 45
0.0
 49
-0.635
 74
     4
 75
     0
340
0
 46
1.0
 50
0.0
 44
0.0
 45
0.0
  0
LTYPE
  5
182
330
5
100
AcDbSymbolTableRecord
100
AcDbLinetypeTableRecord
  2
PHANTOM
 70
     0
  3
Phantom ______  __  __  ______  __  __  ______
 72
    65
 73
     6
 40
12.7
 49
6.35
 74
     4
 75
     0
340
0
 46
1.0
 50
0.0
 44
0.0
 45
0.0
 49
-1.27
 74
     4
 75
     0
340
0
 46
1.0
 50
0.0
 44
0.0
 45
0.0
 49
1.27
 74
     4
 75
     0
340
0
 46
1.0
 50
0.0
 44
0.0
 45
0.0
 49
-1.27
 74
     4
 75
     0
340
0
 46
1.0
 50
0.0
 44
0.0
 45
0.0
 49
1.27
 74
     4
 75
     0
340
0
 46
1.0
 50
0.0
 44
0.0
 45
0.0
 49
-1.27
 74
     4
 75
     0
340
0
 46
1.0
 50
0.0
 44
0.0
 45
0.0
  0
LTYPE
  5
183
330
5
100
AcDbSymbolTableRecord
100
AcDbLinetypeTableRecord
  2
CENTER
 70
     0
  3
Center ____ _ ____ _ ____ _ ____ _ ____ _ ____
 72
    65
 73
     4
 40
10.16
 49
6.35
 74
     4
 75
     0
340
0
 46
1.0
 50
0.0
 44
0.0
 45
0.0
 49
-1.27
 74
     4
 75
     0
340
0
 46
1.0
 50
0.0
 44
0.0
 45
0.0
 49
1.27
 74
     4
 75
     0
340
0
 46
1.0
 50
0.0
 44
0.0
 45
0.0
 49
-1.27
 74
     4
 75
     0
340
0
 46
1.0
 50
0.0
 44
0.0
 45
0.0
  0
LTYPE
  5
184
330
5
100
AcDbSymbolTableRecord
100
AcDbLinetypeTableRecord
  2
CENTERX2
 70
     0
  3
Center (2x) ________  __  ________  __  _____
 72
    65
 73
     4
 40
20.32
 49
12.7
 74
     4
 75
     0
340
0
 46
1.0
 50
0.0
 44
0.0
 45
0.0
 49
-2.54
 74
     4
 75
     0
340
0
 46
1.0
 50
0.0
 44
0.0
 45
0.0
 49
2.54
 74
     4
 75
     0
340
0
 46
1.0
 50
0.0
 44
0.0
 45
0.0
 49
-2.54
 74
     4
 75
     0
340
0
 46
1.0
 50
0.0
 44
0.0
 45
0.0
  0
LTYPE
  5
185
330
5
100
AcDbSymbolTableRecord
100
AcDbLinetypeTableRecord
  2
DOT2
 70
     0
  3
Dot (.5x) ........................................
 72
    65
 73
     2
 40
0.635
 49
0.0
 74
     4
 75
     0
340
0
 46
1.0
 50
0.0
 44
0.0
 45
0.0
 49
-0.635
 74
     4
 75
     0
340
0
 46
1.0
 50
0.0
 44
0.0
 45
0.0
  0
ENDTAB
  0
TABLE
  2
LAYER
  5
2
330
0
100
AcDbSymbolTable
 70
     3
  0
LAYER
  5
10
330
2
100
AcDbSymbolTableRecord
100
AcDbLayerTableRecord
  2
0
 70
     0
 62
     7
  6
Continuous
370
    -3
390
F
347
0
  0
LAYER
  5
44
330
2
100
AcDbSymbolTableRecord
100
AcDbLayerTableRecord
  2
FORMAT
 70
     0
 62
     7
  6
Continuous
370
    -3
390
F
347
0
  0
LAYER
  5
172
330
2
100
AcDbSymbolTableRecord
100
AcDbLayerTableRecord
  2
DEFPOINTS
 70
     0
 62
     7
  6
Continuous
290
     0
370
    -3
390
F
347
0
  0
ENDTAB
  0
TABLE
  2
STYLE
  5
3
330
0
100
AcDbSymbolTable
 70
     3
  0
STYLE
  5
11
330
3
100
AcDbSymbolTableRecord
100
AcDbTextStyleTableRecord
  2
Standard
 70
     0
 40
0.0
 41
1.0
 50
0.0
 71
     0
 42
70.0
  3
txt
  4

  0
STYLE
  5
68
330
3
100
AcDbSymbolTableRecord
100
AcDbTextStyleTableRecord
  2
SLDTEXTSTYLE0
 70
     0
 40
0.0
 41
0.75
 50
0.0
 71
     0
 42
0.2
  3
TXT
  4

  0
STYLE
  5
180
330
3
100
AcDbSymbolTableRecord
100
AcDbTextStyleTableRecord
  2
SLDTEXTSTYLE1
 70
     0
 40
0.0
 41
0.6818181818
 50
0.0
 71
     0
 42
0.2
  3
TXT
  4

  0
ENDTAB
  0
TABLE
  2
VIEW
  5
6
330
0
100
AcDbSymbolTable
 70
     0
  0
ENDTAB
  0
TABLE
  2
UCS
  5
7
330
0
100
AcDbSymbolTable
 70
     0
  0
ENDTAB
  0
TABLE
  2
APPID
  5
9
330
0
100
AcDbSymbolTable
 70
     1
  0
APPID
  5
12
330
9
100
AcDbSymbolTableRecord
100
AcDbRegAppTableRecord
  2
ACAD
 70
     0
  0
ENDTAB
  0
TABLE
  2
DIMSTYLE
  5
A
330
0
100
AcDbSymbolTable
 70
     4
100
AcDbDimStyleTable
  0
DIMSTYLE
105
27
330
A
100
AcDbSymbolTableRecord
100
AcDbDimStyleTableRecord
  2
Standard
 70
     0
278
     0
340
11
  0
DIMSTYLE
105
186
330
A
100
AcDbSymbolTableRecord
100
AcDbDimStyleTableRecord
  2
ISO-25
 70
     0
 41
2.5
 42
0.625
 43
3.75
 44
1.25
 73
     0
 74
     0
 77
     1
 78
     8
140
2.5
141
2.5
143
0.0393700787
147
0.625
171
     3
172
     1
271
     2
272
     2
274
     3
278
    44
283
     0
284
     8
340
11
  0
DIMSTYLE
105
129
102
{ACAD_REACTORS
330
128
330
133
102
}
330
A
100
AcDbSymbolTableRecord
100
AcDbDimStyleTableRecord
  2
SLDDIMSTYLE0
 70
     0
 41
66.04
 44
0.0
 45
0.000000001
 73
     0
 74
     0
 77
     1
 78
    12
 79
     3
140
70.0
147
17.5
173
     1
271
     3
272
     3
276
     2
284
    12
340
68
  0
DIMSTYLE
105
13E
102
{ACAD_REACTORS
330
13D
102
}
330
A
100
AcDbSymbolTableRecord
100
AcDbDimStyleTableRecord
  2
SLDDIMSTYLE1
 70
     0
 41
66.04
 44
0.0
 45
0.000000001
 73
     0
 74
     0
 77
     1
 78
    12
 79
     3
140
70.0
147
17.5
172
     1
173
     1
271
     3
272
     3
276
     2
284
    12
289
     0
340
68
  0
ENDTAB
  0
TABLE
  2
BLOCK_RECORD
  5
1
330
0
100
AcDbSymbolTable
 70
     7
  0
BLOCK_RECORD
  5
1F
102
{ACAD_XDICTIONARY
360
1B7
102
}
330
1
100
AcDbSymbolTableRecord
100
AcDbBlockTableRecord
  2
*Model_Space
340
22
 70
     0
280
     1
281
     0
  0
BLOCK_RECORD
  5
73
330
1
100
AcDbSymbolTableRecord
100
AcDbBlockTableRecord
  2
*Paper_Space
340
74
 70
     0
280
     1
281
     0
  0
BLOCK_RECORD
  5
23
330
1
100
AcDbSymbolTableRecord
100
AcDbBlockTableRecord
  2
*Paper_Space0
340
26
 70
     0
280
     1
281
     0
  0
BLOCK_RECORD
  5
77
330
1
100
AcDbSymbolTableRecord
100
AcDbBlockTableRecord
  2
SW_NOTE_0
340
0
 70
     0
280
     1
281
     0
  0
BLOCK_RECORD
  5
7F
330
1
100
AcDbSymbolTableRecord
100
AcDbBlockTableRecord
  2
SW_NOTE_1
340
0
 70
     0
280
     1
281
     0
  0
BLOCK_RECORD
  5
12A
330
1
100
AcDbSymbolTableRecord
100
AcDbBlockTableRecord
  2
_D
340
0
 70
     0
280
     1
281
     0
  0
BLOCK_RECORD
  5
134
330
1
100
AcDbSymbolTableRecord
100
AcDbBlockTableRecord
  2
_D_1
340
0
 70
     0
280
     1
281
     0
  0
BLOCK_RECORD
  5
13F
330
1
100
AcDbSymbolTableRecord
100
AcDbBlockTableRecord
  2
_D_2
340
0
 70
     0
280
     1
281
     0
  0
BLOCK_RECORD
  5
17E
330
1
100
AcDbSymbolTableRecord
100
AcDbBlockTableRecord
  2
*D6
340
0
 70
     0
280
     1
281
     0
  0
ENDTAB
  0
ENDSEC
  0
SECTION
  2
BLOCKS
  0
BLOCK
  5
20
330
1F
100
AcDbEntity
  8
0
100
AcDbBlockBegin
  2
*Model_Space
 70
     0
 10
0.0
 20
0.0
 30
0.0
  3
*Model_Space
  1

  0
ENDBLK
  5
21
330
1F
100
AcDbEntity
  8
0
100
AcDbBlockEnd
  0
BLOCK
  5
75
330
73
100
AcDbEntity
 67
     1
  8
0
100
AcDbBlockBegin
  2
*Paper_Space
 70
     0
 10
0.0
 20
0.0
 30
0.0
  3
*Paper_Space
  1

  0
ENDBLK
  5
76
330
73
100
AcDbEntity
 67
     1
  8
0
100
AcDbBlockEnd
  0
BLOCK
  5
187
330
23
100
AcDbEntity
  8
0
100
AcDbBlockBegin
  2
*Paper_Space0
 70
     0
 10
0.0
 20
0.0
 30
0.0
  3
*Paper_Space0
  1

  0
ENDBLK
  5
188
330
23
100
AcDbEntity
  8
0
100
AcDbBlockEnd
  0
BLOCK
  5
189
330
77
100
AcDbEntity
  8
0
100
AcDbBlockBegin
  2
SW_NOTE_0
 70
     0
 10
0.0
 20
0.0
 30
0.0
  3
SW_NOTE_0
  1

  0
MTEXT
  5
7A
330
77
100
AcDbEntity
  8
0
  6
Continuous
 62
     0
370
     0
100
AcDbMText
 10
0.0
 20
38.6720321932
 30
0.0
 40
30.0
 41
0.0
 46
0.0
 71
     1
 72
     1
  1
REBARBAR Y
  7
SLDTEXTSTYLE0
 73
     1
 44
1.0
  0
MTEXT
  5
7B
330
77
100
AcDbEntity
  8
0
  6
Continuous
 62
     0
370
     0
100
AcDbMText
 10
0.0
 20
-11.3279666893
 30
0.0
 40
30.0
 41
0.0
 46
0.0
 71
     1
 72
     1
  1
ROMPER ARISTAS
  7
SLDTEXTSTYLE0
 73
     1
 44
1.0
  0
MTEXT
  5
7C
330
77
100
AcDbEntity
  8
0
  6
Continuous
 62
     0
370
     0
100
AcDbMText
 10
0.0
 20
-61.3279655717
 30
0.0
 40
30.0
 41
0.0
 46
0.0
 71
     1
 72
     1
  1
VIVAS
  7
SLDTEXTSTYLE0
 73
     1
 44
1.0
  0
ENDBLK
  5
18A
330
77
100
AcDbEntity
  8
0
100
AcDbBlockEnd
  0
BLOCK
  5
18B
330
7F
100
AcDbEntity
  8
0
100
AcDbBlockBegin
  2
SW_NOTE_1
 70
     0
 10
0.0
 20
0.0
 30
0.0
  3
SW_NOTE_1
  1

  0
MTEXT
  5
82
330
7F
100
AcDbEntity
  8
0
  6
Continuous
 62
     0
370
     0
100
AcDbMText
 10
0.0
 20
38.6720321932
 30
0.0
 40
30.0
 41
0.0
 46
0.0
 71
     1
 72
     1
  1
SI NO SE INDICA LO CONTRARIO:
  7
SLDTEXTSTYLE0
 73
     1
 44
1.0
  0
MTEXT
  5
83
330
7F
100
AcDbEntity
  8
0
  6
Continuous
 62
     0
370
     0
100
AcDbMText
 10
0.0
 20
-11.3279666893
 30
0.0
 40
30.0
 41
0.0
 46
0.0
 71
     1
 72
     1
  1
LAS COTAS SE EXPRESAN EN MM
  7
SLDTEXTSTYLE0
 73
     1
 44
1.0
  0
MTEXT
  5
84
330
7F
100
AcDbEntity
  8
0
  6
Continuous
 62
     0
370
     0
100
AcDbMText
 10
0.0
 20
-61.3279655717
 30
0.0
 40
30.0
 41
0.0
 46
0.0
 71
     1
 72
     1
  1
ACABADO SUPERFICIAL:
  7
SLDTEXTSTYLE0
 73
     1
 44
1.0
  0
MTEXT
  5
85
330
7F
100
AcDbEntity
  8
0
  6
Continuous
 62
     0
370
     0
100
AcDbMText
 10
0.0
 20
-111.3279644541
 30
0.0
 40
30.0
 41
0.0
 46
0.0
 71
     1
 72
     1
  1
TOLERANCIAS:
  7
SLDTEXTSTYLE0
 73
     1
 44
1.0
  0
MTEXT
  5
86
330
7F
100
AcDbEntity
  8
0
  6
Continuous
 62
     0
370
     0
100
AcDbMText
 10
33.75
 20
-161.3279633365
 30
0.0
 40
30.0
 41
0.0
 46
0.0
 71
     1
 72
     1
  1
LINEAL:
  7
SLDTEXTSTYLE0
 73
     1
 44
1.0
  0
MTEXT
  5
87
330
7F
100
AcDbEntity
  8
0
  6
Continuous
 62
     0
370
     0
100
AcDbMText
 10
33.75
 20
-211.3279622189
 30
0.0
 40
30.0
 41
0.0
 46
0.0
 71
     1
 72
     1
  1
ANGULAR:
  7
SLDTEXTSTYLE0
 73
     1
 44
1.0
  0
ENDBLK
  5
18C
330
7F
100
AcDbEntity
  8
0
100
AcDbBlockEnd
  0
BLOCK
  5
18D
330
12A
100
AcDbEntity
  8
0
100
AcDbBlockBegin
  2
_D
 70
     0
 10
0.0
 20
0.0
 30
0.0
  3
_D
  1

  0
SOLID
  5
12D
330
12A
100
AcDbEntity
  8
0
  6
Continuous
 62
     7
370
     0
100
AcDbTrace
 10
2424.4437290033
 20
3235.0379693621
 30
0.0
 11
2414.2837290033
 21
3168.9979693621
 31
0.0
 12
2434.6037290033
 22
3168.9979693621
 32
0.0
 13
2434.6037290033
 23
3168.9979693621
 33
0.0
  0
SOLID
  5
12E
330
12A
100
AcDbEntity
  8
0
  6
Continuous
 62
     7
370
     0
100
AcDbTrace
 10
2424.4437290033
 20
1715.0379693621
 30
0.0
 11
2434.6037290033
 21
1781.0779693621
 31
0.0
 12
2414.2837290033
 22
1781.0779693621
 32
0.0
 13
2414.2837290033
 23
1781.0779693621
 33
0.0
  0
LINE
  5
12F
330
12A
100
AcDbEntity
  8
0
  6
Continuous
 62
     7
370
     0
100
AcDbLine
 10
2233.5587206863
 20
3235.0379693621
 30
0.0
 11
2444.4437290033
 21
3235.0379693621
 31
0.0
  0
LINE
  5
130
330
12A
100
AcDbEntity
  8
0
  6
Continuous
 62
     7
370
     0
100
AcDbLine
 10
2243.3437318963
 20
1715.0379693621
 30
0.0
 11
2444.4437290033
 21
1715.0379693621
 31
0.0
  0
LINE
  5
131
330
12A
100
AcDbEntity
  8
0
  6
Continuous
 62
     7
370
     0
100
AcDbLine
 10
2424.4437290033
 20
3235.0379693621
 30
0.0
 11
2424.4437290033
 21
1715.0379693621
 31
0.0
  0
MTEXT
  5
132
330
12A
100
AcDbEntity
  8
0
  6
Continuous
 62
     7
370
     0
100
AcDbMText
 10
2334.2089907117
 20
2350.0390853623
 30
0.1
 40
70.0
 41
0.0
 46
0.0
 71
     1
 72
     1
  1
1520
  7
SLDTEXTSTYLE0
 11
-7.044195017643634E-15
 21
1.0
 31
0.0
 73
     1
 44
1.0
  0
ENDBLK
  5
18E
330
12A
100
AcDbEntity
  8
0
100
AcDbBlockEnd
  0
BLOCK
  5
18F
330
134
100
AcDbEntity
  8
0
100
AcDbBlockBegin
  2
_D_1
 70
     0
 10
0.0
 20
0.0
 30
0.0
  3
_D_1
  1

  0
SOLID
  5
137
330
134
100
AcDbEntity
  8
0
  6
Continuous
 62
     7
370
     0
100
AcDbTrace
 10
2424.4437290033
 20
3235.0379693621
 30
0.0
 11
2434.6037290033
 21
3301.0779693621
 31
0.0
 12
2414.2837290033
 22
3301.0779693621
 32
0.0
 13
2414.2837290033
 23
3301.0779693621
 33
0.0
  0
SOLID
  5
138
330
134
100
AcDbEntity
  8
0
  6
Continuous
 62
     7
370
     0
100
AcDbTrace
 10
2424.4437290033
 20
4251.2462831833
 30
0.0
 11
2414.2837290033
 21
4185.2062831833
 31
0.0
 12
2434.6037290033
 22
4185.2062831833
 32
0.0
 13
2434.6037290033
 23
4185.2062831833
 33
0.0
  0
LINE
  5
139
330
134
100
AcDbEntity
  8
0
  6
Continuous
 62
     7
370
     0
100
AcDbLine
 10
2233.5587206863
 20
3235.0379693621
 30
0.0
 11
2444.4437290033
 21
3235.0379693621
 31
0.0
  0
LINE
  5
13A
330
134
100
AcDbEntity
  8
0
  6
Continuous
 62
     7
370
     0
100
AcDbLine
 10
2231.3437290033
 20
4251.2462831833
 30
0.0
 11
2444.4437290033
 21
4251.2462831833
 31
0.0
  0
LINE
  5
13B
330
134
100
AcDbEntity
  8
0
  6
Continuous
 62
     7
370
     0
100
AcDbLine
 10
2424.4437290033
 20
3235.0379693621
 30
0.0
 11
2424.4437290033
 21
4251.2462831833
 31
0.0
  0
MTEXT
  5
13C
330
134
100
AcDbEntity
  8
0
  6
Continuous
 62
     7
370
     0
100
AcDbMText
 10
2334.2089907117
 20
3626.5911844612
 30
0.1
 40
70.0
 41
0.0
 46
0.0
 71
     1
 72
     1
  1
2500
  7
SLDTEXTSTYLE0
 11
6.123233995736766E-17
 21
1.0
 31
0.0
 73
     1
 44
1.0
  0
ENDBLK
  5
190
330
134
100
AcDbEntity
  8
0
100
AcDbBlockEnd
  0
BLOCK
  5
191
330
13F
100
AcDbEntity
  8
0
100
AcDbBlockBegin
  2
_D_2
 70
     0
 10
0.0
 20
0.0
 30
0.0
  3
_D_2
  1

  0
SOLID
  5
142
330
13F
100
AcDbEntity
  8
0
  6
Continuous
 62
     7
370
     0
100
AcDbTrace
 10
2094.3437290033
 20
4458.866080171
 30
0.0
 11
2028.3037290033
 21
4469.026080171
 31
0.0
 12
2028.3037290033
 22
4448.706080171
 32
0.0
 13
2028.3037290033
 23
4448.706080171
 33
0.0
  0
SOLID
  5
143
330
13F
100
AcDbEntity
  8
0
  6
Continuous
 62
     7
370
     0
100
AcDbTrace
 10
2214.3437290033
 20
4458.866080171
 30
0.0
 11
2280.3837290033
 21
4448.706080171
 31
0.0
 12
2280.3837290033
 22
4469.026080171
 32
0.0
 13
2280.3837290033
 23
4469.026080171
 33
0.0
  0
LINE
  5
144
330
13F
100
AcDbEntity
  8
0
  6
Continuous
 62
     7
370
     0
100
AcDbLine
 10
2094.3437290033
 20
4319.2462831833
 30
0.0
 11
2094.3437290033
 21
4478.866080171
 31
0.0
  0
LINE
  5
145
330
13F
100
AcDbEntity
  8
0
  6
Continuous
 62
     7
370
     0
100
AcDbLine
 10
2214.3437290033
 20
4319.2462831833
 30
0.0
 11
2214.3437290033
 21
4478.866080171
 31
0.0
  0
LINE
  5
146
330
13F
100
AcDbEntity
  8
0
  6
Continuous
 62
     7
370
     0
100
AcDbLine
 10
2094.3437290033
 20
4458.866080171
 30
0.0
 11
1967.3437290033
 21
4458.866080171
 31
0.0
  0
LINE
  5
147
330
13F
100
AcDbEntity
  8
0
  6
Continuous
 62
     7
370
     0
100
AcDbLine
 10
2094.3437290033
 20
4458.866080171
 30
0.0
 11
2214.3437290033
 21
4458.866080171
 31
0.0
  0
LINE
  5
148
330
13F
100
AcDbEntity
  8
0
  6
Continuous
 62
     7
370
     0
100
AcDbLine
 10
2214.3437290033
 20
4458.866080171
 30
0.0
 11
2341.3437290033
 21
4458.866080171
 31
0.0
  0
MTEXT
  5
149
330
13F
100
AcDbEntity
  8
0
  6
Continuous
 62
     7
370
     0
100
AcDbMText
 10
1977.8831012004
 20
4549.1008219551
 30
0.1
 40
70.0
 41
0.0
 46
0.0
 71
     1
 72
     1
  1
%%c
  7
SLDTEXTSTYLE0
 73
     1
 44
1.0
  0
MTEXT
  5
14A
330
13F
100
AcDbEntity
  8
0
  6
Continuous
 62
     7
370
     0
100
AcDbMText
 10
2083.4518491679
 20
4550.1702654883
 30
0.1
 40
70.0
 41
0.0
 46
0.0
 71
     1
 72
     1
  1
120
  7
SLDTEXTSTYLE0
 73
     1
 44
1.0
  0
ENDBLK
  5
192
330
13F
100
AcDbEntity
  8
0
100
AcDbBlockEnd
  0
BLOCK
  5
193
330
17E
100
AcDbEntity
  8
0
100
AcDbBlockBegin
  2
*D6
 70
     1
 10
0.0
 20
0.0
 30
0.0
  3
*D6
  1

  0
POINT
  5
174
330
17E
100
AcDbEntity
  8
DEFPOINTS
  6
ByBlock
 62
     0
100
AcDbPoint
 10
2094.3437290033
 20
4299.2462831833
 30
0.0
  0
POINT
  5
175
330
17E
100
AcDbEntity
  8
DEFPOINTS
  6
ByBlock
 62
     0
100
AcDbPoint
 10
2214.3437290033
 20
4299.2462831833
 30
0.0
  0
LINE
  5
176
330
17E
100
AcDbEntity
  8
0
  6
ByBlock
 62
     0
370
    -2
100
AcDbLine
 10
2094.3437290033
 20
4299.3087831833
 30
0.0
 11
2094.3437290033
 21
4463.493146525657
 31
0.0
  0
LINE
  5
177
330
17E
100
AcDbEntity
  8
0
  6
ByBlock
 62
     0
370
    -2
100
AcDbLine
 10
2214.3437290033
 20
4299.3087831833
 30
0.0
 11
2214.3437290033
 21
4463.493146525657
 31
0.0
  0
LINE
  5
178
330
17E
100
AcDbEntity
  8
0
  6
ByBlock
 62
     0
370
    -2
100
AcDbLine
 10
2028.3037290033
 20
4463.493146525657
 30
0.0
 11
1962.2637290033
 21
4463.493146525657
 31
0.0
  0
SOLID
  5
179
330
17E
100
AcDbEntity
  8
0
  6
ByBlock
 62
     0
100
AcDbTrace
 10
2094.3437290033
 20
4463.493146525657
 30
0.0
 11
2028.3037290033
 21
4452.486479858988
 31
0.0
 12
2028.3037290033
 22
4474.499813192326
 32
0.0
 13
2028.3037290033
 23
4474.499813192326
 33
0.0
  0
LINE
  5
17A
330
17E
100
AcDbEntity
  8
0
  6
ByBlock
 62
     0
370
    -2
100
AcDbLine
 10
2280.3837290033
 20
4463.493146525657
 30
0.0
 11
2346.4237290033
 21
4463.493146525657
 31
0.0
  0
SOLID
  5
17B
330
17E
100
AcDbEntity
  8
0
  6
ByBlock
 62
     0
100
AcDbTrace
 10
2214.3437290033
 20
4463.493146525657
 30
0.0
 11
2280.3837290033
 21
4452.486479858988
 31
0.0
 12
2280.3837290033
 22
4474.499813192326
 32
0.0
 13
2280.3837290033
 23
4474.499813192326
 33
0.0
  0
MTEXT
  5
17C
330
17E
100
AcDbEntity
  8
0
  6
ByBlock
 62
     0
370
     0
100
AcDbMText
 10
2154.3437290033
 20
4515.993146525657
 30
0.0
 40
70.0
 41
0.0
 46
0.0
 71
     5
 72
     1
  1
%%c120
  7
SLDTEXTSTYLE0
 73
     1
 44
1.0
  0
ENDBLK
  5
194
330
17E
100
AcDbEntity
  8
0
100
AcDbBlockEnd
  0
ENDSEC
  0
SECTION
  2
ENTITIES
  0
LINE
  5
8E
330
1F
100
AcDbEntity
  8
0
  6
Continuous
 62
     7
370
    15
100
AcDbLine
 10
2154.968729644
 20
3234.7747505675
 30
0.0
 11
2154.968729644
 21
4251.2462557326
 31
0.0
  0
LINE
  5
91
330
1F
100
AcDbEntity
  8
0
  6
Continuous
 62
     7
370
    15
100
AcDbLine
 10
2153.7187289734
 20
4251.2462557326
 30
0.0
 11
2153.7187289734
 21
3234.7747505675
 31
0.0
  0
LINE
  5
195
330
1F
100
AcDbEntity
  8
0
  6
Continuous
 62
     7
370
    15
100
AcDbLine
 10
2159.8437283476
 20
4243.2462395201
 30
0.0
 11
2159.8437283476
 21
4243.7463224898
 31
0.0
  0
LINE
  5
196
330
1F
100
AcDbEntity
  8
0
  6
Continuous
 62
     7
370
    15
100
AcDbLine
 10
2148.8437284072
 20
4243.7463224898
 30
0.0
 11
2148.8437284072
 21
4243.2462395201
 31
0.0
  0
LINE
  5
94
330
1F
100
AcDbEntity
  8
0
  6
Continuous
 62
     7
370
    15
100
AcDbLine
 10
2145.3437287648
 20
4245.7462967406
 30
0.0
 11
2148.4687295099
 21
4243.7463224898
 31
0.0
  0
LINE
  5
95
330
1F
100
AcDbEntity
  8
0
  6
Continuous
 62
     7
370
    15
100
AcDbLine
 10
2160.2187291075
 20
4243.7463224898
 30
0.0
 11
2163.3437298526
 21
4245.7462967406
 31
0.0
  0
LINE
  5
96
330
1F
100
AcDbEntity
  8
0
  6
Continuous
 62
     7
370
    15
100
AcDbLine
 10
2145.3437287648
 20
4251.2462557326
 30
0.0
 11
2145.3437287648
 21
4245.7462967406
 31
0.0
  0
LINE
  5
197
330
1F
100
AcDbEntity
  8
0
  6
Continuous
 62
     7
370
    15
100
AcDbLine
 10
2163.3437298526
 20
4245.7462967406
 30
0.0
 11
2163.3437298526
 21
4251.2462557326
 31
0.0
  0
ARC
  5
198
330
1F
100
AcDbEntity
  8
0
  6
Continuous
 62
     7
370
    15
100
AcDbCircle
 10
2097.3437290033
 20
4254.2462831833
 30
0.0
 40
3.0
100
AcDbArc
 50
180.0
 51
270.0
  0
ARC
  5
199
330
1F
100
AcDbEntity
  8
0
  6
Continuous
 62
     7
370
    15
100
AcDbCircle
 10
2211.3437290033
 20
4254.2462831833
 30
0.0
 40
3.0
100
AcDbArc
 50
270.0
 51
0.0
  0
LINE
  5
19A
330
1F
100
AcDbEntity
  8
0
  6
Continuous
 62
     7
370
    15
100
AcDbLine
 10
2094.3437297185
 20
4299.2462337981
 30
0.0
 11
2094.3437297185
 21
4254.2462767134
 31
0.0
  0
LINE
  5
19B
330
1F
100
AcDbEntity
  8
0
  6
Continuous
 62
     7
370
    15
100
AcDbLine
 10
2214.3437288989
 20
4254.2462767134
 30
0.0
 11
2214.3437288989
 21
4299.2462337981
 31
0.0
  0
SPLINE
  5
19C
330
1F
100
AcDbEntity
  8
0
  6
Continuous
 62
     7
370
    15
100
AcDbSpline
210
0.0
220
0.0
230
1.0
 70
     8
 71
     3
 72
    38
 73
    34
 74
     0
 42
0.00000001
 43
0.00000001
 40
0.0
 40
0.0
 40
0.0
 40
0.0
 40
0.0098701330301151
 40
0.0270941065753144
 40
0.0433029000348754
 40
0.058537905326678
 40
0.0728378000318776
 40
0.0862385487813777
 40
0.0987736987848524
 40
0.1133517222918318
 40
0.1266675666670845
 40
0.1387724777014941
 40
0.1497128142756535
 40
0.1595299905276231
 40
0.1871749681049631
 40
0.2155919391600272
 40
0.2446403863603249
 40
0.3233547773647816
 40
0.4020009270363823
 40
0.4487896295830146
 40
0.4955397829448567
 40
0.54226905019552
 40
0.5889755900691467
 40
0.6356554150354456
 40
0.6823136177757991
 40
0.7222893877926964
 40
0.7623214238094325
 40
0.8025366470656968
 40
0.8429028807717797
 40
0.8833157421740085
 40
0.9237378852344577
 40
0.9641539663016074
 40
1.0
 40
1.0
 40
1.0
 40
1.0
 10
2158.399003027831
 20
3234.217268324897
 30
0.0
 10
2158.467630524165
 20
3237.543066397618
 30
0.0
 10
2158.656017113687
 20
3246.672581385443
 30
0.0
 10
2158.986348894028
 20
3261.263097964864
 30
0.0
 10
2159.377174174527
 20
3277.660779539262
 30
0.0
 10
2159.76735043676
 20
3293.072671859731
 30
0.0
 10
2160.152675653795
 20
3307.537967733977
 30
0.0
 10
2160.531070361066
 20
3321.093177523634
 30
0.0
 10
2160.928469071416
 20
3334.741603752614
 30
0.0
 10
2161.342308046253
 20
3348.360897761363
 30
0.0
 10
2161.769470441425
 20
3361.834687959424
 30
0.0
 10
2162.172585080304
 20
3374.082610347622
 30
0.0
 10
2162.549100038453
 20
3385.151614656218
 30
0.0
 10
2163.119907098606
 20
3401.454376916217
 30
0.0
 10
2163.936820028008
 20
3423.642102649057
 30
0.0
 10
2165.06986981123
 20
3452.303750795977
 30
0.0
 10
2167.009037484814
 20
3498.158105656674
 30
0.0
 10
2169.983775242533
 20
3560.911306799346
 30
0.0
 10
2173.676053920454
 20
3629.613494853768
 30
0.0
 10
2176.921272351296
 20
3687.551123947714
 30
0.0
 10
2179.532420418096
 20
3734.751124663315
 30
0.0
 10
2181.948886528212
 20
3781.934365181006
 30
0.0
 10
2183.947076895336
 20
3829.114883809582
 30
0.0
 10
2185.249237290463
 20
3876.298018163591
 30
0.0
 10
2185.546349481856
 20
3921.23229425742
 30
0.0
 10
2184.791747564145
 20
3963.9196508276
 30
0.0
 10
2183.085511966998
 20
4004.405771757567
 30
0.0
 10
2180.346293163092
 20
4044.964742619176
 30
0.0
 10
2176.720921365503
 20
4085.578994759503
 30
0.0
 10
2172.451413684336
 20
4126.197526741224
 30
0.0
 10
2167.705412268235
 20
4166.777578741152
 30
0.0
 10
2162.861055271347
 20
4205.794530973179
 30
0.0
 10
2159.515539089305
 20
4231.271238371403
 30
0.0
 10
2157.943021907363
 20
4243.246239520118
 30
0.0
  0
LINE
  5
19D
330
1F
100
AcDbEntity
  8
0
  6
Continuous
 62
     7
370
    15
100
AcDbLine
 10
2150.8936029215
 20
4243.2462395201
 30
0.0
 11
2153.7187289734
 21
4221.4138926039
 31
0.0
  0
SPLINE
  5
19E
330
1F
100
AcDbEntity
  8
0
  6
Continuous
 62
     7
370
    15
100
AcDbSpline
210
0.0
220
0.0
230
1.0
 70
     8
 71
     3
 72
    38
 73
    34
 74
     0
 42
0.00000001
 43
0.00000001
 40
0.0
 40
0.0
 40
0.0
 40
0.0
 40
0.0152195505483239
 40
0.0923075050082228
 40
0.1427729786669502
 40
0.1931942149354198
 40
0.2434161266063227
 40
0.2934151252622816
 40
0.3433593942952528
 40
0.3932965613887812
 40
0.4500570941755711
 40
0.5068470081618918
 40
0.5636806303352164
 40
0.6205596177950599
 40
0.6774607179892964
 40
0.734389950690176
 40
0.7588043875737424
 40
0.7832369215952281
 40
0.8076549628898941
 40
0.8318020217094483
 40
0.8549780689144055
 40
0.8770326616726898
 40
0.8978538550961163
 40
0.9056554868694968
 40
0.9137905906456513
 40
0.9228519825573567
 40
0.9328656140250191
 40
0.9438602494485421
 40
0.9556440812132081
 40
0.9684379431272493
 40
0.9822781987296156
 40
0.9972043784569683
 40
0.9999999999999999
 40
0.9999999999999999
 40
0.9999999999999999
 40
0.9999999999999999
 10
2154.968729643975
 20
4211.753887034462
 30
0.0
 10
2155.521305760576
 20
4207.500873931842
 30
0.0
 10
2158.872713707125
 20
4181.706089320851
 30
0.0
 10
2163.681200622697
 20
4141.758696040243
 30
0.0
 10
2169.074964640732
 20
4091.892292489788
 30
0.0
 10
2172.973094795813
 20
4049.48129851789
 30
0.0
 10
2175.941946923302
 20
4007.122617752255
 30
0.0
 10
2177.77811206494
 20
3964.831408018216
 30
0.0
 10
2178.527273065046
 20
3922.586948236999
 30
0.0
 10
2178.275462207355
 20
3878.431402413784
 30
0.0
 10
2177.064287891727
 20
3832.362646127109
 30
0.0
 10
2175.060887065893
 20
3784.378436598267
 30
0.0
 10
2172.612048071752
 20
3736.382969437494
 30
0.0
 10
2169.956493430339
 20
3688.36777427657
 30
0.0
 10
2167.265967234548
 20
3640.327625198155
 30
0.0
 10
2165.152227192661
 20
3601.419718605209
 30
0.0
 10
2163.601459882251
 20
3571.646204707187
 30
0.0
 10
2162.558421164707
 20
3551.022176142108
 30
0.0
 10
2161.553261143776
 20
3530.471661539968
 30
0.0
 10
2160.600818350007
 20
3510.273118372422
 30
0.0
 10
2159.714650216146
 20
3490.738330437169
 30
0.0
 10
2158.903667517566
 20
3472.13850943689
 30
0.0
 10
2158.305677122351
 20
3457.866966123537
 30
0.0
 10
2157.883790527417
 20
3447.514864548458
 30
0.0
 10
2157.601384560316
 20
3440.474476464201
 30
0.0
 10
2157.299285568628
 20
3432.810890575653
 30
0.0
 10
2156.971950019049
 20
3424.341670223135
 30
0.0
 10
2156.622783632165
 20
3415.105356946598
 30
0.0
 10
2156.253291091866
 20
3405.085598507919
 30
0.0
 10
2155.86463785375
 20
3394.263913775194
 30
0.0
 10
2155.458060491075
 20
3382.556579893281
 30
0.0
 10
2155.15559875534
 20
3373.665471702758
 30
0.0
 10
2154.994191677789
 20
3368.672911802853
 30
0.0
 10
2154.968729643975
 20
3367.885333396003
 30
0.0
  0
SPLINE
  5
19F
330
1F
100
AcDbEntity
  8
0
  6
Continuous
 62
     7
370
    15
100
AcDbSpline
210
0.0
220
0.0
230
1.0
 70
     8
 71
     3
 72
    14
 73
    10
 74
     0
 42
0.00000001
 43
0.00000001
 40
0.0
 40
0.0
 40
0.0
 40
0.0
 40
0.0201435293649708
 40
0.2032161459245956
 40
0.3989337360085101
 40
0.5619797127326436
 40
0.7335248430318773
 40
0.9139044367112914
 40
1.0
 40
1.0
 40
1.0
 40
1.0
 10
2153.718728973422
 20
3327.509802676246
 30
0.0
 10
2153.700139019063
 20
3326.884133980132
 30
0.0
 10
2153.512595971893
 20
3320.572132803663
 30
0.0
 10
2153.169445002916
 20
3308.18028428193
 30
0.0
 10
2152.721009446203
 20
3291.349061802882
 30
0.0
 10
2152.308919724252
 20
3274.875198874014
 30
0.0
 10
2151.93146759751
 20
3258.877241614821
 30
0.0
 10
2151.625698840453
 20
3245.269434714951
 30
0.0
 10
2151.455632509442
 20
3236.990605114863
 30
0.0
 10
2151.400685711656
 20
3234.315794802711
 30
0.0
  0
LWPOLYLINE
  5
1A0
330
1F
100
AcDbEntity
  8
0
  6
Continuous
 62
     7
370
    15
100
AcDbPolyline
 90
        3
 70
   128
 43
0.0
 10
2151.450224622
 20
3205.5745543013
 10
2152.0611871322
 20
3205.174249507
 10
2152.0870182951
 20
3205.1601232062
  0
LINE
  5
1A1
330
1F
100
AcDbEntity
  8
0
  6
Continuous
 62
     7
370
    15
100
AcDbLine
 10
2156.6910747726
 20
3205.2105487357
 30
0.0
 11
2157.2372321327
 21
3205.5745543013
 31
0.0
  0
LINE
  5
1A2
330
1F
100
AcDbEntity
  8
0
  6
Continuous
 62
     7
370
    15
100
AcDbLine
 10
2157.2372321327
 20
1744.5013941298
 30
0.0
 11
2156.6753894378
 21
1744.8742807875
 31
0.0
  0
LWPOLYLINE
  5
1A3
330
1F
100
AcDbEntity
  8
0
  6
Continuous
 62
     7
370
    15
100
AcDbPolyline
 90
        3
 70
   128
 43
0.0
 10
2152.1057043512
 20
1744.9258388052
 10
2152.0611871322
 20
1744.9016989241
 10
2151.450224622
 20
1744.5013941298
  0
LINE
  5
1A4
330
1F
100
AcDbEntity
  8
0
  6
Continuous
 62
     7
370
    15
100
AcDbLine
 10
2084.3437318046
 20
3234.0379775534
 30
0.0
 11
2084.3437318046
 21
1716.0379708777
 31
0.0
  0
LINE
  5
1A5
330
1F
100
AcDbEntity
  8
0
  6
Continuous
 62
     7
370
    15
100
AcDbLine
 10
2224.3437286754
 20
1716.0379708777
 30
0.0
 11
2224.3437286754
 21
3234.0379775534
 31
0.0
  0
LWPOLYLINE
  5
1A6
330
1F
100
AcDbEntity
  8
0
  6
Continuous
 62
     7
370
    15
100
AcDbPolyline
 90
        3
 70
   128
 43
0.0
 10
2224.3436988731
 20
3234.0379775534
 10
2223.8436978598
 20
3234.5379413138
 10
2223.3437005718
 20
3235.0379646788
  0
LWPOLYLINE
  5
1A7
330
1F
100
AcDbEntity
  8
0
  6
Continuous
 62
     7
370
    15
100
AcDbPolyline
 90
        3
 70
   128
 43
0.0
 10
2223.3437005718
 20
1715.0379837523
 10
2223.8436978598
 20
1715.5379475127
 10
2224.3436988731
 20
1716.0379708777
  0
LWPOLYLINE
  5
1A8
330
1F
100
AcDbEntity
  8
0
  6
Continuous
 62
     7
370
    15
100
AcDbPolyline
 90
        3
 70
   128
 43
0.0
 10
2085.3437561829
 20
3235.0379646788
 10
2084.8437551697
 20
3234.5379413138
 10
2084.343761607
 20
3234.0379775534
  0
LWPOLYLINE
  5
1A9
330
1F
100
AcDbEntity
  8
0
  6
Continuous
 62
     7
370
    15
100
AcDbPolyline
 90
        3
 70
   128
 43
0.0
 10
2084.343761607
 20
1716.0379708777
 10
2084.8437551697
 20
1715.5379475127
 10
2085.3437561829
 20
1715.0379837523
  0
LINE
  5
1AA
330
1F
100
AcDbEntity
  8
0
  6
Continuous
 62
     7
370
    15
100
AcDbLine
 10
2159.5261417617
 20
4243.2462395201
 30
0.0
 11
2154.968729644
 21
4243.2462395201
 31
0.0
  0
LINE
  5
1AB
330
1F
100
AcDbEntity
  8
0
  6
Continuous
 62
     7
370
    15
100
AcDbLine
 10
2153.7187289734
 20
4243.2462395201
 30
0.0
 11
2148.8437284072
 21
4243.2462395201
 31
0.0
  0
LINE
  5
1AC
330
1F
100
AcDbEntity
  8
0
  6
Continuous
 62
     7
370
    15
100
AcDbLine
 10
2159.8437283476
 20
4243.2462395201
 30
0.0
 11
2159.5261417617
 21
4243.2462395201
 31
0.0
  0
LINE
  5
1AD
330
1F
100
AcDbEntity
  8
0
  6
Continuous
 62
     7
370
    15
100
AcDbLine
 10
2145.3437287648
 20
4245.7462967406
 30
0.0
 11
2153.7187289734
 21
4245.7462967406
 31
0.0
  0
LINE
  5
1AE
330
1F
100
AcDbEntity
  8
0
  6
Continuous
 62
     7
370
    15
100
AcDbLine
 10
2154.968729644
 20
4245.7462967406
 30
0.0
 11
2163.3437298526
 21
4245.7462967406
 31
0.0
  0
LINE
  5
1AF
330
1F
100
AcDbEntity
  8
0
  6
Continuous
 62
     7
370
    15
100
AcDbLine
 10
2148.4687295099
 20
4243.7463224898
 30
0.0
 11
2153.7187289734
 21
4243.7463224898
 31
0.0
  0
LINE
  5
1B0
330
1F
100
AcDbEntity
  8
0
  6
Continuous
 62
     7
370
    15
100
AcDbLine
 10
2154.968729644
 20
4243.7463224898
 30
0.0
 11
2160.2187291075
 21
4243.7463224898
 31
0.0
  0
LINE
  5
1B1
330
1F
100
AcDbEntity
  8
0
  6
Continuous
 62
     7
370
    15
100
AcDbLine
 10
2159.1911189546
 20
4250.4972637663
 30
0.0
 11
2158.7625205804
 21
4250.4972637663
 31
0.0
  0
LINE
  5
1B2
330
1F
100
AcDbEntity
  8
0
  6
Continuous
 62
     7
370
    15
100
AcDbLine
 10
2158.7625205804
 20
4250.4972637663
 30
0.0
 11
2158.7625205804
 21
4246.3978947173
 31
0.0
  0
LINE
  5
1B3
330
1F
100
AcDbEntity
  8
0
  6
Continuous
 62
     7
370
    15
100
AcDbLine
 10
2158.7625205804
 20
4246.3978947173
 30
0.0
 11
2159.1911189546
 21
4246.3978947173
 31
0.0
  0
LINE
  5
1B4
330
1F
100
AcDbEntity
  8
0
  6
Continuous
 62
     7
370
    15
100
AcDbLine
 10
2159.1911189546
 20
4250.4972637663
 30
0.0
 11
2159.1911189546
 21
4246.3978947173
 31
0.0
  0
LINE
  5
1B5
330
1F
100
AcDbEntity
  8
0
  6
Continuous
 62
     7
370
    15
100
AcDbLine
 10
2156.2175289084
 20
4250.4972637663
 30
0.0
 11
2155.7257812758
 21
4250.4972637663
 31
0.0
  0
LINE
  5
1B6
330
1F
100
AcDbEntity
  8
0
  6
Continuous
 62
     7
370
    15
100
AcDbLine
 10
2155.7257812758
 20
4250.4972637663
 30
0.0
 11
2155.7257812758
 21
4246.3978947173
 31
0.0
  0
LINE
  5
BB
330
1F
100
AcDbEntity
  8
0
  6
Continuous
 62
     7
370
    15
100
AcDbLine
 10
2155.7257812758
 20
4246.3978947173
 30
0.0
 11
2156.2175289084
 21
4246.3978947173
 31
0.0
  0
LINE
  5
BC
330
1F
100
AcDbEntity
  8
0
  6
Continuous
 62
     7
370
    15
100
AcDbLine
 10
2156.2175289084
 20
4250.4972637663
 30
0.0
 11
2156.2175289084
 21
4246.3978947173
 31
0.0
  0
LINE
  5
BD
330
1F
100
AcDbEntity
  8
0
  6
Continuous
 62
     7
370
    15
100
AcDbLine
 10
2153.0049708028
 20
4250.4972637663
 30
0.0
 11
2152.5127910365
 21
4250.4972637663
 31
0.0
  0
LINE
  5
BE
330
1F
100
AcDbEntity
  8
0
  6
Continuous
 62
     7
370
    15
100
AcDbLine
 10
2152.5127910365
 20
4250.4972637663
 30
0.0
 11
2152.5127910365
 21
4246.3978947173
 31
0.0
  0
LINE
  5
BF
330
1F
100
AcDbEntity
  8
0
  6
Continuous
 62
     7
370
    15
100
AcDbLine
 10
2152.5127910365
 20
4246.3978947173
 30
0.0
 11
2153.0049708028
 21
4246.3978947173
 31
0.0
  0
LINE
  5
C0
330
1F
100
AcDbEntity
  8
0
  6
Continuous
 62
     7
370
    15
100
AcDbLine
 10
2153.0049708028
 20
4250.4972637663
 30
0.0
 11
2153.0049708028
 21
4246.3978947173
 31
0.0
  0
LINE
  5
C1
330
1F
100
AcDbEntity
  8
0
  6
Continuous
 62
     7
370
    15
100
AcDbLine
 10
2149.9631446143
 20
4250.4972637663
 30
0.0
 11
2149.5332982679
 21
4250.4972637663
 31
0.0
  0
LINE
  5
C2
330
1F
100
AcDbEntity
  8
0
  6
Continuous
 62
     7
370
    15
100
AcDbLine
 10
2149.5332982679
 20
4250.4972637663
 30
0.0
 11
2149.5332982679
 21
4246.3978947173
 31
0.0
  0
LINE
  5
C3
330
1F
100
AcDbEntity
  8
0
  6
Continuous
 62
     7
370
    15
100
AcDbLine
 10
2149.5332982679
 20
4246.3978947173
 30
0.0
 11
2149.9631446143
 21
4246.3978947173
 31
0.0
  0
LINE
  5
C4
330
1F
100
AcDbEntity
  8
0
  6
Continuous
 62
     7
370
    15
100
AcDbLine
 10
2149.9631446143
 20
4250.4972637663
 30
0.0
 11
2149.9631446143
 21
4246.3978947173
 31
0.0
  0
LINE
  5
C5
330
1F
100
AcDbEntity
  8
0
  6
Continuous
 62
     7
370
    15
100
AcDbLine
 10
2147.47997786
 20
4250.4972637663
 30
0.0
 11
2147.1672844429
 21
4250.4972637663
 31
0.0
  0
LINE
  5
C6
330
1F
100
AcDbEntity
  8
0
  6
Continuous
 62
     7
370
    15
100
AcDbLine
 10
2147.1672844429
 20
4250.4972637663
 30
0.0
 11
2147.1672844429
 21
4246.3978947173
 31
0.0
  0
LINE
  5
C7
330
1F
100
AcDbEntity
  8
0
  6
Continuous
 62
     7
370
    15
100
AcDbLine
 10
2147.1672844429
 20
4246.3978947173
 30
0.0
 11
2147.47997786
 21
4246.3978947173
 31
0.0
  0
LINE
  5
C8
330
1F
100
AcDbEntity
  8
0
  6
Continuous
 62
     7
370
    15
100
AcDbLine
 10
2147.47997786
 20
4250.4972637663
 30
0.0
 11
2147.47997786
 21
4246.3978947173
 31
0.0
  0
LINE
  5
C9
330
1F
100
AcDbEntity
  8
0
  6
Continuous
 62
     7
370
    15
100
AcDbLine
 10
2145.8721462925
 20
4250.4972637663
 30
0.0
 11
2145.7164813121
 21
4250.4972637663
 31
0.0
  0
LINE
  5
CA
330
1F
100
AcDbEntity
  8
0
  6
Continuous
 62
     7
370
    15
100
AcDbLine
 10
2145.7164813121
 20
4250.4972637663
 30
0.0
 11
2145.7164813121
 21
4246.3978947173
 31
0.0
  0
LINE
  5
CB
330
1F
100
AcDbEntity
  8
0
  6
Continuous
 62
     7
370
    15
100
AcDbLine
 10
2145.7164813121
 20
4246.3978947173
 30
0.0
 11
2145.8721462925
 21
4246.3978947173
 31
0.0
  0
LINE
  5
CC
330
1F
100
AcDbEntity
  8
0
  6
Continuous
 62
     7
370
    15
100
AcDbLine
 10
2145.8721462925
 20
4250.4972637663
 30
0.0
 11
2145.8721462925
 21
4246.3978947173
 31
0.0
  0
LINE
  5
CD
330
1F
100
AcDbEntity
  8
0
  6
Continuous
 62
     7
370
    15
100
AcDbLine
 10
2163.2947031696
 20
4250.4972637663
 30
0.0
 11
2163.2287916084
 21
4250.4972637663
 31
0.0
  0
LINE
  5
CE
330
1F
100
AcDbEntity
  8
0
  6
Continuous
 62
     7
370
    15
100
AcDbLine
 10
2163.2287916084
 20
4250.4972637663
 30
0.0
 11
2163.2287916084
 21
4246.3978947173
 31
0.0
  0
LINE
  5
CF
330
1F
100
AcDbEntity
  8
0
  6
Continuous
 62
     7
370
    15
100
AcDbLine
 10
2163.2287916084
 20
4246.3978947173
 30
0.0
 11
2163.2947031696
 21
4246.3978947173
 31
0.0
  0
LINE
  5
D0
330
1F
100
AcDbEntity
  8
0
  6
Continuous
 62
     7
370
    15
100
AcDbLine
 10
2163.2947031696
 20
4250.4972637663
 30
0.0
 11
2163.2947031696
 21
4246.3978947173
 31
0.0
  0
LINE
  5
D1
330
1F
100
AcDbEntity
  8
0
  6
Continuous
 62
     7
370
    15
100
AcDbLine
 10
2162.3943116804
 20
4250.4972637663
 30
0.0
 11
2162.1584486504
 21
4250.4972637663
 31
0.0
  0
LINE
  5
D2
330
1F
100
AcDbEntity
  8
0
  6
Continuous
 62
     7
370
    15
100
AcDbLine
 10
2162.1584486504
 20
4250.4972637663
 30
0.0
 11
2162.1584486504
 21
4246.3978947173
 31
0.0
  0
LINE
  5
D3
330
1F
100
AcDbEntity
  8
0
  6
Continuous
 62
     7
370
    15
100
AcDbLine
 10
2162.1584486504
 20
4246.3978947173
 30
0.0
 11
2162.3943116804
 21
4246.3978947173
 31
0.0
  0
LINE
  5
D4
330
1F
100
AcDbEntity
  8
0
  6
Continuous
 62
     7
370
    15
100
AcDbLine
 10
2162.3943116804
 20
4250.4972637663
 30
0.0
 11
2162.3943116804
 21
4246.3978947173
 31
0.0
  0
LINE
  5
D5
330
1F
100
AcDbEntity
  8
0
  6
Continuous
 62
     7
370
    15
100
AcDbLine
 10
2161.5465212901
 20
4250.4972637663
 30
0.0
 11
2161.2357277711
 21
4250.4972637663
 31
0.0
  0
LINE
  5
D6
330
1F
100
AcDbEntity
  8
0
  6
Continuous
 62
     7
370
    15
100
AcDbLine
 10
2161.2357277711
 20
4250.4972637663
 30
0.0
 11
2161.2357277711
 21
4246.3978947173
 31
0.0
  0
LINE
  5
D7
330
1F
100
AcDbEntity
  8
0
  6
Continuous
 62
     7
370
    15
100
AcDbLine
 10
2161.2357277711
 20
4246.3978947173
 30
0.0
 11
2161.5465212901
 21
4246.3978947173
 31
0.0
  0
LINE
  5
D8
330
1F
100
AcDbEntity
  8
0
  6
Continuous
 62
     7
370
    15
100
AcDbLine
 10
2161.5465212901
 20
4250.4972637663
 30
0.0
 11
2161.5465212901
 21
4246.3978947173
 31
0.0
  0
LINE
  5
D9
330
1F
100
AcDbEntity
  8
0
  6
Continuous
 62
     7
370
    15
100
AcDbLine
 10
2162.9833489944
 20
4250.4972637663
 30
0.0
 11
2162.8299992819
 21
4250.4972637663
 31
0.0
  0
LINE
  5
DA
330
1F
100
AcDbEntity
  8
0
  6
Continuous
 62
     7
370
    15
100
AcDbLine
 10
2162.8299992819
 20
4250.4972637663
 30
0.0
 11
2162.8299992819
 21
4246.3978947173
 31
0.0
  0
LINE
  5
DB
330
1F
100
AcDbEntity
  8
0
  6
Continuous
 62
     7
370
    15
100
AcDbLine
 10
2162.8299992819
 20
4246.3978947173
 30
0.0
 11
2162.9833489944
 21
4246.3978947173
 31
0.0
  0
LINE
  5
DC
330
1F
100
AcDbEntity
  8
0
  6
Continuous
 62
     7
370
    15
100
AcDbLine
 10
2162.9833489944
 20
4250.4972637663
 30
0.0
 11
2162.9833489944
 21
4246.3978947173
 31
0.0
  0
LINE
  5
DD
330
1F
100
AcDbEntity
  8
0
  6
Continuous
 62
     7
370
    15
100
AcDbLine
 10
2145.4657469232
 20
4250.4972637663
 30
0.0
 11
2145.3974250992
 21
4250.4972637663
 31
0.0
  0
LINE
  5
DE
330
1F
100
AcDbEntity
  8
0
  6
Continuous
 62
     7
370
    15
100
AcDbLine
 10
2145.3974250992
 20
4250.4972637663
 30
0.0
 11
2145.3974250992
 21
4246.3978947173
 31
0.0
  0
LINE
  5
DF
330
1F
100
AcDbEntity
  8
0
  6
Continuous
 62
     7
370
    15
100
AcDbLine
 10
2145.3974250992
 20
4246.3978947173
 30
0.0
 11
2145.4657469232
 21
4246.3978947173
 31
0.0
  0
LINE
  5
E0
330
1F
100
AcDbEntity
  8
0
  6
Continuous
 62
     7
370
    15
100
AcDbLine
 10
2145.4657469232
 20
4250.4972637663
 30
0.0
 11
2145.4657469232
 21
4246.3978947173
 31
0.0
  0
LINE
  5
E1
330
1F
100
AcDbEntity
  8
0
  6
Continuous
 62
     7
370
    15
100
AcDbLine
 10
2146.5508271296
 20
4250.4972637663
 30
0.0
 11
2146.3128220578
 21
4250.4972637663
 31
0.0
  0
LINE
  5
E2
330
1F
100
AcDbEntity
  8
0
  6
Continuous
 62
     7
370
    15
100
AcDbLine
 10
2146.3128220578
 20
4250.4972637663
 30
0.0
 11
2146.3128220578
 21
4246.3978947173
 31
0.0
  0
LINE
  5
E3
330
1F
100
AcDbEntity
  8
0
  6
Continuous
 62
     7
370
    15
100
AcDbLine
 10
2146.3128220578
 20
4246.3978947173
 30
0.0
 11
2146.5508271296
 21
4246.3978947173
 31
0.0
  0
LINE
  5
E4
330
1F
100
AcDbEntity
  8
0
  6
Continuous
 62
     7
370
    15
100
AcDbLine
 10
2146.5508271296
 20
4250.4972637663
 30
0.0
 11
2146.5508271296
 21
4246.3978947173
 31
0.0
  0
LINE
  5
E5
330
1F
100
AcDbEntity
  8
0
  6
Continuous
 62
     7
370
    15
100
AcDbLine
 10
2148.6297365566
 20
4250.4972637663
 30
0.0
 11
2148.2524019022
 21
4250.4972637663
 31
0.0
  0
LINE
  5
E6
330
1F
100
AcDbEntity
  8
0
  6
Continuous
 62
     7
370
    15
100
AcDbLine
 10
2148.2524019022
 20
4250.4972637663
 30
0.0
 11
2148.2524019022
 21
4246.3978947173
 31
0.0
  0
LINE
  5
E7
330
1F
100
AcDbEntity
  8
0
  6
Continuous
 62
     7
370
    15
100
AcDbLine
 10
2148.2524019022
 20
4246.3978947173
 30
0.0
 11
2148.6297365566
 21
4246.3978947173
 31
0.0
  0
LINE
  5
E8
330
1F
100
AcDbEntity
  8
0
  6
Continuous
 62
     7
370
    15
100
AcDbLine
 10
2148.6297365566
 20
4250.4972637663
 30
0.0
 11
2148.6297365566
 21
4246.3978947173
 31
0.0
  0
LINE
  5
E9
330
1F
100
AcDbEntity
  8
0
  6
Continuous
 62
     7
370
    15
100
AcDbLine
 10
2151.4373500188
 20
4250.4972637663
 30
0.0
 11
2150.9688090821
 21
4250.4972637663
 31
0.0
  0
LINE
  5
EA
330
1F
100
AcDbEntity
  8
0
  6
Continuous
 62
     7
370
    15
100
AcDbLine
 10
2150.9688090821
 20
4250.4972637663
 30
0.0
 11
2150.9688090821
 21
4246.3978947173
 31
0.0
  0
LINE
  5
EB
330
1F
100
AcDbEntity
  8
0
  6
Continuous
 62
     7
370
    15
100
AcDbLine
 10
2150.9688090821
 20
4246.3978947173
 30
0.0
 11
2151.4373500188
 21
4246.3978947173
 31
0.0
  0
LINE
  5
EC
330
1F
100
AcDbEntity
  8
0
  6
Continuous
 62
     7
370
    15
100
AcDbLine
 10
2151.4373500188
 20
4250.4972637663
 30
0.0
 11
2151.4373500188
 21
4246.3978947173
 31
0.0
  0
LINE
  5
ED
330
1F
100
AcDbEntity
  8
0
  6
Continuous
 62
     7
370
    15
100
AcDbLine
 10
2157.7592123587
 20
4250.4972637663
 30
0.0
 11
2157.2915226509
 21
4250.4972637663
 31
0.0
  0
LINE
  5
EE
330
1F
100
AcDbEntity
  8
0
  6
Continuous
 62
     7
370
    15
100
AcDbLine
 10
2157.2915226509
 20
4250.4972637663
 30
0.0
 11
2157.2915226509
 21
4246.3978947173
 31
0.0
  0
LINE
  5
EF
330
1F
100
AcDbEntity
  8
0
  6
Continuous
 62
     7
370
    15
100
AcDbLine
 10
2157.2915226509
 20
4246.3978947173
 30
0.0
 11
2157.7592123587
 21
4246.3978947173
 31
0.0
  0
LINE
  5
F0
330
1F
100
AcDbEntity
  8
0
  6
Continuous
 62
     7
370
    15
100
AcDbLine
 10
2157.7592123587
 20
4250.4972637663
 30
0.0
 11
2157.7592123587
 21
4246.3978947173
 31
0.0
  0
LINE
  5
F1
330
1F
100
AcDbEntity
  8
0
  6
Continuous
 62
     7
370
    15
100
AcDbLine
 10
2160.4672264595
 20
4250.4972637663
 30
0.0
 11
2160.09149368
 21
4250.4972637663
 31
0.0
  0
LINE
  5
F2
330
1F
100
AcDbEntity
  8
0
  6
Continuous
 62
     7
370
    15
100
AcDbLine
 10
2160.09149368
 20
4250.4972637663
 30
0.0
 11
2160.09149368
 21
4246.3978947173
 31
0.0
  0
LINE
  5
F3
330
1F
100
AcDbEntity
  8
0
  6
Continuous
 62
     7
370
    15
100
AcDbLine
 10
2160.09149368
 20
4246.3978947173
 30
0.0
 11
2160.4672264595
 21
4246.3978947173
 31
0.0
  0
LINE
  5
F4
330
1F
100
AcDbEntity
  8
0
  6
Continuous
 62
     7
370
    15
100
AcDbLine
 10
2160.4672264595
 20
4250.4972637663
 30
0.0
 11
2160.4672264595
 21
4246.3978947173
 31
0.0
  0
LINE
  5
F5
330
1F
100
AcDbEntity
  8
0
  6
Continuous
 62
     7
370
    15
100
AcDbLine
 10
2152.5830854018
 20
4250.4972637663
 30
0.0
 11
2152.5830854018
 21
4246.3978947173
 31
0.0
  0
LINE
  5
F6
330
1F
100
AcDbEntity
  8
0
  6
Continuous
 62
     7
370
    15
100
AcDbLine
 10
2156.1453216066
 20
4250.4972637663
 30
0.0
 11
2156.1453216066
 21
4246.3978947173
 31
0.0
  0
LINE
  5
F7
330
1F
100
AcDbEntity
  8
0
  6
Continuous
 62
     7
370
    15
100
AcDbLine
 10
2151.1081125875
 20
4250.4972637663
 30
0.0
 11
2151.1081125875
 21
4246.3978947173
 31
0.0
  0
LINE
  5
F8
330
1F
100
AcDbEntity
  8
0
  6
Continuous
 62
     7
370
    15
100
AcDbLine
 10
2157.6180909117
 20
4250.4972637663
 30
0.0
 11
2157.6180909117
 21
4246.3978947173
 31
0.0
  0
LINE
  5
F9
330
1F
100
AcDbEntity
  8
0
  6
Continuous
 62
     7
370
    15
100
AcDbLine
 10
2158.9856189032
 20
4250.4972637663
 30
0.0
 11
2158.9856189032
 21
4246.3978947173
 31
0.0
  0
LINE
  5
FA
330
1F
100
AcDbEntity
  8
0
  6
Continuous
 62
     7
370
    15
100
AcDbLine
 10
2149.7371312518
 20
4250.4972637663
 30
0.0
 11
2149.7371312518
 21
4246.3978947173
 31
0.0
  0
LINE
  5
FB
330
1F
100
AcDbEntity
  8
0
  6
Continuous
 62
     7
370
    15
100
AcDbLine
 10
2160.2039527436
 20
4250.4972637663
 30
0.0
 11
2160.2039527436
 21
4246.3978947173
 31
0.0
  0
LINE
  5
FC
330
1F
100
AcDbEntity
  8
0
  6
Continuous
 62
     7
370
    15
100
AcDbLine
 10
2148.5142115791
 20
4250.4972637663
 30
0.0
 11
2148.5142115791
 21
4246.3978947173
 31
0.0
  0
LINE
  5
FD
330
1F
100
AcDbEntity
  8
0
  6
Continuous
 62
     7
370
    15
100
AcDbLine
 10
2147.4786591072
 20
4250.4972637663
 30
0.0
 11
2147.4786591072
 21
4246.3978947173
 31
0.0
  0
LINE
  5
FE
330
1F
100
AcDbEntity
  8
0
  6
Continuous
 62
     7
370
    15
100
AcDbLine
 10
2153.0722979744
 20
4251.2462557326
 30
0.0
 11
2211.3437284072
 21
4251.2462557326
 31
0.0
  0
LINE
  5
FF
330
1F
100
AcDbEntity
  8
0
  6
Continuous
 62
     7
370
    15
100
AcDbLine
 10
2097.3437283476
 20
4251.2462557326
 30
0.0
 11
2153.0722979744
 21
4251.2462557326
 31
0.0
  0
LINE
  5
100
330
1F
100
AcDbEntity
  8
0
  6
Continuous
 62
     7
370
    15
100
AcDbLine
 10
2153.0053805848
 20
4299.2462337981
 30
0.0
 11
2214.3437288989
 21
4299.2462337981
 31
0.0
  0
LINE
  5
101
330
1F
100
AcDbEntity
  8
0
  6
Continuous
 62
     7
370
    15
100
AcDbLine
 10
2094.3437297185
 20
4299.2462337981
 30
0.0
 11
2153.0053805848
 21
4299.2462337981
 31
0.0
  0
CIRCLE
  5
103
330
1F
100
AcDbEntity
  8
0
  6
Continuous
 62
     7
370
    15
100
AcDbCircle
 10
2154.3437290033
 20
1730.037969362
 30
0.0
 40
14.25
  0
CIRCLE
  5
104
330
1F
100
AcDbEntity
  8
0
  6
Continuous
 62
     7
370
    15
100
AcDbCircle
 10
2154.3437290033
 20
1730.037969362
 30
0.0
 40
14.75
  0
CIRCLE
  5
105
330
1F
100
AcDbEntity
  8
0
  6
Continuous
 62
     7
370
    15
100
AcDbCircle
 10
2154.3437290033
 20
3220.0379693621
 30
0.0
 40
14.25
  0
CIRCLE
  5
106
330
1F
100
AcDbEntity
  8
0
  6
Continuous
 62
     7
370
    15
100
AcDbCircle
 10
2154.3437290033
 20
3220.0379693621
 30
0.0
 40
14.75
  0
SPLINE
  5
107
330
1F
100
AcDbEntity
  8
0
  6
Continuous
 62
     7
370
    15
100
AcDbSpline
210
0.0
220
0.0
230
1.0
 70
     8
 71
     3
 72
    32
 73
    28
 74
     0
 42
0.00000001
 43
0.00000001
 40
0.0
 40
0.0
 40
0.0
 40
0.0
 40
0.0290651625575214
 40
0.0596310655758986
 40
0.091703506747947
 40
0.1252841420773076
 40
0.1795209601666365
 40
0.2501808119749332
 40
0.2872096994582639
 40
0.3204094659205801
 40
0.3497789221210956
 40
0.3753185941350143
 40
0.4392655913256826
 40
0.5001699670291172
 40
0.5301519417912335
 40
0.5609665391230484
 40
0.5926172660885468
 40
0.6251069350808841
 40
0.6582498870033923
 40
0.699889771122738
 40
0.7500203028809078
 40
0.7888159545288999
 40
0.8225852831359671
 40
0.8513260359123885
 40
0.8750384354417746
 40
0.939379688897401
 40
1.0
 40
1.0
 40
1.0
 40
1.0
 10
2169.139717175517
 20
1730.037969447181
 30
0.0
 10
2169.127620826085
 20
1730.494666267885
 30
0.0
 10
2169.102803548535
 20
1731.431640833562
 30
0.0
 10
2168.894814410067
 20
1732.860101543079
 30
0.0
 10
2168.540536474099
 20
1734.33090559074
 30
0.0
 10
2167.90959348808
 20
1736.107566846413
 30
0.0
 10
2166.759423475097
 20
1738.324871962412
 30
0.0
 10
2165.15759507457
 20
1740.325254177144
 30
0.0
 10
2163.503115063992
 20
1741.795441367223
 30
0.0
 10
2162.226169103587
 20
1742.70035708403
 30
0.0
 10
2161.02361458555
 20
1743.38596779367
 30
0.0
 10
2159.32868751766
 20
1744.167771285163
 30
0.0
 10
2157.050350643914
 20
1744.851697506778
 30
0.0
 10
2154.613586346171
 20
1745.083503398866
 30
0.0
 10
2152.701828535447
 20
1744.991836999137
 30
0.0
 10
2151.262502231275
 20
1744.784020614876
 30
0.0
 10
2149.81254403784
 20
1744.426767296502
 30
0.0
 10
2148.37162343481
 20
1743.913389969643
 30
0.0
 10
2146.850115590131
 20
1743.187176696838
 30
0.0
 10
2145.188370714223
 20
1742.139211521623
 30
0.0
 10
2143.624738035956
 20
1740.803998228377
 30
0.0
 10
2142.346676066791
 20
1739.36003252359
 30
0.0
 10
2141.434174002328
 20
1738.056052551528
 30
0.0
 10
2140.769333070509
 20
1736.875740702144
 30
0.0
 10
2140.007257992557
 20
1735.209323964138
 30
0.0
 10
2139.300638454636
 20
1732.956875939738
 30
0.0
 10
2139.192281301204
 20
1730.991430117994
 30
0.0
 10
2139.139715983425
 20
1730.037969447181
 30
0.0
  0
LINE
  5
108
330
1F
100
AcDbEntity
  8
0
  6
Continuous
 62
     7
370
    15
100
AcDbLine
 10
2139.1397159834
 20
1730.0379694472
 30
0.0
 11
2138.1467435797
 21
1730.0379694472
 31
0.0
  0
SPLINE
  5
109
330
1F
100
AcDbEntity
  8
0
  6
Continuous
 62
     7
370
    15
100
AcDbSpline
210
0.0
220
0.0
230
1.0
 70
     8
 71
     3
 72
    23
 73
    19
 74
     0
 42
0.00000001
 43
0.00000001
 40
0.0
 40
0.0
 40
0.0
 40
0.0
 40
0.0622848277202396
 40
0.1247334681877203
 40
0.18692479429911
 40
0.2495620263057298
 40
0.3120096025189608
 40
0.374589831971183
 40
0.437227643566771
 40
0.4997864891232131
 40
0.5624825581387409
 40
0.6250509873018613
 40
0.6877436037049222
 40
0.7502571730760664
 40
0.8126218429614109
 40
0.875099578788498
 40
0.9379149961524353
 40
1.0
 40
1.0
 40
1.0
 40
1.0
 10
2138.14674357966
 20
1730.037969447181
 30
0.0
 10
2138.205309592398
 20
1731.079144326221
 30
0.0
 10
2138.322595649921
 20
1733.164232435251
 30
0.0
 10
2139.279697499207
 20
1736.163175644585
 30
0.0
 10
2140.750874117905
 20
1738.934034887781
 30
0.0
 10
2142.759378470808
 20
1741.349472058304
 30
0.0
 10
2145.189970603231
 20
1743.346419599533
 30
0.0
 10
2147.973509421353
 20
1744.816531795662
 30
0.0
 10
2150.98763814516
 20
1745.737280559714
 30
0.0
 10
2154.128421048305
 20
1746.037775590303
 30
0.0
 10
2157.268567271117
 20
1745.741402979097
 30
0.0
 10
2160.287193152428
 20
1744.823785834657
 30
0.0
 10
2163.073408172421
 20
1743.354127555927
 30
0.0
 10
2165.506550369029
 20
1741.361964814293
 30
0.0
 10
2167.515182048134
 20
1738.944012579274
 30
0.0
 10
2168.988609556145
 20
1736.16776895572
 30
0.0
 10
2169.959471515552
 20
1733.164514539556
 30
0.0
 10
2170.073545260218
 20
1731.07608011291
 30
0.0
 10
2170.130248582814
 20
1730.037969447181
 30
0.0
  0
LINE
  5
10A
330
1F
100
AcDbEntity
  8
0
  6
Continuous
 62
     7
370
    15
100
AcDbLine
 10
2169.1397171755
 20
1730.0379694472
 30
0.0
 11
2170.1302485828
 21
1730.0379694472
 31
0.0
  0
SPLINE
  5
10B
330
1F
100
AcDbEntity
  8
0
  6
Continuous
 62
     7
370
    15
100
AcDbSpline
210
0.0
220
0.0
230
1.0
 70
     8
 71
     3
 72
    23
 73
    19
 74
     0
 42
0.00000001
 43
0.00000001
 40
0.0
 40
0.0
 40
0.0
 40
0.0
 40
0.0622668999147148
 40
0.1246931638289058
 40
0.1868780946629187
 40
0.2495056099654645
 40
0.3119576150762819
 40
0.3745483898186259
 40
0.4372026569935354
 40
0.4997845935332232
 40
0.56250111987202
 40
0.6250892100973925
 40
0.6877958832097028
 40
0.7503134902049093
 40
0.8126771798201655
 40
0.875140029741309
 40
0.9379385089830349
 40
1.0
 40
1.0
 40
1.0
 40
1.0
 10
2170.041918224547
 20
3220.037978983924
 30
0.0
 10
2169.983669089681
 20
3219.003219461511
 30
0.0
 10
2169.867021738894
 20
3216.931052084805
 30
0.0
 10
2168.915072844109
 20
3213.950565451376
 30
0.0
 10
2167.451846794366
 20
3211.196795753843
 30
0.0
 10
2165.454096317812
 20
3208.79615264962
 30
0.0
 10
2163.036465323521
 20
3206.811702877665
 30
0.0
 10
2160.267935014988
 20
3205.350808050974
 30
0.0
 10
2157.270201943563
 20
3204.435989838733
 30
0.0
 10
2154.146747430612
 20
3204.137740127248
 30
0.0
 10
2151.024152465272
 20
3204.432607000566
 30
0.0
 10
2148.022579137543
 20
3205.344676451674
 30
0.0
 10
2145.252161486678
 20
3206.805171928794
 30
0.0
 10
2142.832799333339
 20
3208.784864107879
 30
0.0
 10
2140.835416956012
 20
3211.187522116771
 30
0.0
 10
2139.370164019978
 20
3213.946385189544
 30
0.0
 10
2138.404615589197
 20
3216.930860000182
 30
0.0
 10
2138.291160949796
 20
3219.006356207267
 30
0.0
 10
2138.234768464122
 20
3220.037978983924
 30
0.0
  0
LINE
  5
10C
330
1F
100
AcDbEntity
  8
0
  6
Continuous
 62
     7
370
    15
100
AcDbLine
 10
2138.2347684641
 20
3220.0379789839
 30
0.0
 11
2139.1397159834
 21
3220.0379789839
 31
0.0
  0
SPLINE
  5
10D
330
1F
100
AcDbEntity
  8
0
  6
Continuous
 62
     7
370
    15
100
AcDbSpline
210
0.0
220
0.0
230
1.0
 70
     8
 71
     3
 72
    32
 73
    28
 74
     0
 42
0.00000001
 43
0.00000001
 40
0.0
 40
0.0
 40
0.0
 40
0.0
 40
0.0291126926915642
 40
0.059695386442784
 40
0.0917519441669892
 40
0.1252851356966973
 40
0.1798864044913275
 40
0.2501827364700974
 40
0.2874898677083849
 40
0.3207826102121606
 40
0.3500591204589156
 40
0.3753198290517865
 40
0.4393289132961169
 40
0.5001738743574369
 40
0.5302009315064267
 40
0.5610306478088286
 40
0.5926665078103449
 40
0.6251111751007062
 40
0.6586397347033676
 40
0.7002779563774482
 40
0.7500225587665834
 40
0.789176953901713
 40
0.8230658906246248
 40
0.8516866963309627
 40
0.8750365447376486
 40
0.9394186126388631
 40
1.0
 40
1.0
 40
1.0
 40
1.0
 10
2139.139715983425
 20
3220.037978983924
 30
0.0
 10
2139.151852513606
 20
3219.580543596227
 30
0.0
 10
2139.176738389567
 20
3218.642575317904
 30
0.0
 10
2139.385081110325
 20
3217.213425629186
 30
0.0
 10
2139.739428876257
 20
3215.743439894937
 30
0.0
 10
2140.37203971443
 20
3213.962457940132
 30
0.0
 10
2141.523129095248
 20
3211.746386731485
 30
0.0
 10
2143.128470294816
 20
3209.743885623147
 30
0.0
 10
2144.783500967828
 20
3208.274375550099
 30
0.0
 10
2146.064742251749
 20
3207.368263940368
 30
0.0
 10
2147.263985035023
 20
3206.686058434238
 30
0.0
 10
2148.954545775002
 20
3205.907058493685
 30
0.0
 10
2151.228461632002
 20
3205.224273187272
 30
0.0
 10
2153.66581294314
 20
3204.992478255059
 30
0.0
 10
2155.577590318963
 20
3205.084086285101
 30
0.0
 10
2157.017665618526
 20
3205.292067202962
 30
0.0
 10
2158.467013994702
 20
3205.649276727972
 30
0.0
 10
2159.912930695495
 20
3206.164320162332
 30
0.0
 10
2161.439095216775
 20
3206.893873855372
 30
0.0
 10
2163.099935530507
 20
3207.943774036113
 30
0.0
 10
2164.662551849438
 20
3209.279727927013
 30
0.0
 10
2165.941103983735
 20
3210.725718871363
 30
0.0
 10
2166.855245087535
 20
3212.035686493307
 30
0.0
 10
2167.515761151352
 20
3213.212016884782
 30
0.0
 10
2168.274171663081
 20
3214.872591451684
 30
0.0
 10
2168.978933974213
 20
3217.119733526319
 30
0.0
 10
2169.087220596999
 20
3219.085156173103
 30
0.0
 10
2169.139717175517
 20
3220.037978983924
 30
0.0
  0
LINE
  5
10E
330
1F
100
AcDbEntity
  8
0
  6
Continuous
 62
     7
370
    15
100
AcDbLine
 10
2170.0419182245
 20
3220.0379789839
 30
0.0
 11
2169.1397171755
 21
3220.0379789839
 31
0.0
  0
LINE
  5
10F
330
1F
100
AcDbEntity
  8
0
  6
Continuous
 62
     7
370
    15
100
AcDbLine
 10
2138.1467435797
 20
1716.0379708777
 30
0.0
 11
2138.1467435797
 21
1730.0379694472
 31
0.0
  0
SPLINE
  5
110
330
1F
100
AcDbEntity
  8
0
  6
Continuous
 62
     7
370
    15
100
AcDbSpline
210
0.0
220
0.0
230
1.0
 70
    24
 71
     3
 72
    19
 73
    15
 74
     0
 42
0.00000001
 43
0.00000001
 40
0.0
 40
0.0
 40
0.0
 40
0.0
 40
0.0419711896081201
 40
0.0848708901262634
 40
0.1295452321580875
 40
0.1766990065429578
 40
0.2443020842921149
 40
0.3180751165533859
 40
0.3983798006751948
 40
0.4852104940133379
 40
0.5782731036905014
 40
0.6770486652305827
 40
0.8343327957578403
 40
1.0
 40
1.0
 40
1.0
 40
1.0
 10
2084.343731804643
 20
1716.037970877693
 30
0.0
 10
2084.391620915681
 20
1716.037970877692
 30
0.0
 10
2084.488458568346
 20
1716.037970877693
 30
0.0
 10
2085.26470584841
 20
1716.037970877693
 30
0.0
 10
2086.491207351995
 20
1716.037970877692
 30
0.0
 10
2088.412853494884
 20
1716.037970877692
 30
0.0
 10
2091.201729189659
 20
1716.037970877692
 30
0.0
 10
2094.985659059045
 20
1716.037970877693
 30
0.0
 10
2099.493721261465
 20
1716.037970877693
 30
0.0
 10
2104.672017219475
 20
1716.037970877692
 30
0.0
 10
2110.458266651589
 20
1716.037970877693
 30
0.0
 10
2117.927892323942
 20
1716.037970877692
 30
0.0
 10
2127.190669557586
 20
1716.037970877693
 30
0.0
 10
2134.432062273505
 20
1716.037970877693
 30
0.0
 10
2138.14674357966
 20
1716.037970877693
 30
0.0
  0
SPLINE
  5
111
330
1F
100
AcDbEntity
  8
0
  6
Continuous
 62
     7
370
    15
100
AcDbSpline
210
0.0
220
0.0
230
1.0
 70
    24
 71
     3
 72
    19
 73
    15
 74
     0
 42
0.00000001
 43
0.00000001
 40
0.0
 40
0.0
 40
0.0
 40
0.0
 40
0.1656322306901586
 40
0.3229568414831863
 40
0.4217827151741063
 40
0.5149012134247689
 40
0.6017829304589912
 40
0.682124224415276
 40
0.7559112215048843
 40
0.8235000771471054
 40
0.8706236017015136
 40
0.9152520400046628
 40
0.9580936448869152
 40
1.0
 40
1.0
 40
1.0
 40
1.0
 10
2170.130248582814
 20
1716.037970877693
 30
0.0
 10
2173.868277241662
 20
1716.037970877692
 30
0.0
 10
2181.156846163331
 20
1716.037970877692
 30
0.0
 10
2190.483945655077
 20
1716.037970877693
 30
0.0
 10
2198.009390262441
 20
1716.037970877692
 30
0.0
 10
2203.841149279747
 20
1716.037970877693
 30
0.0
 10
2209.061648833699
 20
1716.037970877692
 30
0.0
 10
2213.607565640594
 20
1716.037970877693
 30
0.0
 10
2217.424072807803
 20
1716.037970877693
 30
0.0
 10
2220.237684382173
 20
1716.037970877693
 30
0.0
 10
2222.176665380638
 20
1716.037970877693
 30
0.0
 10
2223.414280921003
 20
1716.037970877692
 30
0.0
 10
2224.197657189106
 20
1716.037970877692
 30
0.0
 10
2224.295397723775
 20
1716.037970877693
 30
0.0
 10
2224.343728675399
 20
1716.037970877693
 30
0.0
  0
LINE
  5
112
330
1F
100
AcDbEntity
  8
0
  6
Continuous
 62
     7
370
    15
100
AcDbLine
 10
2170.1302485828
 20
1730.0379694472
 30
0.0
 11
2170.1302485828
 21
1716.0379708777
 31
0.0
  0
LINE
  5
113
330
1F
100
AcDbEntity
  8
0
  6
Continuous
 62
     7
370
    15
100
AcDbLine
 10
2170.0419182245
 20
3234.0379775534
 30
0.0
 11
2170.0419182245
 21
3220.0379789839
 31
0.0
  0
SPLINE
  5
114
330
1F
100
AcDbEntity
  8
0
  6
Continuous
 62
     7
370
    15
100
AcDbSpline
210
0.0
220
0.0
230
1.0
 70
    24
 71
     3
 72
    19
 73
    15
 74
     0
 42
0.00000001
 43
0.00000001
 40
0.0
 40
0.0
 40
0.0
 40
0.0
 40
0.0418924795946558
 40
0.084721677387795
 40
0.1293403151278198
 40
0.1764574033279832
 40
0.2440432923393043
 40
0.3178334026665184
 40
0.3981826104534024
 40
0.4850753184084214
 40
0.5782058510978265
 40
0.6770424770614187
 40
0.8343756080968089
 40
1.0
 40
1.0
 40
1.0
 40
1.0
 10
2224.343728675399
 20
3234.037977553413
 30
0.0
 10
2224.295304146417
 20
3234.037977553413
 30
0.0
 10
2224.197372313264
 20
3234.037977553413
 30
0.0
 10
2223.412451708043
 20
3234.037977553413
 30
0.0
 10
2222.172440761572
 20
3234.037977553413
 30
0.0
 10
2220.229723343498
 20
3234.037977553413
 30
0.0
 10
2217.410784243064
 20
3234.037977553413
 30
0.0
 10
2213.587252326533
 20
3234.037977553413
 30
0.0
 10
2209.033184277869
 20
3234.037977553413
 30
0.0
 10
2203.803593982357
 20
3234.037977553413
 30
0.0
 10
2197.962039364648
 20
3234.037977553413
 30
0.0
 10
2190.424585642959
 20
3234.037977553413
 30
0.0
 10
2181.083660957956
 20
3234.037977553413
 30
0.0
 10
2173.784958172285
 20
3234.037977553413
 30
0.0
 10
2170.041917293225
 20
3234.037977553413
 30
0.0
  0
SPLINE
  5
115
330
1F
100
AcDbEntity
  8
0
  6
Continuous
 62
     7
370
    15
100
AcDbSpline
210
0.0
220
0.0
230
1.0
 70
    24
 71
     3
 72
    19
 73
    15
 74
     0
 42
0.00000001
 43
0.00000001
 40
0.0
 40
0.0
 40
0.0
 40
0.0
 40
0.1656598859894355
 40
0.3229528368270805
 40
0.4217392491919955
 40
0.5148138028021025
 40
0.6016554844236698
 40
0.6819680109989013
 40
0.7557439211749659
 40
0.8233438642444958
 40
0.8704911306331375
 40
0.9151555595169314
 40
0.9580427713643882
 40
1.0
 40
1.0
 40
1.0
 40
1.0
 10
2138.234768464122
 20
3234.037977553413
 30
0.0
 10
2134.515072766092
 20
3234.037977553413
 30
0.0
 10
2127.263550946928
 20
3234.037977553413
 30
0.0
 10
2117.986969397973
 20
3234.037977553412
 30
0.0
 10
2110.505370358283
 20
3234.037977553413
 30
0.0
 10
2104.709364340659
 20
3234.037977553413
 30
0.0
 10
2099.522020255584
 20
3234.037977553413
 30
0.0
 10
2095.005844117125
 20
3234.037977553413
 30
0.0
 10
2091.214936575289
 20
3234.037977553413
 30
0.0
 10
2088.420766933255
 20
3234.037977553413
 30
0.0
 10
2086.495399179874
 20
3234.037977553413
 30
0.0
 10
2085.266525648992
 20
3234.037977553413
 30
0.0
 10
2084.488739801932
 20
3234.037977553413
 30
0.0
 10
2084.391713299985
 20
3234.037977553413
 30
0.0
 10
2084.343731804643
 20
3234.037977553413
 30
0.0
  0
LINE
  5
116
330
1F
100
AcDbEntity
  8
0
  6
Continuous
 62
     7
370
    15
100
AcDbLine
 10
2138.2347684641
 20
3220.0379789839
 30
0.0
 11
2138.2347684641
 21
3234.0379775534
 31
0.0
  0
LINE
  5
117
330
1F
100
AcDbEntity
  8
0
  6
Continuous
 62
     7
370
    15
100
AcDbLine
 10
2170.0421259095
 20
3234.0383351813
 30
0.0
 11
2169.1371877034
 21
3235.0356997023
 31
0.0
  0
SPLINE
  5
118
330
1F
100
AcDbEntity
  8
0
  6
Continuous
 62
     7
370
    15
100
AcDbSpline
210
0.0
220
0.0
230
1.0
 70
    24
 71
     3
 72
    25
 73
    21
 74
     0
 42
0.00000001
 43
0.00000001
 40
0.0
 40
0.0
 40
0.0
 40
0.0
 40
0.0724059317159594
 40
0.1434203694061759
 40
0.213147475587903
 40
0.2853363112342004
 40
0.3586550897115371
 40
0.4291542136354637
 40
0.4970360295134947
 40
0.5521733277267364
 40
0.6045269954848477
 40
0.6542800340494167
 40
0.7016457379536055
 40
0.7468711064254318
 40
0.7911763613231898
 40
0.832864767601703
 40
0.8723986264014344
 40
0.9368387362732172
 40
0.997917382443211
 40
1.0
 40
1.0
 40
1.0
 40
1.0
 10
2169.139762810324
 20
3235.03796467881
 30
0.0
 10
2170.763817489596
 20
3235.03796467881
 30
0.0
 10
2173.980715836418
 20
3235.03796467881
 30
0.0
 10
2178.731300875314
 20
3235.03796467881
 30
0.0
 10
2183.444692796865
 20
3235.03796467881
 30
0.0
 10
2188.165152869897
 20
3235.03796467881
 30
0.0
 10
2192.844497145163
 20
3235.03796467881
 30
0.0
 10
2197.355035513125
 20
3235.03796467881
 30
0.0
 10
2201.391423659576
 20
3235.03796467881
 30
0.0
 10
2204.959647428225
 20
3235.03796467881
 30
0.0
 10
2208.068167641775
 20
3235.03796467881
 30
0.0
 10
2210.916287449426
 20
3235.03796467881
 30
0.0
 10
2213.503998568759
 20
3235.03796467881
 30
0.0
 10
2215.847082472091
 20
3235.03796467881
 30
0.0
 10
2217.924032685254
 20
3235.03796467881
 30
0.0
 10
2219.695927842956
 20
3235.03796467881
 30
0.0
 10
2221.47431128259
 20
3235.03796467881
 30
0.0
 10
2222.838680503439
 20
3235.03796467881
 30
0.0
 10
2223.512692877567
 20
3235.037964678809
 30
0.0
 10
2223.331805919254
 20
3235.03796467881
 30
0.0
 10
2223.325841530118
 20
3235.03796467881
 30
0.0
  0
LINE
  5
119
330
1F
100
AcDbEntity
  8
0
  6
Continuous
 62
     7
370
    15
100
AcDbLine
 10
2169.1397171755
 20
3220.0379789839
 30
0.0
 11
2169.1397171755
 21
3235.0379646788
 31
0.0
  0
SPLINE
  5
11A
330
1F
100
AcDbEntity
  8
0
  6
Continuous
 62
     7
370
    15
100
AcDbSpline
210
0.0
220
0.0
230
1.0
 70
    24
 71
     3
 72
    24
 73
    20
 74
     0
 42
0.00000001
 43
0.00000001
 40
0.0
 40
0.0
 40
0.0
 40
0.0
 40
0.0590269095416798
 40
0.0905984524183681
 40
0.123449536043979
 40
0.1529231490872065
 40
0.1835584405999124
 40
0.2155705774748957
 40
0.2491482580361702
 40
0.2944472916010666
 40
0.34192232529761
 40
0.3918290441158924
 40
0.4443876612435383
 40
0.4997867820992432
 40
0.5958322574899892
 40
0.6972287880065692
 40
0.7988254369612678
 40
0.8980809208566193
 40
1.0
 40
1.0
 40
1.0
 40
1.0
 10
2223.325841530118
 20
1715.037983752296
 30
0.0
 10
2223.236326200831
 20
1715.037983752296
 30
0.0
 10
2223.098932080689
 20
1715.037983752296
 30
0.0
 10
2222.197176228688
 20
1715.037983752296
 30
0.0
 10
2221.307756442802
 20
1715.037983752296
 30
0.0
 10
2220.233162025586
 20
1715.037983752296
 30
0.0
 10
2219.01819284519
 20
1715.037983752296
 30
0.0
 10
2217.611320898478
 20
1715.037983752296
 30
0.0
 10
2215.855019895849
 20
1715.037983752296
 30
0.0
 10
2213.705531148411
 20
1715.037983752296
 30
0.0
 10
2211.123227970738
 20
1715.037983752296
 30
0.0
 10
2208.275193131773
 20
1715.037983752296
 30
0.0
 10
2205.161559961522
 20
1715.037983752296
 30
0.0
 10
2201.018016949153
 20
1715.037983752296
 30
0.0
 10
2195.720517137
 20
1715.037983752296
 30
0.0
 10
2189.282529675568
 20
1715.037983752296
 30
0.0
 10
2182.654087213515
 20
1715.037983752296
 30
0.0
 10
2175.934170094654
 20
1715.037983752296
 30
0.0
 10
2171.424477656649
 20
1715.037983752296
 30
0.0
 10
2169.139776780162
 20
1715.037983752296
 30
0.0
  0
LINE
  5
11B
330
1F
100
AcDbEntity
  8
0
  6
Continuous
 62
     7
370
    15
100
AcDbLine
 10
2169.1397171755
 20
1715.0379837523
 30
0.0
 11
2169.1397171755
 21
1715.1325167189
 31
0.0
  0
LINE
  5
11C
330
1F
100
AcDbEntity
  8
0
  6
Continuous
 62
     7
370
    15
100
AcDbLine
 10
2169.1397171755
 20
1715.1325167189
 30
0.0
 11
2170.1305046965
 21
1716.0374940405
 31
0.0
  0
LINE
  5
11D
330
1F
100
AcDbEntity
  8
0
  6
Continuous
 62
     7
370
    15
100
AcDbLine
 10
2169.1397171755
 20
1715.1325167189
 30
0.0
 11
2169.1397171755
 21
1730.0379694472
 31
0.0
  0
LINE
  5
11E
330
1F
100
AcDbEntity
  8
0
  6
Continuous
 62
     7
370
    15
100
AcDbLine
 10
2139.1405877014
 20
3235.036414958
 30
0.0
 11
2138.2345337708
 21
3234.0383947859
 31
0.0
  0
LINE
  5
11F
330
1F
100
AcDbEntity
  8
0
  6
Continuous
 62
     7
370
    15
100
AcDbLine
 10
2139.1397159834
 20
3235.0379646788
 30
0.0
 11
2139.1397159834
 21
3220.0379789839
 31
0.0
  0
SPLINE
  5
120
330
1F
100
AcDbEntity
  8
0
  6
Continuous
 62
     7
370
    15
100
AcDbSpline
210
0.0
220
0.0
230
1.0
 70
    24
 71
     3
 72
    24
 73
    20
 74
     0
 42
0.00000001
 43
0.00000001
 40
0.0
 40
0.0
 40
0.0
 40
0.0
 40
0.0590768594346835
 40
0.0906463843937336
 40
0.1234832450627602
 40
0.1529665813581205
 40
0.1836058880307147
 40
0.2156157455531774
 40
0.2491841699550849
 40
0.2944876256664349
 40
0.3419636253053417
 40
0.3918679305380007
 40
0.444421007611833
 40
0.4998116667989896
 40
0.5958466994863135
 40
0.6972509867441578
 40
0.7988376507765685
 40
0.8980732600824912
 40
1.0
 40
1.0
 40
1.0
 40
1.0
 10
2085.361116035734
 20
3235.03796467881
 30
0.0
 10
2085.449791165775
 20
3235.03796467881
 30
0.0
 10
2085.585852561061
 20
3235.03796467881
 30
0.0
 10
2086.477828788072
 20
3235.03796467881
 30
0.0
 10
2087.357615687667
 20
3235.03796467881
 30
0.0
 10
2088.421180037387
 20
3235.03796467881
 30
0.0
 10
2089.624422494468
 20
3235.03796467881
 30
0.0
 10
2091.018037491241
 20
3235.03796467881
 30
0.0
 10
2092.758439135565
 20
3235.03796467881
 30
0.0
 10
2094.889395075996
 20
3235.03796467881
 30
0.0
 10
2097.450562678455
 20
3235.03796467881
 30
0.0
 10
2100.275993222582
 20
3235.03796467881
 30
0.0
 10
2103.365557514413
 20
3235.03796467881
 30
0.0
 10
2107.477920137906
 20
3235.03796467881
 30
0.0
 10
2112.737260017694
 20
3235.03796467881
 30
0.0
 10
2119.130411326413
 20
3235.03796467881
 30
0.0
 10
2125.713754658148
 20
3235.03796467881
 30
0.0
 10
2132.388910538117
 20
3235.03796467881
 30
0.0
 10
2136.869427788563
 20
3235.03796467881
 30
0.0
 10
2139.13965637878
 20
3235.03796467881
 30
0.0
  0
LINE
  5
121
330
1F
100
AcDbEntity
  8
0
  6
Continuous
 62
     7
370
    15
100
AcDbLine
 10
2139.1397159834
 20
1730.0379694472
 30
0.0
 11
2139.1397159834
 21
1715.1298941145
 31
0.0
  0
LINE
  5
122
330
1F
100
AcDbEntity
  8
0
  6
Continuous
 62
     7
370
    15
100
AcDbLine
 10
2138.1465126117
 20
1716.0375536452
 30
0.0
 11
2139.1397159834
 21
1715.1298941145
 31
0.0
  0
LINE
  5
123
330
1F
100
AcDbEntity
  8
0
  6
Continuous
 62
     7
370
    15
100
AcDbLine
 10
2139.1397159834
 20
1715.1298941145
 30
0.0
 11
2139.1397159834
 21
1715.0379837523
 31
0.0
  0
SPLINE
  5
124
330
1F
100
AcDbEntity
  8
0
  6
Continuous
 62
     7
370
    15
100
AcDbSpline
210
0.0
220
0.0
230
1.0
 70
    24
 71
     3
 72
    25
 73
    21
 74
     0
 42
0.00000001
 43
0.00000001
 40
0.0
 40
0.0
 40
0.0
 40
0.0
 40
0.072434146764634
 40
0.1434608220406574
 40
0.2131838161623691
 40
0.2853694882435939
 40
0.3586922173215888
 40
0.4291869523488449
 40
0.4970560694715327
 40
0.5521881936059221
 40
0.6045397954140694
 40
0.6542940554940769
 40
0.701664554776978
 40
0.7468985904775555
 40
0.7911924192698766
 40
0.8328831250359892
 40
0.8724316945504524
 40
0.9368571038502945
 40
0.9979536651334466
 40
1.0
 40
1.0
 40
1.0
 40
1.0
 10
2139.139671279941
 20
1715.037983752296
 30
0.0
 10
2137.525403858223
 20
1715.037983752296
 30
0.0
 10
2134.328235924904
 20
1715.037983752296
 30
0.0
 10
2129.607922812316
 20
1715.037983752296
 30
0.0
 10
2124.925709646069
 20
1715.037983752296
 30
0.0
 10
2120.237200517798
 20
1715.037983752296
 30
0.0
 10
2115.590155051478
 20
1715.037983752296
 30
0.0
 10
2111.111664742093
 20
1715.037983752296
 30
0.0
 10
2107.104897227918
 20
1715.037983752296
 30
0.0
 10
2103.563580101702
 20
1715.037983752296
 30
0.0
 10
2100.478966939347
 20
1715.037983752296
 30
0.0
 10
2097.653341806095
 20
1715.037983752296
 30
0.0
 10
2095.086708282361
 20
1715.037983752296
 30
0.0
 10
2092.763827593405
 20
1715.037983752296
 30
0.0
 10
2090.705824975328
 20
1715.037983752295
 30
0.0
 10
2088.951002436915
 20
1715.037983752296
 30
0.0
 10
2087.191053064554
 20
1715.037983752296
 30
0.0
 10
2085.842319780625
 20
1715.037983752297
 30
0.0
 10
2085.176556915221
 20
1715.037983752295
 30
0.0
 10
2085.355315381108
 20
1715.037983752296
 30
0.0
 10
2085.361108585153
 20
1715.037983752296
 30
0.0
  0
LINE
  5
125
330
1F
100
AcDbEntity
  8
0
  6
Continuous
 62
     7
370
    15
100
AcDbLine
 10
2140.8844072659
 20
1737.0379985342
 30
0.0
 11
2141.0772282918
 21
1737.0379985342
 31
0.0
  0
LINE
  5
126
330
1F
100
AcDbEntity
  8
0
  6
Continuous
 62
     8
370
    15
100
AcDbLine
 10
2153.0053805848
 20
4254.2462767134
 30
0.0
 11
2214.3437288989
 21
4254.2462767134
 31
0.0
  0
LINE
  5
127
330
1F
100
AcDbEntity
  8
0
  6
Continuous
 62
     8
370
    15
100
AcDbLine
 10
2094.3437297185
 20
4254.2462767134
 30
0.0
 11
2153.0053805848
 21
4254.2462767134
 31
0.0
  0
DIMENSION
  5
128
330
1F
100
AcDbEntity
  8
0
  6
Continuous
 62
     7
370
     0
100
AcDbDimension
  2
_D
 10
2424.4437290033
 20
1715.0379693621
 30
0.0
 11
2424.4437290033
 21
2481.9210301975
 31
0.0
 70
    32
  1
<>
 71
     2
 42
-1.0
 73
     0
 74
     0
 75
     0
  3
SLDDIMSTYLE0
100
AcDbAlignedDimension
 13
2213.5587206863
 23
3235.0379693621
 33
0.0
 14
2223.3437318963
 24
1715.0379693621
 34
0.0
 50
90.0
100
AcDbRotatedDimension
  0
DIMENSION
  5
133
330
1F
100
AcDbEntity
  8
0
  6
Continuous
 62
     7
370
     0
100
AcDbDimension
  2
_D_1
 10
2424.4437290033
 20
4251.2462831833
 30
0.0
 11
2424.4437290033
 21
3730.0356322021
 31
0.0
 70
    32
  1
2500
 71
     2
 42
-1.0
 73
     0
 74
     0
 75
     0
  3
SLDDIMSTYLE0
100
AcDbAlignedDimension
 13
2213.5587206863
 23
3235.0379693621
 33
0.0
 14
2211.3437290033
 24
4251.2462831833
 34
0.0
 50
90.0
100
AcDbRotatedDimension
  0
DIMENSION
  5
13D
330
1F
100
AcDbEntity
  8
0
  6
Continuous
 62
     7
370
     0
100
AcDbDimension
  2
*D6
 10
2214.3437290033
 20
4463.493146525657
 30
0.0
 11
2154.3437290033
 21
4515.993146525657
 31
0.0
 70
    32
  1
%%c<>
 71
     2
 42
-1.0
 73
     0
 74
     0
 75
     0
  3
SLDDIMSTYLE1
100
AcDbAlignedDimension
 13
2094.3437290033
 23
4299.2462831833
 33
0.0
 14
2214.3437290033
 24
4299.2462831833
 34
0.0
100
AcDbRotatedDimension
  0
ENDSEC
  0
SECTION
  2
OBJECTS
  0
DICTIONARY
  5
C
330
0
100
AcDbDictionary
281
     1
  3
ACAD_COLOR
350
6C
  3
ACAD_GROUP
350
D
  3
ACAD_LAYOUT
350
1A
  3
ACAD_MATERIAL
350
6B
  3
ACAD_MLEADERSTYLE
350
1B8
  3
ACAD_MLINESTYLE
350
17
  3
ACAD_PLOTSETTINGS
350
19
  3
ACAD_PLOTSTYLENAME
350
E
  3
ACAD_SCALELIST
350
99
  3
ACAD_TABLESTYLE
350
92
  3
AcDbVariableDictionary
350
59
  0
DICTIONARY
  5
1B7
330
1F
100
AcDbDictionary
280
     1
281
     1
  0
DICTIONARY
  5
6C
102
{ACAD_REACTORS
330
C
102
}
330
C
100
AcDbDictionary
281
     1
  0
DICTIONARY
  5
D
102
{ACAD_REACTORS
330
C
102
}
330
C
100
AcDbDictionary
281
     1
  0
DICTIONARY
  5
1A
102
{ACAD_REACTORS
330
C
102
}
330
C
100
AcDbDictionary
281
     1
  3
Layout1
350
74
  3
Layout2
350
26
  3
Model
350
22
  0
DICTIONARY
  5
6B
102
{ACAD_REACTORS
330
C
102
}
330
C
100
AcDbDictionary
281
     1
  0
DICTIONARY
  5
1B8
102
{ACAD_REACTORS
330
C
102
}
330
C
100
AcDbDictionary
281
     1
  0
DICTIONARY
  5
17
102
{ACAD_REACTORS
330
C
102
}
330
C
100
AcDbDictionary
281
     1
  3
Standard
350
18
  0
DICTIONARY
  5
19
102
{ACAD_REACTORS
330
C
102
}
330
C
100
AcDbDictionary
281
     1
  0
ACDBDICTIONARYWDFLT
  5
E
102
{ACAD_REACTORS
330
C
102
}
330
C
100
AcDbDictionary
281
     1
  3
Normal
350
F
100
AcDbDictionaryWithDefault
340
F
  0
DICTIONARY
  5
99
102
{ACAD_REACTORS
330
C
102
}
330
C
100
AcDbDictionary
281
     1
  3
A0
350
14C
  3
A1
350
14D
  3
A2
350
14E
  3
A3
350
14F
  3
A4
350
150
  3
A5
350
151
  3
A6
350
152
  3
A7
350
153
  3
A8
350
154
  3
A9
350
155
  3
B0
350
156
  3
B1
350
157
  3
B2
350
158
  3
B3
350
159
  3
B4
350
15A
  3
B5
350
15B
  3
B6
350
15C
  3
B7
350
15D
  3
B8
350
15E
  3
B9
350
15F
  3
C0
350
160
  3
C1
350
161
  3
C2
350
162
  3
C3
350
163
  3
C4
350
164
  3
C5
350
165
  3
C6
350
166
  3
C7
350
167
  3
C8
350
168
  3
C9
350
169
  3
D0
350
16A
  3
D1
350
16B
  3
D2
350
16C
  0
DICTIONARY
  5
92
102
{ACAD_REACTORS
330
C
102
}
330
C
100
AcDbDictionary
281
     1
  3
Standard
350
93
  0
DICTIONARY
  5
59
102
{ACAD_REACTORS
330
C
102
}
330
C
100
AcDbDictionary
281
     1
  3
CANNOSCALE
350
1B9
  3
CTABLESTYLE
350
98
  3
DIMASSOC
350
16F
  3
HIDETEXT
350
5E
  0
LAYOUT
  5
74
102
{ACAD_REACTORS
330
1A
102
}
330
1A
100
AcDbPlotSettings
  1

  2
none_device
  4
ISO_C5_(229.00_x_162.00_MM)
  6

 40
0.0
 41
0.0
 42
0.0
 43
0.0
 44
229.0
 45
162.0
 46
0.0
 47
0.0
 48
0.0
 49
0.0
140
0.0
141
0.0
142
1.0
143
1.0
 70
   688
 72
     1
 73
     0
 74
     5
  7

 75
    16
 76
     0
 77
     2
 78
   300
147
1.0
148
0.0
149
0.0
100
AcDbLayout
  1
Layout1
 70
     1
 71
     1
 10
0.0
 20
0.0
 11
420.0
 21
297.0
 12
0.0
 22
0.0
 32
0.0
 14
1.000000000000000E+20
 24
1.000000000000000E+20
 34
1.000000000000000E+20
 15
-1.000000000000000E+20
 25
-1.000000000000000E+20
 35
-1.000000000000000E+20
146
0.0
 13
0.0
 23
0.0
 33
0.0
 16
1.0
 26
0.0
 36
0.0
 17
0.0
 27
1.0
 37
0.0
 76
     0
330
73
  0
LAYOUT
  5
26
102
{ACAD_REACTORS
330
1A
102
}
330
1A
100
AcDbPlotSettings
  1

  2
none_device
  4
ISO_C5_(229.00_x_162.00_MM)
  6

 40
0.0
 41
0.0
 42
0.0
 43
0.0
 44
229.0
 45
162.0
 46
0.0
 47
0.0
 48
0.0
 49
0.0
140
0.0
141
0.0
142
1.0
143
1.0
 70
   688
 72
     1
 73
     0
 74
     5
  7

 75
    16
 76
     0
 77
     2
 78
   300
147
1.0
148
0.0
149
0.0
100
AcDbLayout
  1
Layout2
 70
     1
 71
     2
 10
0.0
 20
0.0
 11
0.0
 21
0.0
 12
0.0
 22
0.0
 32
0.0
 14
0.0
 24
0.0
 34
0.0
 15
0.0
 25
0.0
 35
0.0
146
0.0
 13
0.0
 23
0.0
 33
0.0
 16
1.0
 26
0.0
 36
0.0
 17
0.0
 27
1.0
 37
0.0
 76
     0
330
23
  0
LAYOUT
  5
22
102
{ACAD_REACTORS
330
1A
102
}
330
1A
100
AcDbPlotSettings
  1

  2
none_device
  4
ISO_C5_(229.00_x_162.00_MM)
  6

 40
0.0
 41
0.0
 42
0.0
 43
0.0
 44
229.0
 45
162.0
 46
0.0
 47
0.0
 48
0.0
 49
0.0
140
0.0
141
0.0
142
1.0
143
1.0
 70
 11952
 72
     1
 73
     0
 74
     0
  7

 75
    16
 76
     0
 77
     2
 78
   300
147
1.0
148
0.0
149
0.0
100
AcDbLayout
  1
Model
 70
     1
 71
     0
 10
0.0
 20
0.0
 11
4200.0
 21
5940.0
 12
0.0
 22
0.0
 32
0.0
 14
1.5768713071
 24
4.2956031328
 34
0.0
 15
4201.5768713071
 25
5944.2956031328
 35
0.1
146
0.0
 13
0.0
 23
0.0
 33
0.0
 16
1.0
 26
0.0
 36
0.0
 17
0.0
 27
1.0
 37
0.0
 76
     0
330
1F
331
97
  0
MLINESTYLE
  5
18
102
{ACAD_REACTORS
330
17
102
}
330
17
100
AcDbMlineStyle
  2
Standard
 70
     0
  3

 62
   256
 51
90.0
 52
90.0
 71
     2
 49
0.5
 62
   256
  6
BYLAYER
 49
-0.5
 62
   256
  6
BYLAYER
  0
ACDBPLACEHOLDER
  5
F
102
{ACAD_REACTORS
330
E
102
}
330
E
  0
SCALE
  5
14C
102
{ACAD_REACTORS
330
99
102
}
330
99
100
AcDbScale
 70
     0
300
1:1
140
1.0
141
1.0
290
     1
  0
SCALE
  5
14D
102
{ACAD_REACTORS
330
99
102
}
330
99
100
AcDbScale
 70
     0
300
1:2
140
1.0
141
2.0
290
     0
  0
SCALE
  5
14E
102
{ACAD_REACTORS
330
99
102
}
330
99
100
AcDbScale
 70
     0
300
1:4
140
1.0
141
4.0
290
     0
  0
SCALE
  5
14F
102
{ACAD_REACTORS
330
99
102
}
330
99
100
AcDbScale
 70
     0
300
1:5
140
1.0
141
5.0
290
     0
  0
SCALE
  5
150
102
{ACAD_REACTORS
330
99
102
}
330
99
100
AcDbScale
 70
     0
300
1:8
140
1.0
141
8.0
290
     0
  0
SCALE
  5
151
102
{ACAD_REACTORS
330
99
102
}
330
99
100
AcDbScale
 70
     0
300
1:10
140
1.0
141
10.0
290
     0
  0
SCALE
  5
152
102
{ACAD_REACTORS
330
99
102
}
330
99
100
AcDbScale
 70
     0
300
1:16
140
1.0
141
16.0
290
     0
  0
SCALE
  5
153
102
{ACAD_REACTORS
330
99
102
}
330
99
100
AcDbScale
 70
     0
300
1:20
140
1.0
141
20.0
290
     0
  0
SCALE
  5
154
102
{ACAD_REACTORS
330
99
102
}
330
99
100
AcDbScale
 70
     0
300
1:30
140
1.0
141
30.0
290
     0
  0
SCALE
  5
155
102
{ACAD_REACTORS
330
99
102
}
330
99
100
AcDbScale
 70
     0
300
1:40
140
1.0
141
40.0
290
     0
  0
SCALE
  5
156
102
{ACAD_REACTORS
330
99
102
}
330
99
100
AcDbScale
 70
     0
300
1:50
140
1.0
141
50.0
290
     0
  0
SCALE
  5
157
102
{ACAD_REACTORS
330
99
102
}
330
99
100
AcDbScale
 70
     0
300
1:100
140
1.0
141
100.0
290
     0
  0
SCALE
  5
158
102
{ACAD_REACTORS
330
99
102
}
330
99
100
AcDbScale
 70
     0
300
2:1
140
2.0
141
1.0
290
     0
  0
SCALE
  5
159
102
{ACAD_REACTORS
330
99
102
}
330
99
100
AcDbScale
 70
     0
300
4:1
140
4.0
141
1.0
290
     0
  0
SCALE
  5
15A
102
{ACAD_REACTORS
330
99
102
}
330
99
100
AcDbScale
 70
     0
300
8:1
140
8.0
141
1.0
290
     0
  0
SCALE
  5
15B
102
{ACAD_REACTORS
330
99
102
}
330
99
100
AcDbScale
 70
     0
300
10:1
140
10.0
141
1.0
290
     0
  0
SCALE
  5
15C
102
{ACAD_REACTORS
330
99
102
}
330
99
100
AcDbScale
 70
     0
300
100:1
140
100.0
141
1.0
290
     0
  0
SCALE
  5
15D
102
{ACAD_REACTORS
330
99
102
}
330
99
100
AcDbScale
 70
     0
300
1/128" = 1'-0"
140
0.0078125
141
12.0
290
     0
  0
SCALE
  5
15E
102
{ACAD_REACTORS
330
99
102
}
330
99
100
AcDbScale
 70
     0
300
1/64" = 1'-0"
140
0.015625
141
12.0
290
     0
  0
SCALE
  5
15F
102
{ACAD_REACTORS
330
99
102
}
330
99
100
AcDbScale
 70
     0
300
1/32" = 1'-0"
140
0.03125
141
12.0
290
     0
  0
SCALE
  5
160
102
{ACAD_REACTORS
330
99
102
}
330
99
100
AcDbScale
 70
     0
300
1/16" = 1'-0"
140
0.0625
141
12.0
290
     0
  0
SCALE
  5
161
102
{ACAD_REACTORS
330
99
102
}
330
99
100
AcDbScale
 70
     0
300
3/32" = 1'-0"
140
0.09375
141
12.0
290
     0
  0
SCALE
  5
162
102
{ACAD_REACTORS
330
99
102
}
330
99
100
AcDbScale
 70
     0
300
1/8" = 1'-0"
140
0.125
141
12.0
290
     0
  0
SCALE
  5
163
102
{ACAD_REACTORS
330
99
102
}
330
99
100
AcDbScale
 70
     0
300
3/16" = 1'-0"
140
0.1875
141
12.0
290
     0
  0
SCALE
  5
164
102
{ACAD_REACTORS
330
99
102
}
330
99
100
AcDbScale
 70
     0
300
1/4" = 1'-0"
140
0.25
141
12.0
290
     0
  0
SCALE
  5
165
102
{ACAD_REACTORS
330
99
102
}
330
99
100
AcDbScale
 70
     0
300
3/8" = 1'-0"
140
0.375
141
12.0
290
     0
  0
SCALE
  5
166
102
{ACAD_REACTORS
330
99
102
}
330
99
100
AcDbScale
 70
     0
300
1/2" = 1'-0"
140
0.5
141
12.0
290
     0
  0
SCALE
  5
167
102
{ACAD_REACTORS
330
99
102
}
330
99
100
AcDbScale
 70
     0
300
3/4" = 1'-0"
140
0.75
141
12.0
290
     0
  0
SCALE
  5
168
102
{ACAD_REACTORS
330
99
102
}
330
99
100
AcDbScale
 70
     0
300
1" = 1'-0"
140
1.0
141
12.0
290
     0
  0
SCALE
  5
169
102
{ACAD_REACTORS
330
99
102
}
330
99
100
AcDbScale
 70
     0
300
1-1/2" = 1'-0"
140
1.5
141
12.0
290
     0
  0
SCALE
  5
16A
102
{ACAD_REACTORS
330
99
102
}
330
99
100
AcDbScale
 70
     0
300
3" = 1'-0"
140
3.0
141
12.0
290
     0
  0
SCALE
  5
16B
102
{ACAD_REACTORS
330
99
102
}
330
99
100
AcDbScale
 70
     0
300
6" = 1'-0"
140
6.0
141
12.0
290
     0
  0
SCALE
  5
16C
102
{ACAD_REACTORS
330
99
102
}
330
99
100
AcDbScale
 70
     0
300
1'-0" = 1'-0"
140
12.0
141
12.0
290
     0
  0
TABLESTYLE
  5
93
102
{ACAD_REACTORS
330
92
102
}
330
92
100
AcDbTableStyle
  3
Standard
 70
     0
 71
     0
 40
0.06
 41
0.06
280
     0
281
     0
  7
Standard
140
0.18
170
     2
 62
     0
 63
     7
283
     0
 90
      512
 91
        0
  1

274
    -2
284
     1
 64
     0
275
    -2
285
     1
 65
     0
276
    -2
286
     1
 66
     0
277
    -2
287
     1
 67
     0
278
    -2
288
     1
 68
     0
279
    -2
289
     1
 69
     0
  7
Standard
140
0.25
170
     5
 62
     0
 63
     7
283
     0
 90
      512
 91
        0
  1

274
    -2
284
     1
 64
     0
275
    -2
285
     1
 65
     0
276
    -2
286
     1
 66
     0
277
    -2
287
     1
 67
     0
278
    -2
288
     1
 68
     0
279
    -2
289
     1
 69
     0
  7
Standard
140
0.18
170
     5
 62
     0
 63
     7
283
     0
 90
      512
 91
        0
  1

274
    -2
284
     1
 64
     0
275
    -2
285
     1
 65
     0
276
    -2
286
     1
 66
     0
277
    -2
287
     1
 67
     0
278
    -2
288
     1
 68
     0
279
    -2
289
     1
 69
     0
  0
DICTIONARYVAR
  5
1B9
102
{ACAD_REACTORS
330
59
102
}
330
59
100
DictionaryVariables
280
     0
  1
1:1
  0
DICTIONARYVAR
  5
98
102
{ACAD_REACTORS
330
59
102
}
330
59
100
DictionaryVariables
280
     0
  1
Standard
  0
DICTIONARYVAR
  5
16F
102
{ACAD_REACTORS
330
59
102
}
330
59
100
DictionaryVariables
280
     0
  1
2
  0
DICTIONARYVAR
  5
5E
102
{ACAD_REACTORS
330
59
102
}
330
59
100
DictionaryVariables
280
     0
  1
1
  0
ENDSEC
  0
EOF
