  0
SECTION
  2
HEADER
  9
$ACADVER
  1
AC1021
  9
$ACADMAINTVER
 70
    25
  9
$DWGCODEPAGE
  3
ANSI_1252
  9
$LASTSAVEDBY
  1
Josep Sancho
  9
$INSBASE
 10
0.0
 20
0.0
 30
0.0
  9
$EXTMIN
 10
1.5768713071
 20
4.2956031328
 30
0.0
  9
$EXTMAX
 10
4201.5768713071
 20
5944.2956031328
 30
0.1
  9
$LIMMIN
 10
0.0
 20
0.0
  9
$LIMMAX
 10
4200.0
 20
5940.0
  9
$ORTHOMODE
 70
     0
  9
$REGENMODE
 70
     1
  9
$FILLMODE
 70
     1
  9
$QTEXTMODE
 70
     0
  9
$MIRRTEXT
 70
     1
  9
$LTSCALE
 40
20.0
  9
$ATTMODE
 70
     1
  9
$TEXTSIZE
 40
70.0
  9
$TRACEWID
 40
1.0
  9
$TEXTSTYLE
  7
Standard
  9
$CLAYER
  8
0
  9
$CELTYPE
  6
ByLayer
  9
$CECOLOR
 62
   256
  9
$CELTSCALE
 40
1.0
  9
$DISPSILH
 70
     0
  9
$DIMSCALE
 40
1.0
  9
$DIMASZ
 40
66.04
  9
$DIMEXO
 40
20.0
  9
$DIMDLI
 40
3.75
  9
$DIMRND
 40
0.0
  9
$DIMDLE
 40
0.0
  9
$DIMEXE
 40
20.0
  9
$DIMTP
 40
0.0
  9
$DIMTM
 40
0.0
  9
$DIMTXT
 40
70.0
  9
$DIMCEN
 40
2.5
  9
$DIMTSZ
 40
0.0
  9
$DIMTOL
 70
     0
  9
$DIMLIM
 70
     0
  9
$DIMTIH
 70
     1
  9
$DIMTOH
 70
     1
  9
$DIMSE1
 70
     0
  9
$DIMSE2
 70
     0
  9
$DIMTAD
 70
     1
  9
$DIMZIN
 70
     0
  9
$DIMBLK
  1

  9
$DIMASO
 70
     1
  9
$DIMSHO
 70
     1
  9
$DIMPOST
  1

  9
$DIMAPOST
  1

  9
$DIMALT
 70
     0
  9
$DIMALTD
 70
     3
  9
$DIMALTF
 40
0.0393700787
  9
$DIMLFAC
 40
1.0
  9
$DIMTOFL
 70
     1
  9
$DIMTVP
 40
0.0
  9
$DIMTIX
 70
     0
  9
$DIMSOXD
 70
     0
  9
$DIMSAH
 70
     0
  9
$DIMBLK1
  1

  9
$DIMBLK2
  1

  9
$DIMSTYLE
  2
ISO-25
  9
$DIMCLRD
 70
     0
  9
$DIMCLRE
 70
     0
  9
$DIMCLRT
 70
     0
  9
$DIMTFAC
 40
1.0
  9
$DIMGAP
 40
30.48
  9
$DIMJUST
 70
     0
  9
$DIMSD1
 70
     0
  9
$DIMSD2
 70
     0
  9
$DIMTOLJ
 70
     0
  9
$DIMTZIN
 70
     0
  9
$DIMALTZ
 70
     0
  9
$DIMALTTZ
 70
     0
  9
$DIMUPT
 70
     0
  9
$DIMDEC
 70
     3
  9
$DIMTDEC
 70
     3
  9
$DIMALTU
 70
     2
  9
$DIMALTTD
 70
     3
  9
$DIMTXSTY
  7
Standard
  9
$DIMAUNIT
 70
     0
  9
$DIMADEC
 70
     2
  9
$DIMALTRND
 40
0.0
  9
$DIMAZIN
 70
     0
  9
$DIMDSEP
 70
    44
  9
$DIMATFIT
 70
     3
  9
$DIMFRAC
 70
     0
  9
$DIMLDRBLK
  1

  9
$DIMLUNIT
 70
     2
  9
$DIMLWD
 70
    -2
  9
$DIMLWE
 70
    -2
  9
$DIMTMOVE
 70
     0
  9
$DIMFXL
 40
1.0
  9
$DIMFXLON
 70
     0
  9
$DIMJOGANG
 40
0.7853981633974483
  9
$DIMTFILL
 70
     0
  9
$DIMTFILLCLR
 70
     0
  9
$DIMARCSYM
 70
     0
  9
$DIMLTYPE
  6

  9
$DIMLTEX1
  6

  9
$DIMLTEX2
  6

  9
$LUNITS
 70
     2
  9
$LUPREC
 70
     2
  9
$SKETCHINC
 40
1.0
  9
$FILLETRAD
 40
10.0
  9
$AUNITS
 70
     0
  9
$AUPREC
 70
     2
  9
$MENU
  1
.
  9
$ELEVATION
 40
0.0
  9
$PELEVATION
 40
0.0
  9
$THICKNESS
 40
0.0
  9
$LIMCHECK
 70
     0
  9
$CHAMFERA
 40
10.0
  9
$CHAMFERB
 40
10.0
  9
$CHAMFERC
 40
20.0
  9
$CHAMFERD
 40
0.0
  9
$SKPOLY
 70
     0
  9
$TDCREATE
 40
2453353.800459155
  9
$TDUCREATE
 40
2453353.717125822
  9
$TDUPDATE
 40
2457309.789549653
  9
$TDUUPDATE
 40
2457309.706216319
  9
$TDINDWG
 40
0.0428935301
  9
$TDUSRTIMER
 40
0.0428935301
  9
$USRTIMER
 70
     1
  9
$ANGBASE
 50
0.0
  9
$ANGDIR
 70
     0
  9
$PDMODE
 70
     0
  9
$PDSIZE
 40
-1.0
  9
$PLINEWID
 40
0.0
  9
$SPLFRAME
 70
     0
  9
$SPLINETYPE
 70
     6
  9
$SPLINESEGS
 70
     8
  9
$HANDSEED
  5
1AB
  9
$SURFTAB1
 70
     6
  9
$SURFTAB2
 70
     6
  9
$SURFTYPE
 70
     6
  9
$SURFU
 70
     6
  9
$SURFV
 70
     6
  9
$UCSBASE
  2

  9
$UCSNAME
  2

  9
$UCSORG
 10
0.0
 20
0.0
 30
0.0
  9
$UCSXDIR
 10
1.0
 20
0.0
 30
0.0
  9
$UCSYDIR
 10
0.0
 20
1.0
 30
0.0
  9
$UCSORTHOREF
  2

  9
$UCSORTHOVIEW
 70
     0
  9
$UCSORGTOP
 10
0.0
 20
0.0
 30
0.0
  9
$UCSORGBOTTOM
 10
0.0
 20
0.0
 30
0.0
  9
$UCSORGLEFT
 10
0.0
 20
0.0
 30
0.0
  9
$UCSORGRIGHT
 10
0.0
 20
0.0
 30
0.0
  9
$UCSORGFRONT
 10
0.0
 20
0.0
 30
0.0
  9
$UCSORGBACK
 10
0.0
 20
0.0
 30
0.0
  9
$PUCSBASE
  2

  9
$PUCSNAME
  2

  9
$PUCSORG
 10
0.0
 20
0.0
 30
0.0
  9
$PUCSXDIR
 10
1.0
 20
0.0
 30
0.0
  9
$PUCSYDIR
 10
0.0
 20
1.0
 30
0.0
  9
$PUCSORTHOREF
  2

  9
$PUCSORTHOVIEW
 70
     0
  9
$PUCSORGTOP
 10
0.0
 20
0.0
 30
0.0
  9
$PUCSORGBOTTOM
 10
0.0
 20
0.0
 30
0.0
  9
$PUCSORGLEFT
 10
0.0
 20
0.0
 30
0.0
  9
$PUCSORGRIGHT
 10
0.0
 20
0.0
 30
0.0
  9
$PUCSORGFRONT
 10
0.0
 20
0.0
 30
0.0
  9
$PUCSORGBACK
 10
0.0
 20
0.0
 30
0.0
  9
$USERI1
 70
     0
  9
$USERI2
 70
     0
  9
$USERI3
 70
     0
  9
$USERI4
 70
     0
  9
$USERI5
 70
     0
  9
$USERR1
 40
0.0
  9
$USERR2
 40
0.0
  9
$USERR3
 40
0.0
  9
$USERR4
 40
0.0
  9
$USERR5
 40
0.0
  9
$WORLDVIEW
 70
     1
  9
$SHADEDGE
 70
     3
  9
$SHADEDIF
 70
    70
  9
$TILEMODE
 70
     1
  9
$MAXACTVP
 70
    64
  9
$PINSBASE
 10
0.0
 20
0.0
 30
0.0
  9
$PLIMCHECK
 70
     0
  9
$PEXTMIN
 10
1.000000000000000E+20
 20
1.000000000000000E+20
 30
1.000000000000000E+20
  9
$PEXTMAX
 10
-1.000000000000000E+20
 20
-1.000000000000000E+20
 30
-1.000000000000000E+20
  9
$PLIMMIN
 10
0.0
 20
0.0
  9
$PLIMMAX
 10
420.0
 20
297.0
  9
$UNITMODE
 70
     0
  9
$VISRETAIN
 70
     1
  9
$PLINEGEN
 70
     0
  9
$PSLTSCALE
 70
     1
  9
$TREEDEPTH
 70
  3020
  9
$CMLSTYLE
  2
Standard
  9
$CMLJUST
 70
     0
  9
$CMLSCALE
 40
20.0
  9
$PROXYGRAPHICS
 70
     1
  9
$MEASUREMENT
 70
     1
  9
$CELWEIGHT
370
    -1
  9
$ENDCAPS
280
     0
  9
$JOINSTYLE
280
     0
  9
$LWDISPLAY
290
     1
  9
$INSUNITS
 70
     4
  9
$HYPERLINKBASE
  1

  9
$STYLESHEET
  1

  9
$XEDIT
290
     0
  9
$CEPSNTYPE
380
     0
  9
$PSTYLEMODE
290
     1
  9
$FINGERPRINTGUID
  2
{13CDD21B-DD1F-4F9D-B88B-8D3E54C6ABD1}
  9
$VERSIONGUID
  2
{FAEB1C32-E019-11D5-929B-00C0DF256EC4}
  9
$EXTNAMES
290
     1
  9
$PSVPSCALE
 40
0.0
  9
$OLESTARTUP
290
     0
  9
$SORTENTS
280
   127
  9
$INDEXCTL
280
     0
  9
$HIDETEXT
280
     1
  9
$XCLIPFRAME
290
     0
  9
$HALOGAP
280
     0
  9
$OBSCOLOR
 70
   257
  9
$OBSLTYPE
280
     0
  9
$INTERSECTIONDISPLAY
280
     0
  9
$INTERSECTIONCOLOR
 70
   257
  9
$DIMASSOC
280
     2
  9
$PROJECTNAME
  1

  9
$CAMERADISPLAY
290
     0
  9
$LENSLENGTH
 40
50.0
  9
$CAMERAHEIGHT
 40
0.0
  9
$STEPSPERSEC
 40
2.0
  9
$STEPSIZE
 40
6.0
  9
$3DDWFPREC
 40
2.0
  9
$PSOLWIDTH
 40
0.25
  9
$PSOLHEIGHT
 40
4.0
  9
$LOFTANG1
 40
1.570796326794897
  9
$LOFTANG2
 40
1.570796326794897
  9
$LOFTMAG1
 40
0.0
  9
$LOFTMAG2
 40
0.0
  9
$LOFTPARAM
 70
     7
  9
$LOFTNORMALS
280
     1
  9
$LATITUDE
 40
37.795
  9
$LONGITUDE
 40
-122.394
  9
$NORTHDIRECTION
 40
0.0
  9
$TIMEZONE
 70
 -8000
  9
$LIGHTGLYPHDISPLAY
280
     1
  9
$TILEMODELIGHTSYNCH
280
     1
  9
$SOLIDHIST
280
     1
  9
$SHOWHIST
280
     1
  9
$DWFFRAME
280
     2
  9
$DGNFRAME
280
     2
  9
$REALWORLDSCALE
290
     1
  9
$INTERFERECOLOR
 62
   256
  9
$CSHADOW
280
     0
  9
$SHADOWPLANELOCATION
 40
0.0
  0
ENDSEC
  0
SECTION
  2
CLASSES
  0
CLASS
  1
ACDBDICTIONARYWDFLT
  2
AcDbDictionaryWithDefault
  3
ObjectDBX Classes
 90
        0
 91
        4
280
     0
281
     0
  0
CLASS
  1
ACDBPLACEHOLDER
  2
AcDbPlaceHolder
  3
ObjectDBX Classes
 90
        0
 91
        1
280
     0
281
     0
  0
CLASS
  1
LAYOUT
  2
AcDbLayout
  3
ObjectDBX Classes
 90
        0
 91
        1
280
     0
281
     0
  0
CLASS
  1
DICTIONARYVAR
  2
AcDbDictionaryVar
  3
ObjectDBX Classes
 90
        0
 91
        4
280
     0
281
     0
  0
CLASS
  1
TABLESTYLE
  2
AcDbTableStyle
  3
ObjectDBX Classes
 90
     4095
 91
        4
280
     0
281
     0
  0
CLASS
  1
SCALE
  2
AcDbScale
  3
ObjectDBX Classes
 90
     1153
 91
        4
280
     0
281
     0
  0
ENDSEC
  0
SECTION
  2
TABLES
  0
TABLE
  2
VPORT
  5
8
330
0
100
AcDbSymbolTable
 70
     2
  0
VPORT
  5
97
330
8
100
AcDbSymbolTableRecord
100
AcDbViewportTableRecord
  2
*Active
 70
     0
 10
0.0
 20
0.0
 11
1.0
 21
1.0
 12
2585.02239657922
 22
3225.896789231426
 13
0.0
 23
0.0
 14
10.0
 24
10.0
 15
10.0
 25
10.0
 16
0.0
 26
0.0
 36
1.0
 17
0.0
 27
0.0
 37
0.0
 40
2757.594202933347
 41
0.7070707071
 42
50.0
 43
0.0
 44
0.0
 50
0.0
 51
0.0
 71
    16
 72
  2000
 73
     1
 74
     3
 75
     0
 76
     0
 77
     0
 78
     0
281
     0
 65
     0
110
0.0
120
0.0
130
0.0
111
1.0
121
0.0
131
0.0
112
0.0
122
1.0
132
0.0
 79
     0
146
0.0
 60
     3
 61
     5
292
     1
282
     1
141
0.0
142
0.0
 63
   256
  0
ENDTAB
  0
TABLE
  2
LTYPE
  5
5
330
0
100
AcDbSymbolTable
 70
     6
  0
LTYPE
  5
14
330
5
100
AcDbSymbolTableRecord
100
AcDbLinetypeTableRecord
  2
ByBlock
 70
     0
  3

 72
    65
 73
     0
 40
0.0
  0
LTYPE
  5
15
330
5
100
AcDbSymbolTableRecord
100
AcDbLinetypeTableRecord
  2
ByLayer
 70
     0
  3

 72
    65
 73
     0
 40
0.0
  0
LTYPE
  5
16
330
5
100
AcDbSymbolTableRecord
100
AcDbLinetypeTableRecord
  2
Continuous
 70
     0
  3
Solid line
 72
    65
 73
     0
 40
0.0
  0
LTYPE
  5
175
330
5
100
AcDbSymbolTableRecord
100
AcDbLinetypeTableRecord
  2
HIDDEN
 70
     0
  3
Hidden __ __ __ __ __ __ __ __ __ __ __ __ __ __
 72
    65
 73
     2
 40
1.905
 49
1.27
 74
     4
 75
     0
340
0
 46
1.0
 50
0.0
 44
0.0
 45
0.0
 49
-0.635
 74
     4
 75
     0
340
0
 46
1.0
 50
0.0
 44
0.0
 45
0.0
  0
LTYPE
  5
176
330
5
100
AcDbSymbolTableRecord
100
AcDbLinetypeTableRecord
  2
PHANTOM
 70
     0
  3
Phantom ______  __  __  ______  __  __  ______
 72
    65
 73
     6
 40
12.7
 49
6.35
 74
     4
 75
     0
340
0
 46
1.0
 50
0.0
 44
0.0
 45
0.0
 49
-1.27
 74
     4
 75
     0
340
0
 46
1.0
 50
0.0
 44
0.0
 45
0.0
 49
1.27
 74
     4
 75
     0
340
0
 46
1.0
 50
0.0
 44
0.0
 45
0.0
 49
-1.27
 74
     4
 75
     0
340
0
 46
1.0
 50
0.0
 44
0.0
 45
0.0
 49
1.27
 74
     4
 75
     0
340
0
 46
1.0
 50
0.0
 44
0.0
 45
0.0
 49
-1.27
 74
     4
 75
     0
340
0
 46
1.0
 50
0.0
 44
0.0
 45
0.0
  0
LTYPE
  5
177
330
5
100
AcDbSymbolTableRecord
100
AcDbLinetypeTableRecord
  2
CENTER
 70
     0
  3
Center ____ _ ____ _ ____ _ ____ _ ____ _ ____
 72
    65
 73
     4
 40
10.16
 49
6.35
 74
     4
 75
     0
340
0
 46
1.0
 50
0.0
 44
0.0
 45
0.0
 49
-1.27
 74
     4
 75
     0
340
0
 46
1.0
 50
0.0
 44
0.0
 45
0.0
 49
1.27
 74
     4
 75
     0
340
0
 46
1.0
 50
0.0
 44
0.0
 45
0.0
 49
-1.27
 74
     4
 75
     0
340
0
 46
1.0
 50
0.0
 44
0.0
 45
0.0
  0
LTYPE
  5
178
330
5
100
AcDbSymbolTableRecord
100
AcDbLinetypeTableRecord
  2
CENTERX2
 70
     0
  3
Center (2x) ________  __  ________  __  _____
 72
    65
 73
     4
 40
20.32
 49
12.7
 74
     4
 75
     0
340
0
 46
1.0
 50
0.0
 44
0.0
 45
0.0
 49
-2.54
 74
     4
 75
     0
340
0
 46
1.0
 50
0.0
 44
0.0
 45
0.0
 49
2.54
 74
     4
 75
     0
340
0
 46
1.0
 50
0.0
 44
0.0
 45
0.0
 49
-2.54
 74
     4
 75
     0
340
0
 46
1.0
 50
0.0
 44
0.0
 45
0.0
  0
LTYPE
  5
179
330
5
100
AcDbSymbolTableRecord
100
AcDbLinetypeTableRecord
  2
DOT2
 70
     0
  3
Dot (.5x) ........................................
 72
    65
 73
     2
 40
0.635
 49
0.0
 74
     4
 75
     0
340
0
 46
1.0
 50
0.0
 44
0.0
 45
0.0
 49
-0.635
 74
     4
 75
     0
340
0
 46
1.0
 50
0.0
 44
0.0
 45
0.0
  0
ENDTAB
  0
TABLE
  2
LAYER
  5
2
330
0
100
AcDbSymbolTable
 70
     2
  0
LAYER
  5
10
330
2
100
AcDbSymbolTableRecord
100
AcDbLayerTableRecord
  2
0
 70
     0
 62
     7
  6
Continuous
370
    -3
390
F
347
0
  0
LAYER
  5
44
330
2
100
AcDbSymbolTableRecord
100
AcDbLayerTableRecord
  2
FORMAT
 70
     0
 62
     7
  6
Continuous
370
    -3
390
F
347
0
  0
ENDTAB
  0
TABLE
  2
STYLE
  5
3
330
0
100
AcDbSymbolTable
 70
     3
  0
STYLE
  5
11
330
3
100
AcDbSymbolTableRecord
100
AcDbTextStyleTableRecord
  2
Standard
 70
     0
 40
0.0
 41
1.0
 50
0.0
 71
     0
 42
70.0
  3
txt
  4

  0
STYLE
  5
68
330
3
100
AcDbSymbolTableRecord
100
AcDbTextStyleTableRecord
  2
SLDTEXTSTYLE0
 70
     0
 40
0.0
 41
0.75
 50
0.0
 71
     0
 42
0.2
  3
TXT
  4

  0
STYLE
  5
174
330
3
100
AcDbSymbolTableRecord
100
AcDbTextStyleTableRecord
  2
SLDTEXTSTYLE1
 70
     0
 40
0.0
 41
0.6818181818
 50
0.0
 71
     0
 42
0.2
  3
TXT
  4

  0
ENDTAB
  0
TABLE
  2
VIEW
  5
6
330
0
100
AcDbSymbolTable
 70
     0
  0
ENDTAB
  0
TABLE
  2
UCS
  5
7
330
0
100
AcDbSymbolTable
 70
     0
  0
ENDTAB
  0
TABLE
  2
APPID
  5
9
330
0
100
AcDbSymbolTable
 70
     1
  0
APPID
  5
12
330
9
100
AcDbSymbolTableRecord
100
AcDbRegAppTableRecord
  2
ACAD
 70
     0
  0
ENDTAB
  0
TABLE
  2
DIMSTYLE
  5
A
330
0
100
AcDbSymbolTable
 70
     4
100
AcDbDimStyleTable
  0
DIMSTYLE
105
27
330
A
100
AcDbSymbolTableRecord
100
AcDbDimStyleTableRecord
  2
Standard
 70
     0
278
     0
340
11
  0
DIMSTYLE
105
17A
330
A
100
AcDbSymbolTableRecord
100
AcDbDimStyleTableRecord
  2
ISO-25
 70
     0
 41
2.5
 42
0.625
 43
3.75
 44
1.25
 73
     0
 74
     0
 77
     1
 78
     8
140
2.5
141
2.5
143
0.0393700787
147
0.625
171
     3
172
     1
271
     2
272
     2
274
     3
278
    44
283
     0
284
     8
340
11
  0
DIMSTYLE
105
12A
102
{ACAD_REACTORS
330
129
330
134
102
}
330
A
100
AcDbSymbolTableRecord
100
AcDbDimStyleTableRecord
  2
SLDDIMSTYLE0
 70
     0
 41
66.04
 44
0.0
 45
0.000000001
 73
     0
 74
     0
 77
     1
 78
    12
 79
     3
140
70.0
147
17.5
173
     1
271
     3
272
     3
276
     2
284
    12
340
68
  0
DIMSTYLE
105
13F
102
{ACAD_REACTORS
330
13E
102
}
330
A
100
AcDbSymbolTableRecord
100
AcDbDimStyleTableRecord
  2
SLDDIMSTYLE1
 70
     0
 41
66.04
 44
0.0
 45
0.000000001
 73
     0
 74
     0
 77
     1
 78
    12
 79
     3
140
70.0
147
17.5
172
     1
173
     1
271
     3
272
     3
276
     2
284
    12
289
     0
340
68
  0
ENDTAB
  0
TABLE
  2
BLOCK_RECORD
  5
1
330
0
100
AcDbSymbolTable
 70
     6
  0
BLOCK_RECORD
  5
1F
102
{ACAD_XDICTIONARY
360
1A8
102
}
330
1
100
AcDbSymbolTableRecord
100
AcDbBlockTableRecord
  2
*Model_Space
340
22
 70
     0
280
     1
281
     0
  0
BLOCK_RECORD
  5
73
330
1
100
AcDbSymbolTableRecord
100
AcDbBlockTableRecord
  2
*Paper_Space
340
74
 70
     0
280
     1
281
     0
  0
BLOCK_RECORD
  5
23
330
1
100
AcDbSymbolTableRecord
100
AcDbBlockTableRecord
  2
*Paper_Space0
340
26
 70
     0
280
     1
281
     0
  0
BLOCK_RECORD
  5
77
330
1
100
AcDbSymbolTableRecord
100
AcDbBlockTableRecord
  2
SW_NOTE_0
340
0
 70
     0
280
     1
281
     0
  0
BLOCK_RECORD
  5
7F
330
1
100
AcDbSymbolTableRecord
100
AcDbBlockTableRecord
  2
SW_NOTE_1
340
0
 70
     0
280
     1
281
     0
  0
BLOCK_RECORD
  5
12B
330
1
100
AcDbSymbolTableRecord
100
AcDbBlockTableRecord
  2
_D
340
0
 70
     0
280
     1
281
     0
  0
BLOCK_RECORD
  5
135
330
1
100
AcDbSymbolTableRecord
100
AcDbBlockTableRecord
  2
_D_1
340
0
 70
     0
280
     1
281
     0
  0
BLOCK_RECORD
  5
140
330
1
100
AcDbSymbolTableRecord
100
AcDbBlockTableRecord
  2
_D_2
340
0
 70
     0
280
     1
281
     0
  0
ENDTAB
  0
ENDSEC
  0
SECTION
  2
BLOCKS
  0
BLOCK
  5
20
330
1F
100
AcDbEntity
  8
0
100
AcDbBlockBegin
  2
*Model_Space
 70
     0
 10
0.0
 20
0.0
 30
0.0
  3
*Model_Space
  1

  0
ENDBLK
  5
21
330
1F
100
AcDbEntity
  8
0
100
AcDbBlockEnd
  0
BLOCK
  5
75
330
73
100
AcDbEntity
 67
     1
  8
0
100
AcDbBlockBegin
  2
*Paper_Space
 70
     0
 10
0.0
 20
0.0
 30
0.0
  3
*Paper_Space
  1

  0
ENDBLK
  5
76
330
73
100
AcDbEntity
 67
     1
  8
0
100
AcDbBlockEnd
  0
BLOCK
  5
17B
330
23
100
AcDbEntity
  8
0
100
AcDbBlockBegin
  2
*Paper_Space0
 70
     0
 10
0.0
 20
0.0
 30
0.0
  3
*Paper_Space0
  1

  0
ENDBLK
  5
17C
330
23
100
AcDbEntity
  8
0
100
AcDbBlockEnd
  0
BLOCK
  5
17D
330
77
100
AcDbEntity
  8
0
100
AcDbBlockBegin
  2
SW_NOTE_0
 70
     0
 10
0.0
 20
0.0
 30
0.0
  3
SW_NOTE_0
  1

  0
MTEXT
  5
7A
330
77
100
AcDbEntity
  8
0
  6
Continuous
 62
     0
370
     0
100
AcDbMText
 10
0.0
 20
38.6720321932
 30
0.0
 40
30.0
 41
0.0
 46
0.0
 71
     1
 72
     1
  1
REBARBAR Y
  7
SLDTEXTSTYLE0
 73
     1
 44
1.0
  0
MTEXT
  5
7B
330
77
100
AcDbEntity
  8
0
  6
Continuous
 62
     0
370
     0
100
AcDbMText
 10
0.0
 20
-11.3279666893
 30
0.0
 40
30.0
 41
0.0
 46
0.0
 71
     1
 72
     1
  1
ROMPER ARISTAS
  7
SLDTEXTSTYLE0
 73
     1
 44
1.0
  0
MTEXT
  5
7C
330
77
100
AcDbEntity
  8
0
  6
Continuous
 62
     0
370
     0
100
AcDbMText
 10
0.0
 20
-61.3279655717
 30
0.0
 40
30.0
 41
0.0
 46
0.0
 71
     1
 72
     1
  1
VIVAS
  7
SLDTEXTSTYLE0
 73
     1
 44
1.0
  0
ENDBLK
  5
17E
330
77
100
AcDbEntity
  8
0
100
AcDbBlockEnd
  0
BLOCK
  5
17F
330
7F
100
AcDbEntity
  8
0
100
AcDbBlockBegin
  2
SW_NOTE_1
 70
     0
 10
0.0
 20
0.0
 30
0.0
  3
SW_NOTE_1
  1

  0
MTEXT
  5
82
330
7F
100
AcDbEntity
  8
0
  6
Continuous
 62
     0
370
     0
100
AcDbMText
 10
0.0
 20
38.6720321932
 30
0.0
 40
30.0
 41
0.0
 46
0.0
 71
     1
 72
     1
  1
SI NO SE INDICA LO CONTRARIO:
  7
SLDTEXTSTYLE0
 73
     1
 44
1.0
  0
MTEXT
  5
83
330
7F
100
AcDbEntity
  8
0
  6
Continuous
 62
     0
370
     0
100
AcDbMText
 10
0.0
 20
-11.3279666893
 30
0.0
 40
30.0
 41
0.0
 46
0.0
 71
     1
 72
     1
  1
LAS COTAS SE EXPRESAN EN MM
  7
SLDTEXTSTYLE0
 73
     1
 44
1.0
  0
MTEXT
  5
84
330
7F
100
AcDbEntity
  8
0
  6
Continuous
 62
     0
370
     0
100
AcDbMText
 10
0.0
 20
-61.3279655717
 30
0.0
 40
30.0
 41
0.0
 46
0.0
 71
     1
 72
     1
  1
ACABADO SUPERFICIAL:
  7
SLDTEXTSTYLE0
 73
     1
 44
1.0
  0
MTEXT
  5
85
330
7F
100
AcDbEntity
  8
0
  6
Continuous
 62
     0
370
     0
100
AcDbMText
 10
0.0
 20
-111.3279644541
 30
0.0
 40
30.0
 41
0.0
 46
0.0
 71
     1
 72
     1
  1
TOLERANCIAS:
  7
SLDTEXTSTYLE0
 73
     1
 44
1.0
  0
MTEXT
  5
86
330
7F
100
AcDbEntity
  8
0
  6
Continuous
 62
     0
370
     0
100
AcDbMText
 10
33.75
 20
-161.3279633365
 30
0.0
 40
30.0
 41
0.0
 46
0.0
 71
     1
 72
     1
  1
LINEAL:
  7
SLDTEXTSTYLE0
 73
     1
 44
1.0
  0
MTEXT
  5
87
330
7F
100
AcDbEntity
  8
0
  6
Continuous
 62
     0
370
     0
100
AcDbMText
 10
33.75
 20
-211.3279622189
 30
0.0
 40
30.0
 41
0.0
 46
0.0
 71
     1
 72
     1
  1
ANGULAR:
  7
SLDTEXTSTYLE0
 73
     1
 44
1.0
  0
ENDBLK
  5
180
330
7F
100
AcDbEntity
  8
0
100
AcDbBlockEnd
  0
BLOCK
  5
181
330
12B
100
AcDbEntity
  8
0
100
AcDbBlockBegin
  2
_D
 70
     0
 10
0.0
 20
0.0
 30
0.0
  3
_D
  1

  0
SOLID
  5
12E
330
12B
100
AcDbEntity
  8
0
  6
Continuous
 62
     7
370
     0
100
AcDbTrace
 10
2428.9010267454
 20
1940.1410384109
 30
0.0
 11
2439.0610267454
 21
2006.1810384109
 31
0.0
 12
2418.7410267454
 22
2006.1810384109
 32
0.0
 13
2418.7410267454
 23
2006.1810384109
 33
0.0
  0
SOLID
  5
12F
330
12B
100
AcDbEntity
  8
0
  6
Continuous
 62
     7
370
     0
100
AcDbTrace
 10
2428.9010267454
 20
3160.1410384109
 30
0.0
 11
2418.7410267454
 21
3094.1010384109
 31
0.0
 12
2439.0610267454
 22
3094.1010384109
 32
0.0
 13
2439.0610267454
 23
3094.1010384109
 33
0.0
  0
LINE
  5
130
330
12B
100
AcDbEntity
  8
0
  6
Continuous
 62
     7
370
     0
100
AcDbLine
 10
2247.8010296384
 20
1940.1410384109
 30
0.0
 11
2448.9010267454
 21
1940.1410384109
 31
0.0
  0
LINE
  5
131
330
12B
100
AcDbEntity
  8
0
  6
Continuous
 62
     7
370
     0
100
AcDbLine
 10
2238.0160184285
 20
3160.1410384109
 30
0.0
 11
2448.9010267454
 21
3160.1410384109
 31
0.0
  0
LINE
  5
132
330
12B
100
AcDbEntity
  8
0
  6
Continuous
 62
     7
370
     0
100
AcDbLine
 10
2428.9010267454
 20
1940.1410384109
 30
0.0
 11
2428.9010267454
 21
3160.1410384109
 31
0.0
  0
MTEXT
  5
133
330
12B
100
AcDbEntity
  8
0
  6
Continuous
 62
     7
370
     0
100
AcDbMText
 10
2338.6662884539
 20
2445.1410673248
 30
0.1
 40
70.0
 41
0.0
 46
0.0
 71
     1
 72
     1
  1
1220
  7
SLDTEXTSTYLE0
 11
6.123233995736766E-17
 21
1.0
 31
0.0
 73
     1
 44
1.0
  0
ENDBLK
  5
182
330
12B
100
AcDbEntity
  8
0
100
AcDbBlockEnd
  0
BLOCK
  5
183
330
135
100
AcDbEntity
  8
0
100
AcDbBlockBegin
  2
_D_1
 70
     0
 10
0.0
 20
0.0
 30
0.0
  3
_D_1
  1

  0
SOLID
  5
138
330
135
100
AcDbEntity
  8
0
  6
Continuous
 62
     7
370
     0
100
AcDbTrace
 10
2428.9010267454
 20
3160.1410384109
 30
0.0
 11
2439.0610267454
 21
3226.1810384109
 31
0.0
 12
2418.7410267454
 22
3226.1810384109
 32
0.0
 13
2418.7410267454
 23
3226.1810384109
 33
0.0
  0
SOLID
  5
139
330
135
100
AcDbEntity
  8
0
  6
Continuous
 62
     7
370
     0
100
AcDbTrace
 10
2428.9010267454
 20
4185.9406734905
 30
0.0
 11
2418.7410267454
 21
4119.9006734905
 31
0.0
 12
2439.0610267454
 22
4119.9006734905
 32
0.0
 13
2439.0610267454
 23
4119.9006734905
 33
0.0
  0
LINE
  5
13A
330
135
100
AcDbEntity
  8
0
  6
Continuous
 62
     7
370
     0
100
AcDbLine
 10
2238.0160184285
 20
3160.1410384109
 30
0.0
 11
2448.9010267454
 21
3160.1410384109
 31
0.0
  0
LINE
  5
13B
330
135
100
AcDbEntity
  8
0
  6
Continuous
 62
     7
370
     0
100
AcDbLine
 10
2235.8010267454
 20
4185.9406734905
 30
0.0
 11
2448.9010267454
 21
4185.9406734905
 31
0.0
  0
LINE
  5
13C
330
135
100
AcDbEntity
  8
0
  6
Continuous
 62
     7
370
     0
100
AcDbLine
 10
2428.9010267454
 20
3160.1410384109
 30
0.0
 11
2428.9010267454
 21
4185.9406734905
 31
0.0
  0
MTEXT
  5
13D
330
135
100
AcDbEntity
  8
0
  6
Continuous
 62
     7
370
     0
100
AcDbMText
 10
2338.6662884539
 20
3639.0377624443
 30
0.1
 40
70.0
 41
0.0
 46
0.0
 71
     1
 72
     1
  1
2500
  7
SLDTEXTSTYLE0
 11
6.123233995736766E-17
 21
1.0
 31
0.0
 73
     1
 44
1.0
  0
ENDBLK
  5
184
330
135
100
AcDbEntity
  8
0
100
AcDbBlockEnd
  0
BLOCK
  5
185
330
140
100
AcDbEntity
  8
0
100
AcDbBlockBegin
  2
_D_2
 70
     0
 10
0.0
 20
0.0
 30
0.0
  3
_D_2
  1

  0
SOLID
  5
143
330
140
100
AcDbEntity
  8
0
  6
Continuous
 62
     7
370
     0
100
AcDbTrace
 10
2218.8010267454
 20
4455.654748474
 30
0.0
 11
2284.8410267454
 21
4445.494748474
 31
0.0
 12
2284.8410267454
 22
4465.814748474
 32
0.0
 13
2284.8410267454
 23
4465.814748474
 33
0.0
  0
SOLID
  5
144
330
140
100
AcDbEntity
  8
0
  6
Continuous
 62
     7
370
     0
100
AcDbTrace
 10
2098.8010267454
 20
4455.654748474
 30
0.0
 11
2032.7610267454
 21
4465.814748474
 31
0.0
 12
2032.7610267454
 22
4445.494748474
 32
0.0
 13
2032.7610267454
 23
4445.494748474
 33
0.0
  0
LINE
  5
145
330
140
100
AcDbEntity
  8
0
  6
Continuous
 62
     7
370
     0
100
AcDbLine
 10
2218.8010267454
 20
4253.9406734905
 30
0.0
 11
2218.8010267454
 21
4475.654748474
 31
0.0
  0
LINE
  5
146
330
140
100
AcDbEntity
  8
0
  6
Continuous
 62
     7
370
     0
100
AcDbLine
 10
2098.8010267454
 20
4253.9406734905
 30
0.0
 11
2098.8010267454
 21
4475.654748474
 31
0.0
  0
LINE
  5
147
330
140
100
AcDbEntity
  8
0
  6
Continuous
 62
     7
370
     0
100
AcDbLine
 10
2218.8010267454
 20
4455.654748474
 30
0.0
 11
2345.8010267454
 21
4455.654748474
 31
0.0
  0
LINE
  5
148
330
140
100
AcDbEntity
  8
0
  6
Continuous
 62
     7
370
     0
100
AcDbLine
 10
2218.8010267454
 20
4455.654748474
 30
0.0
 11
2098.8010267454
 21
4455.654748474
 31
0.0
  0
LINE
  5
149
330
140
100
AcDbEntity
  8
0
  6
Continuous
 62
     7
370
     0
100
AcDbLine
 10
2098.8010267454
 20
4455.654748474
 30
0.0
 11
1971.8010267454
 21
4455.654748474
 31
0.0
  0
MTEXT
  5
14A
330
140
100
AcDbEntity
  8
0
  6
Continuous
 62
     7
370
     0
100
AcDbMText
 10
1996.8842543596
 20
4545.8894902581
 30
0.1
 40
70.0
 41
0.0
 46
0.0
 71
     1
 72
     1
  1
%%c
  7
SLDTEXTSTYLE0
 73
     1
 44
1.0
  0
MTEXT
  5
14B
330
140
100
AcDbEntity
  8
0
  6
Continuous
 62
     7
370
     0
100
AcDbMText
 10
2102.453002327
 20
4546.9589337913
 30
0.1
 40
70.0
 41
0.0
 46
0.0
 71
     1
 72
     1
  1
120
  7
SLDTEXTSTYLE0
 73
     1
 44
1.0
  0
ENDBLK
  5
186
330
140
100
AcDbEntity
  8
0
100
AcDbBlockEnd
  0
ENDSEC
  0
SECTION
  2
ENTITIES
  0
LINE
  5
8E
330
1F
100
AcDbEntity
  8
0
  6
Continuous
 62
     7
370
    15
100
AcDbLine
 10
2159.4260267454
 20
3159.8777909364
 30
0.0
 11
2159.4260267454
 21
4185.9406734905
 31
0.0
  0
LINE
  5
91
330
1F
100
AcDbEntity
  8
0
  6
Continuous
 62
     7
370
    15
100
AcDbLine
 10
2158.1760267454
 20
4185.9406734905
 30
0.0
 11
2158.1760267454
 21
3159.8777909364
 31
0.0
  0
LINE
  5
187
330
1F
100
AcDbEntity
  8
0
  6
Continuous
 62
     7
370
    15
100
AcDbLine
 10
2164.3010267454
 20
4177.9406734905
 30
0.0
 11
2164.3010267454
 21
4178.4406734905
 31
0.0
  0
LINE
  5
188
330
1F
100
AcDbEntity
  8
0
  6
Continuous
 62
     7
370
    15
100
AcDbLine
 10
2153.3010267454
 20
4178.4406734905
 30
0.0
 11
2153.3010267454
 21
4177.9406734905
 31
0.0
  0
LINE
  5
94
330
1F
100
AcDbEntity
  8
0
  6
Continuous
 62
     7
370
    15
100
AcDbLine
 10
2149.8010267454
 20
4180.4406734905
 30
0.0
 11
2152.9260267454
 21
4178.4406734905
 31
0.0
  0
LINE
  5
95
330
1F
100
AcDbEntity
  8
0
  6
Continuous
 62
     7
370
    15
100
AcDbLine
 10
2164.6760267454
 20
4178.4406734905
 30
0.0
 11
2167.8010267454
 21
4180.4406734905
 31
0.0
  0
LINE
  5
96
330
1F
100
AcDbEntity
  8
0
  6
Continuous
 62
     7
370
    15
100
AcDbLine
 10
2149.8010267454
 20
4185.9406734905
 30
0.0
 11
2149.8010267454
 21
4180.4406734905
 31
0.0
  0
LINE
  5
189
330
1F
100
AcDbEntity
  8
0
  6
Continuous
 62
     7
370
    15
100
AcDbLine
 10
2167.8010267454
 20
4180.4406734905
 30
0.0
 11
2167.8010267454
 21
4185.9406734905
 31
0.0
  0
ARC
  5
18A
330
1F
100
AcDbEntity
  8
0
  6
Continuous
 62
     7
370
    15
100
AcDbCircle
 10
2101.8010267454
 20
4188.9406734905
 30
0.0
 40
3.000000000000909
100
AcDbArc
 50
180.0
 51
270.0
  0
ARC
  5
18B
330
1F
100
AcDbEntity
  8
0
  6
Continuous
 62
     7
370
    15
100
AcDbCircle
 10
2215.8010267454
 20
4188.9406734905
 30
0.0
 40
3.000000000000909
100
AcDbArc
 50
270.0
 51
0.0
  0
LINE
  5
18C
330
1F
100
AcDbEntity
  8
0
  6
Continuous
 62
     7
370
    15
100
AcDbLine
 10
2098.8010267454
 20
4233.9406734905
 30
0.0
 11
2098.8010267454
 21
4188.9406734905
 31
0.0
  0
LINE
  5
18D
330
1F
100
AcDbEntity
  8
0
  6
Continuous
 62
     7
370
    15
100
AcDbLine
 10
2218.8010267454
 20
4188.9406734905
 30
0.0
 11
2218.8010267454
 21
4233.9406734905
 31
0.0
  0
SPLINE
  5
18E
330
1F
100
AcDbEntity
  8
0
  6
Continuous
 62
     7
370
    15
100
AcDbSpline
210
0.0
220
0.0
230
1.0
 70
     8
 71
     3
 72
    23
 73
    19
 74
     0
 42
0.00000001
 43
0.00000001
 40
0.0
 40
0.0
 40
0.0
 40
0.0
 40
0.0431975557288801
 40
0.1181022062234251
 40
0.1886682640623626
 40
0.2550768762696886
 40
0.317497420214197
 40
0.3760880389385586
 40
0.4309961524629706
 40
0.4823589450953057
 40
0.5420946297789746
 40
0.5966602459700999
 40
0.6462661078675488
 40
0.6911017095791584
 40
0.7313368325225558
 40
0.8445929727304371
 40
0.9610100051647132
 40
1.0
 40
1.0
 40
1.0
 40
1.0
 10
2162.236133390442
 20
3159.398453195309
 30
0.0
 10
2162.210696016752
 20
3162.951931275271
 30
0.0
 10
2162.141150184754
 20
3172.667147655663
 30
0.0
 10
2162.017861661939
 20
3188.186544695045
 30
0.0
 10
2161.871208164196
 20
3205.614727318502
 30
0.0
 10
2161.723624382849
 20
3222.01542330201
 30
0.0
 10
2161.576853190642
 20
3237.430567536026
 30
0.0
 10
2161.431767468594
 20
3251.899282304004
 30
0.0
 10
2161.289324331109
 20
3265.458052416811
 30
0.0
 10
2161.139715337785
 20
3279.110512944807
 30
0.0
 10
2160.983918589703
 20
3292.734277677384
 30
0.0
 10
2160.823096464403
 20
3306.212987612188
 30
0.0
 10
2160.67133391895
 20
3318.465913993965
 30
0.0
 10
2160.529545733309
 20
3329.540011648475
 30
0.0
 10
2160.314798479378
 20
3345.847341253387
 30
0.0
 10
2160.005891283507
 20
3368.038779947301
 30
0.0
 10
2159.682124498981
 20
3390.126205093145
 30
0.0
 10
2159.477391987454
 20
3402.900593861807
 30
0.0
 10
2159.426026745435
 20
3406.105554157779
 30
0.0
  0
SPLINE
  5
18F
330
1F
100
AcDbEntity
  8
0
  6
Continuous
 62
     7
370
    15
100
AcDbSpline
210
0.0
220
0.0
230
1.0
 70
     8
 71
     3
 72
    21
 73
    17
 74
     0
 42
0.00000001
 43
0.00000001
 40
0.0
 40
0.0
 40
0.0
 40
0.0
 40
0.04306710475674
 40
0.1705956662697798
 40
0.2464661315125663
 40
0.322271967054871
 40
0.3980402374657913
 40
0.4737641437002422
 40
0.5494401061728128
 40
0.6250783528478837
 40
0.6898828218595344
 40
0.7547766922421376
 40
0.8199723000794834
 40
0.8854123991973647
 40
0.9509277951550488
 40
1.0
 40
1.0
 40
1.0
 40
1.0
 10
2158.176026745435
 20
3478.517945999906
 30
0.0
 10
2158.019616357733
 20
3487.460703155605
 30
0.0
 10
2157.400049882292
 20
3522.884389606842
 30
0.0
 10
2156.336474588476
 20
3574.039476181835
 30
0.0
 10
2155.120773993712
 20
3631.986971975642
 30
0.0
 10
2154.136080589109
 20
3679.192925397083
 30
0.0
 10
2153.226121342691
 20
3726.379513123556
 30
0.0
 10
2152.473173733872
 20
3773.560032331278
 30
0.0
 10
2151.982725864462
 20
3820.740178419553
 30
0.0
 10
2151.87151459531
 20
3865.670080389749
 30
0.0
 10
2152.157220944172
 20
3908.352124105107
 30
0.0
 10
2152.802205858924
 20
3948.833282175964
 30
0.0
 10
2153.836089552306
 20
3989.387723044761
 30
0.0
 10
2155.207770379766
 20
4029.99663949763
 30
0.0
 10
2156.671389485572
 20
4067.212612344789
 30
0.0
 10
2157.72487218405
 20
4090.862488469133
 30
0.0
 10
2158.176026745435
 20
4100.990561293788
 30
0.0
  0
SPLINE
  5
190
330
1F
100
AcDbEntity
  8
0
  6
Continuous
 62
     7
370
    15
100
AcDbSpline
210
0.0
220
0.0
230
1.0
 70
     8
 71
     3
 72
     9
 73
     5
 74
     0
 42
0.00000001
 43
0.00000001
 40
0.0
 40
0.0
 40
0.0
 40
0.0
 40
0.4713021942495552
 40
1.0
 40
1.0
 40
1.0
 40
1.0
 10
2159.426026745435
 20
4128.350251869561
 30
0.0
 10
2159.786840586309
 20
4136.145479276985
 30
0.0
 10
2160.552408507011
 20
4152.685244002328
 30
0.0
 10
2161.372160254676
 20
4169.206121701755
 30
0.0
 10
2161.805561204927
 20
4177.940673490514
 30
0.0
  0
SPLINE
  5
191
330
1F
100
AcDbEntity
  8
0
  6
Continuous
 62
     7
370
    15
100
AcDbSpline
210
0.0
220
0.0
230
1.0
 70
     8
 71
     3
 72
    47
 73
    43
 74
     0
 42
0.00000001
 43
0.00000001
 40
0.0
 40
0.0
 40
0.0
 40
0.0
 40
0.0342551623148065
 40
0.0981237065128165
 40
0.139939116743944
 40
0.181719368660952
 40
0.2233334532062808
 40
0.2647649184657976
 40
0.3061515470896594
 40
0.347531529303831
 40
0.394563940567402
 40
0.441617706757039
 40
0.4887027949174603
 40
0.535822988696854
 40
0.5829609006920573
 40
0.6301216284501248
 40
0.6503466552576483
 40
0.6705868831821368
 40
0.6908151936385404
 40
0.7108212085769352
 40
0.7300235283952495
 40
0.7482966737162564
 40
0.7655480914108995
 40
0.7720121895473009
 40
0.7787475208564597
 40
0.7862503050843187
 40
0.79454209271848
 40
0.803646675150977
 40
0.813405307916512
 40
0.8240008437598406
 40
0.8354633731996489
 40
0.8478257378793117
 40
0.8613743503823823
 40
0.8759338391669391
 40
0.8915486197009896
 40
0.908266743483312
 40
0.9261400947473818
 40
0.9410301537137157
 40
0.9566967891616006
 40
0.9731706505860827
 40
0.9904841476436138
 40
1.0
 40
1.0
 40
1.0
 40
1.0
 10
2154.797203485631
 20
4177.940673490514
 30
0.0
 10
2154.229932141678
 20
4166.387939014219
 30
0.0
 10
2152.604986787292
 20
4133.295200560535
 30
0.0
 10
2150.451044684699
 20
4086.041648653518
 30
0.0
 10
2148.427174133165
 20
4036.170448291224
 30
0.0
 10
2146.962345434495
 20
3993.754616449975
 30
0.0
 10
2145.848552551126
 20
3951.390145440686
 30
0.0
 10
2145.159732764529
 20
3909.093220546679
 30
0.0
 10
2144.879315417235
 20
3866.842662286901
 30
0.0
 10
2144.974738068713
 20
3822.68152338056
 30
0.0
 10
2145.430500067383
 20
3776.608713017315
 30
0.0
 10
2146.184125940318
 20
3728.623369112669
 30
0.0
 10
2147.10543813534
 20
3680.630280979167
 30
0.0
 10
2148.10484735904
 20
3632.620231779026
 30
0.0
 10
2149.11769050181
 20
3584.586504062595
 30
0.0
 10
2149.913550914958
 20
3545.684139019085
 30
0.0
 10
2150.497485474404
 20
3515.914981756498
 30
0.0
 10
2150.890241882017
 20
3495.293918270482
 30
0.0
 10
2151.268767472795
 20
3474.745514225996
 30
0.0
 10
2151.627457411749
 20
3454.548016719722
 30
0.0
 10
2151.961203921019
 20
3435.013244891054
 30
0.0
 10
2152.266639699509
 20
3416.413104322163
 30
0.0
 10
2152.491854523733
 20
3402.141257949822
 30
0.0
 10
2152.650715848587
 20
3391.790585078224
 30
0.0
 10
2152.757023930258
 20
3384.753421911408
 30
0.0
 10
2152.870723138834
 20
3377.09476667642
 30
0.0
 10
2152.993930020489
 20
3368.630462280537
 30
0.0
 10
2153.125354816434
 20
3359.398987582133
 30
0.0
 10
2153.264465383103
 20
3349.383987084757
 30
0.0
 10
2153.410677778725
 20
3338.566959333031
 30
0.0
 10
2153.564137617167
 20
3326.864257466657
 30
0.0
 10
2153.72524983711
 20
3314.157011631714
 30
0.0
 10
2153.893251748807
 20
3300.396191722391
 30
0.0
 10
2154.067233786811
 20
3285.528824961937
 30
0.0
 10
2154.245242647188
 20
3269.582992923245
 30
0.0
 10
2154.426080678021
 20
3252.509502800515
 30
0.0
 10
2154.594166128807
 20
3235.681704217459
 30
0.0
 10
2154.749372712617
 20
3219.21084327147
 30
0.0
 10
2154.891918594182
 20
3203.215394417082
 30
0.0
 10
2155.032292637706
 20
3186.395121095809
 30
0.0
 10
2155.148605674415
 20
3171.666450004325
 30
0.0
 10
2155.213853896317
 20
3162.540646340311
 30
0.0
 10
2155.236996181154
 20
3159.303899933963
 30
0.0
  0
LINE
  5
192
330
1F
100
AcDbEntity
  8
0
  6
Continuous
 62
     7
370
    15
100
AcDbLine
 10
2161.6945300929
 20
1969.604445284
 30
0.0
 11
2161.132687791
 21
1969.9773556092
 31
0.0
  0
LWPOLYLINE
  5
193
330
1F
100
AcDbEntity
  8
0
  6
Continuous
 62
     7
370
    15
100
AcDbPolyline
 90
        3
 70
   128
 43
0.0
 10
2156.5630035194
 20
1970.0289283049
 10
2156.5184843033
 20
1970.0047519419
 10
2155.9075233979
 20
1969.604445284
  0
LWPOLYLINE
  5
194
330
1F
100
AcDbEntity
  8
0
  6
Continuous
 62
     7
370
    15
100
AcDbPolyline
 90
        3
 70
   128
 43
0.0
 10
2155.9075233979
 20
3130.6776315377
 10
2156.5184843033
 20
3130.2773248798
 10
2156.5443162844
 20
3130.2632216487
  0
LINE
  5
195
330
1F
100
AcDbEntity
  8
0
  6
Continuous
 62
     7
370
    15
100
AcDbLine
 10
2161.1483728278
 20
3130.3136316519
 30
0.0
 11
2161.6945300929
 21
3130.6776315377
 31
0.0
  0
LINE
  5
196
330
1F
100
AcDbEntity
  8
0
  6
Continuous
 62
     7
370
    15
100
AcDbLine
 10
2088.8010267454
 20
3159.1410384109
 30
0.0
 11
2088.8010267454
 21
1941.1410384109
 31
0.0
  0
LINE
  5
197
330
1F
100
AcDbEntity
  8
0
  6
Continuous
 62
     7
370
    15
100
AcDbLine
 10
2228.8010267454
 20
1941.1410384109
 30
0.0
 11
2228.8010267454
 21
3159.1410384109
 31
0.0
  0
LINE
  5
198
330
1F
100
AcDbEntity
  8
0
  6
Continuous
 62
     7
370
    15
100
AcDbLine
 10
2228.8009949972
 20
3159.1410384109
 30
0.0
 11
2227.8009994962
 21
3160.1410384109
 31
0.0
  0
LINE
  5
199
330
1F
100
AcDbEntity
  8
0
  6
Continuous
 62
     7
370
    15
100
AcDbLine
 10
2227.8009994893
 20
1940.1410384109
 30
0.0
 11
2228.8009949898
 21
1941.1410384109
 31
0.0
  0
LINE
  5
19A
330
1F
100
AcDbEntity
  8
0
  6
Continuous
 62
     7
370
    15
100
AcDbLine
 10
2089.8010538808
 20
3160.1410384109
 30
0.0
 11
2088.8010582751
 21
3159.1410384109
 31
0.0
  0
LINE
  5
19B
330
1F
100
AcDbEntity
  8
0
  6
Continuous
 62
     7
370
    15
100
AcDbLine
 10
2088.8010582516
 20
1941.1410384109
 30
0.0
 11
2089.8010538593
 21
1940.1410384109
 31
0.0
  0
LINE
  5
19C
330
1F
100
AcDbEntity
  8
0
  6
Continuous
 62
     7
370
    15
100
AcDbLine
 10
2163.9834391221
 20
4177.9406734905
 30
0.0
 11
2159.4260267454
 21
4177.9406734905
 31
0.0
  0
LINE
  5
19D
330
1F
100
AcDbEntity
  8
0
  6
Continuous
 62
     7
370
    15
100
AcDbLine
 10
2158.1760267454
 20
4177.9406734905
 30
0.0
 11
2153.3010267454
 21
4177.9406734905
 31
0.0
  0
LINE
  5
19E
330
1F
100
AcDbEntity
  8
0
  6
Continuous
 62
     7
370
    15
100
AcDbLine
 10
2164.3010267454
 20
4177.9406734905
 30
0.0
 11
2163.9834391221
 21
4177.9406734905
 31
0.0
  0
LINE
  5
19F
330
1F
100
AcDbEntity
  8
0
  6
Continuous
 62
     7
370
    15
100
AcDbLine
 10
2149.8010267454
 20
4180.4406734905
 30
0.0
 11
2158.1760267454
 21
4180.4406734905
 31
0.0
  0
LINE
  5
1A0
330
1F
100
AcDbEntity
  8
0
  6
Continuous
 62
     7
370
    15
100
AcDbLine
 10
2159.4260267454
 20
4180.4406734905
 30
0.0
 11
2167.8010267454
 21
4180.4406734905
 31
0.0
  0
LINE
  5
1A1
330
1F
100
AcDbEntity
  8
0
  6
Continuous
 62
     7
370
    15
100
AcDbLine
 10
2152.9260267454
 20
4178.4406734905
 30
0.0
 11
2158.1760267454
 21
4178.4406734905
 31
0.0
  0
LINE
  5
1A2
330
1F
100
AcDbEntity
  8
0
  6
Continuous
 62
     7
370
    15
100
AcDbLine
 10
2159.4260267454
 20
4178.4406734905
 30
0.0
 11
2164.6760267454
 21
4178.4406734905
 31
0.0
  0
LINE
  5
1A3
330
1F
100
AcDbEntity
  8
0
  6
Continuous
 62
     7
370
    15
100
AcDbLine
 10
2163.6484168627
 20
4185.1916827972
 30
0.0
 11
2163.219817737
 21
4185.1916827972
 31
0.0
  0
LINE
  5
1A4
330
1F
100
AcDbEntity
  8
0
  6
Continuous
 62
     7
370
    15
100
AcDbLine
 10
2163.219817737
 20
4185.1916827972
 30
0.0
 11
2163.219817737
 21
4181.0923311204
 31
0.0
  0
LINE
  5
1A5
330
1F
100
AcDbEntity
  8
0
  6
Continuous
 62
     7
370
    15
100
AcDbLine
 10
2163.219817737
 20
4181.0923311204
 30
0.0
 11
2163.6484168627
 21
4181.0923311204
 31
0.0
  0
LINE
  5
1A6
330
1F
100
AcDbEntity
  8
0
  6
Continuous
 62
     7
370
    15
100
AcDbLine
 10
2163.6484168627
 20
4185.1916827972
 30
0.0
 11
2163.6484168627
 21
4181.0923311204
 31
0.0
  0
LINE
  5
1A7
330
1F
100
AcDbEntity
  8
0
  6
Continuous
 62
     7
370
    15
100
AcDbLine
 10
2160.6748257976
 20
4185.1916827972
 30
0.0
 11
2160.1830796944
 21
4185.1916827972
 31
0.0
  0
LINE
  5
BB
330
1F
100
AcDbEntity
  8
0
  6
Continuous
 62
     7
370
    15
100
AcDbLine
 10
2160.1830796944
 20
4185.1916827972
 30
0.0
 11
2160.1830796944
 21
4181.0923311204
 31
0.0
  0
LINE
  5
BC
330
1F
100
AcDbEntity
  8
0
  6
Continuous
 62
     7
370
    15
100
AcDbLine
 10
2160.1830796944
 20
4181.0923311204
 30
0.0
 11
2160.6748257976
 21
4181.0923311204
 31
0.0
  0
LINE
  5
BD
330
1F
100
AcDbEntity
  8
0
  6
Continuous
 62
     7
370
    15
100
AcDbLine
 10
2160.6748257976
 20
4185.1916827972
 30
0.0
 11
2160.6748257976
 21
4181.0923311204
 31
0.0
  0
LINE
  5
BE
330
1F
100
AcDbEntity
  8
0
  6
Continuous
 62
     7
370
    15
100
AcDbLine
 10
2157.4622686545
 20
4185.1916827972
 30
0.0
 11
2156.9700880818
 21
4185.1916827972
 31
0.0
  0
LINE
  5
BF
330
1F
100
AcDbEntity
  8
0
  6
Continuous
 62
     7
370
    15
100
AcDbLine
 10
2156.9700880818
 20
4185.1916827972
 30
0.0
 11
2156.9700880818
 21
4181.0923311204
 31
0.0
  0
LINE
  5
C0
330
1F
100
AcDbEntity
  8
0
  6
Continuous
 62
     7
370
    15
100
AcDbLine
 10
2156.9700880818
 20
4181.0923311204
 30
0.0
 11
2157.4622686545
 21
4181.0923311204
 31
0.0
  0
LINE
  5
C1
330
1F
100
AcDbEntity
  8
0
  6
Continuous
 62
     7
370
    15
100
AcDbLine
 10
2157.4622686545
 20
4185.1916827972
 30
0.0
 11
2157.4622686545
 21
4181.0923311204
 31
0.0
  0
LINE
  5
C2
330
1F
100
AcDbEntity
  8
0
  6
Continuous
 62
     7
370
    15
100
AcDbLine
 10
2154.4204436772
 20
4185.1916827972
 30
0.0
 11
2153.9905965506
 21
4185.1916827972
 31
0.0
  0
LINE
  5
C3
330
1F
100
AcDbEntity
  8
0
  6
Continuous
 62
     7
370
    15
100
AcDbLine
 10
2153.9905965506
 20
4185.1916827972
 30
0.0
 11
2153.9905965506
 21
4181.0923311204
 31
0.0
  0
LINE
  5
C4
330
1F
100
AcDbEntity
  8
0
  6
Continuous
 62
     7
370
    15
100
AcDbLine
 10
2153.9905965506
 20
4181.0923311204
 30
0.0
 11
2154.4204436772
 21
4181.0923311204
 31
0.0
  0
LINE
  5
C5
330
1F
100
AcDbEntity
  8
0
  6
Continuous
 62
     7
370
    15
100
AcDbLine
 10
2154.4204436772
 20
4185.1916827972
 30
0.0
 11
2154.4204436772
 21
4181.0923311204
 31
0.0
  0
LINE
  5
C6
330
1F
100
AcDbEntity
  8
0
  6
Continuous
 62
     7
370
    15
100
AcDbLine
 10
2151.9372755919
 20
4185.1916827972
 30
0.0
 11
2151.6245804267
 21
4185.1916827972
 31
0.0
  0
LINE
  5
C7
330
1F
100
AcDbEntity
  8
0
  6
Continuous
 62
     7
370
    15
100
AcDbLine
 10
2151.6245804267
 20
4185.1916827972
 30
0.0
 11
2151.6245804267
 21
4181.0923311204
 31
0.0
  0
LINE
  5
C8
330
1F
100
AcDbEntity
  8
0
  6
Continuous
 62
     7
370
    15
100
AcDbLine
 10
2151.6245804267
 20
4181.0923311204
 30
0.0
 11
2151.9372755919
 21
4181.0923311204
 31
0.0
  0
LINE
  5
C9
330
1F
100
AcDbEntity
  8
0
  6
Continuous
 62
     7
370
    15
100
AcDbLine
 10
2151.9372755919
 20
4185.1916827972
 30
0.0
 11
2151.9372755919
 21
4181.0923311204
 31
0.0
  0
LINE
  5
CA
330
1F
100
AcDbEntity
  8
0
  6
Continuous
 62
     7
370
    15
100
AcDbLine
 10
2150.3294434671
 20
4185.1916827972
 30
0.0
 11
2150.1737783585
 21
4185.1916827972
 31
0.0
  0
LINE
  5
CB
330
1F
100
AcDbEntity
  8
0
  6
Continuous
 62
     7
370
    15
100
AcDbLine
 10
2150.1737783585
 20
4185.1916827972
 30
0.0
 11
2150.1737783585
 21
4181.0923311204
 31
0.0
  0
LINE
  5
CC
330
1F
100
AcDbEntity
  8
0
  6
Continuous
 62
     7
370
    15
100
AcDbLine
 10
2150.1737783585
 20
4181.0923311204
 30
0.0
 11
2150.3294434671
 21
4181.0923311204
 31
0.0
  0
LINE
  5
CD
330
1F
100
AcDbEntity
  8
0
  6
Continuous
 62
     7
370
    15
100
AcDbLine
 10
2150.3294434671
 20
4185.1916827972
 30
0.0
 11
2150.3294434671
 21
4181.0923311204
 31
0.0
  0
LINE
  5
CE
330
1F
100
AcDbEntity
  8
0
  6
Continuous
 62
     7
370
    15
100
AcDbLine
 10
2167.7520006106
 20
4185.1916827972
 30
0.0
 11
2167.6860897798
 21
4185.1916827972
 31
0.0
  0
LINE
  5
CF
330
1F
100
AcDbEntity
  8
0
  6
Continuous
 62
     7
370
    15
100
AcDbLine
 10
2167.6860897798
 20
4185.1916827972
 30
0.0
 11
2167.6860897798
 21
4181.0923311204
 31
0.0
  0
LINE
  5
D0
330
1F
100
AcDbEntity
  8
0
  6
Continuous
 62
     7
370
    15
100
AcDbLine
 10
2167.6860897798
 20
4181.0923311204
 30
0.0
 11
2167.7520006106
 21
4181.0923311204
 31
0.0
  0
LINE
  5
D1
330
1F
100
AcDbEntity
  8
0
  6
Continuous
 62
     7
370
    15
100
AcDbLine
 10
2167.7520006106
 20
4185.1916827972
 30
0.0
 11
2167.7520006106
 21
4181.0923311204
 31
0.0
  0
LINE
  5
D2
330
1F
100
AcDbEntity
  8
0
  6
Continuous
 62
     7
370
    15
100
AcDbLine
 10
2166.8516092794
 20
4185.1916827972
 30
0.0
 11
2166.6157469944
 21
4185.1916827972
 31
0.0
  0
LINE
  5
D3
330
1F
100
AcDbEntity
  8
0
  6
Continuous
 62
     7
370
    15
100
AcDbLine
 10
2166.6157469944
 20
4185.1916827972
 30
0.0
 11
2166.6157469944
 21
4181.0923311204
 31
0.0
  0
LINE
  5
D4
330
1F
100
AcDbEntity
  8
0
  6
Continuous
 62
     7
370
    15
100
AcDbLine
 10
2166.6157469944
 20
4181.0923311204
 30
0.0
 11
2166.8516092794
 21
4181.0923311204
 31
0.0
  0
LINE
  5
D5
330
1F
100
AcDbEntity
  8
0
  6
Continuous
 62
     7
370
    15
100
AcDbLine
 10
2166.8516092794
 20
4185.1916827972
 30
0.0
 11
2166.8516092794
 21
4181.0923311204
 31
0.0
  0
LINE
  5
D6
330
1F
100
AcDbEntity
  8
0
  6
Continuous
 62
     7
370
    15
100
AcDbLine
 10
2166.003819012
 20
4185.1916827972
 30
0.0
 11
2165.6930262211
 21
4185.1916827972
 31
0.0
  0
LINE
  5
D7
330
1F
100
AcDbEntity
  8
0
  6
Continuous
 62
     7
370
    15
100
AcDbLine
 10
2165.6930262211
 20
4185.1916827972
 30
0.0
 11
2165.6930262211
 21
4181.0923311204
 31
0.0
  0
LINE
  5
D8
330
1F
100
AcDbEntity
  8
0
  6
Continuous
 62
     7
370
    15
100
AcDbLine
 10
2165.6930262211
 20
4181.0923311204
 30
0.0
 11
2166.003819012
 21
4181.0923311204
 31
0.0
  0
LINE
  5
D9
330
1F
100
AcDbEntity
  8
0
  6
Continuous
 62
     7
370
    15
100
AcDbLine
 10
2166.003819012
 20
4185.1916827972
 30
0.0
 11
2166.003819012
 21
4181.0923311204
 31
0.0
  0
LINE
  5
DA
330
1F
100
AcDbEntity
  8
0
  6
Continuous
 62
     7
370
    15
100
AcDbLine
 10
2167.4406472001
 20
4185.1916827972
 30
0.0
 11
2167.287296229
 21
4185.1916827972
 31
0.0
  0
LINE
  5
DB
330
1F
100
AcDbEntity
  8
0
  6
Continuous
 62
     7
370
    15
100
AcDbLine
 10
2167.287296229
 20
4185.1916827972
 30
0.0
 11
2167.287296229
 21
4181.0923311204
 31
0.0
  0
LINE
  5
DC
330
1F
100
AcDbEntity
  8
0
  6
Continuous
 62
     7
370
    15
100
AcDbLine
 10
2167.287296229
 20
4181.0923311204
 30
0.0
 11
2167.4406472001
 21
4181.0923311204
 31
0.0
  0
LINE
  5
DD
330
1F
100
AcDbEntity
  8
0
  6
Continuous
 62
     7
370
    15
100
AcDbLine
 10
2167.4406472001
 20
4185.1916827972
 30
0.0
 11
2167.4406472001
 21
4181.0923311204
 31
0.0
  0
LINE
  5
DE
330
1F
100
AcDbEntity
  8
0
  6
Continuous
 62
     7
370
    15
100
AcDbLine
 10
2149.9230462086
 20
4185.1916827972
 30
0.0
 11
2149.854724171
 21
4185.1916827972
 31
0.0
  0
LINE
  5
DF
330
1F
100
AcDbEntity
  8
0
  6
Continuous
 62
     7
370
    15
100
AcDbLine
 10
2149.854724171
 20
4185.1916827972
 30
0.0
 11
2149.854724171
 21
4181.0923311204
 31
0.0
  0
LINE
  5
E0
330
1F
100
AcDbEntity
  8
0
  6
Continuous
 62
     7
370
    15
100
AcDbLine
 10
2149.854724171
 20
4181.0923311204
 30
0.0
 11
2149.9230462086
 21
4181.0923311204
 31
0.0
  0
LINE
  5
E1
330
1F
100
AcDbEntity
  8
0
  6
Continuous
 62
     7
370
    15
100
AcDbLine
 10
2149.9230462086
 20
4185.1916827972
 30
0.0
 11
2149.9230462086
 21
4181.0923311204
 31
0.0
  0
LINE
  5
E2
330
1F
100
AcDbEntity
  8
0
  6
Continuous
 62
     7
370
    15
100
AcDbLine
 10
2151.0081243825
 20
4185.1916827972
 30
0.0
 11
2150.7701194078
 21
4185.1916827972
 31
0.0
  0
LINE
  5
E3
330
1F
100
AcDbEntity
  8
0
  6
Continuous
 62
     7
370
    15
100
AcDbLine
 10
2150.7701194078
 20
4185.1916827972
 30
0.0
 11
2150.7701194078
 21
4181.0923311204
 31
0.0
  0
LINE
  5
E4
330
1F
100
AcDbEntity
  8
0
  6
Continuous
 62
     7
370
    15
100
AcDbLine
 10
2150.7701194078
 20
4181.0923311204
 30
0.0
 11
2151.0081243825
 21
4181.0923311204
 31
0.0
  0
LINE
  5
E5
330
1F
100
AcDbEntity
  8
0
  6
Continuous
 62
     7
370
    15
100
AcDbLine
 10
2151.0081243825
 20
4185.1916827972
 30
0.0
 11
2151.0081243825
 21
4181.0923311204
 31
0.0
  0
LINE
  5
E6
330
1F
100
AcDbEntity
  8
0
  6
Continuous
 62
     7
370
    15
100
AcDbLine
 10
2153.087033411
 20
4185.1916827972
 30
0.0
 11
2152.7096983351
 21
4185.1916827972
 31
0.0
  0
LINE
  5
E7
330
1F
100
AcDbEntity
  8
0
  6
Continuous
 62
     7
370
    15
100
AcDbLine
 10
2152.7096983351
 20
4185.1916827972
 30
0.0
 11
2152.7096983351
 21
4181.0923311204
 31
0.0
  0
LINE
  5
E8
330
1F
100
AcDbEntity
  8
0
  6
Continuous
 62
     7
370
    15
100
AcDbLine
 10
2152.7096983351
 20
4181.0923311204
 30
0.0
 11
2153.087033411
 21
4181.0923311204
 31
0.0
  0
LINE
  5
E9
330
1F
100
AcDbEntity
  8
0
  6
Continuous
 62
     7
370
    15
100
AcDbLine
 10
2153.087033411
 20
4185.1916827972
 30
0.0
 11
2153.087033411
 21
4181.0923311204
 31
0.0
  0
LINE
  5
EA
330
1F
100
AcDbEntity
  8
0
  6
Continuous
 62
     7
370
    15
100
AcDbLine
 10
2155.8946494877
 20
4185.1916827972
 30
0.0
 11
2155.4261059506
 21
4185.1916827972
 31
0.0
  0
LINE
  5
EB
330
1F
100
AcDbEntity
  8
0
  6
Continuous
 62
     7
370
    15
100
AcDbLine
 10
2155.4261059506
 20
4185.1916827972
 30
0.0
 11
2155.4261059506
 21
4181.0923311204
 31
0.0
  0
LINE
  5
EC
330
1F
100
AcDbEntity
  8
0
  6
Continuous
 62
     7
370
    15
100
AcDbLine
 10
2155.4261059506
 20
4181.0923311204
 30
0.0
 11
2155.8946494877
 21
4181.0923311204
 31
0.0
  0
LINE
  5
ED
330
1F
100
AcDbEntity
  8
0
  6
Continuous
 62
     7
370
    15
100
AcDbLine
 10
2155.8946494877
 20
4185.1916827972
 30
0.0
 11
2155.8946494877
 21
4181.0923311204
 31
0.0
  0
LINE
  5
EE
330
1F
100
AcDbEntity
  8
0
  6
Continuous
 62
     7
370
    15
100
AcDbLine
 10
2162.2165095438
 20
4185.1916827972
 30
0.0
 11
2161.7488209818
 21
4185.1916827972
 31
0.0
  0
LINE
  5
EF
330
1F
100
AcDbEntity
  8
0
  6
Continuous
 62
     7
370
    15
100
AcDbLine
 10
2161.7488209818
 20
4185.1916827972
 30
0.0
 11
2161.7488209818
 21
4181.0923311204
 31
0.0
  0
LINE
  5
F0
330
1F
100
AcDbEntity
  8
0
  6
Continuous
 62
     7
370
    15
100
AcDbLine
 10
2161.7488209818
 20
4181.0923311204
 30
0.0
 11
2162.2165095438
 21
4181.0923311204
 31
0.0
  0
LINE
  5
F1
330
1F
100
AcDbEntity
  8
0
  6
Continuous
 62
     7
370
    15
100
AcDbLine
 10
2162.2165095438
 20
4185.1916827972
 30
0.0
 11
2162.2165095438
 21
4181.0923311204
 31
0.0
  0
LINE
  5
F2
330
1F
100
AcDbEntity
  8
0
  6
Continuous
 62
     7
370
    15
100
AcDbLine
 10
2164.9245250747
 20
4185.1916827972
 30
0.0
 11
2164.5487909138
 21
4185.1916827972
 31
0.0
  0
LINE
  5
F3
330
1F
100
AcDbEntity
  8
0
  6
Continuous
 62
     7
370
    15
100
AcDbLine
 10
2164.5487909138
 20
4185.1916827972
 30
0.0
 11
2164.5487909138
 21
4181.0923311204
 31
0.0
  0
LINE
  5
F4
330
1F
100
AcDbEntity
  8
0
  6
Continuous
 62
     7
370
    15
100
AcDbLine
 10
2164.5487909138
 20
4181.0923311204
 30
0.0
 11
2164.9245250747
 21
4181.0923311204
 31
0.0
  0
LINE
  5
F5
330
1F
100
AcDbEntity
  8
0
  6
Continuous
 62
     7
370
    15
100
AcDbLine
 10
2164.9245250747
 20
4185.1916827972
 30
0.0
 11
2164.9245250747
 21
4181.0923311204
 31
0.0
  0
LINE
  5
F6
330
1F
100
AcDbEntity
  8
0
  6
Continuous
 62
     7
370
    15
100
AcDbLine
 10
2157.0403840361
 20
4185.1916827972
 30
0.0
 11
2157.0403840361
 21
4181.0923311204
 31
0.0
  0
LINE
  5
F7
330
1F
100
AcDbEntity
  8
0
  6
Continuous
 62
     7
370
    15
100
AcDbLine
 10
2160.6026191351
 20
4185.1916827972
 30
0.0
 11
2160.6026191351
 21
4181.0923311204
 31
0.0
  0
LINE
  5
F8
330
1F
100
AcDbEntity
  8
0
  6
Continuous
 62
     7
370
    15
100
AcDbLine
 10
2155.5654094472
 20
4185.1916827972
 30
0.0
 11
2155.5654094472
 21
4181.0923311204
 31
0.0
  0
LINE
  5
F9
330
1F
100
AcDbEntity
  8
0
  6
Continuous
 62
     7
370
    15
100
AcDbLine
 10
2162.0753879582
 20
4185.1916827972
 30
0.0
 11
2162.0753879582
 21
4181.0923311204
 31
0.0
  0
LINE
  5
FA
330
1F
100
AcDbEntity
  8
0
  6
Continuous
 62
     7
370
    15
100
AcDbLine
 10
2163.4429161177
 20
4185.1916827972
 30
0.0
 11
2163.4429161177
 21
4181.0923311204
 31
0.0
  0
LINE
  5
FB
330
1F
100
AcDbEntity
  8
0
  6
Continuous
 62
     7
370
    15
100
AcDbLine
 10
2154.1944302605
 20
4185.1916827972
 30
0.0
 11
2154.1944302605
 21
4181.0923311204
 31
0.0
  0
LINE
  5
FC
330
1F
100
AcDbEntity
  8
0
  6
Continuous
 62
     7
370
    15
100
AcDbLine
 10
2164.6612501335
 20
4185.1916827972
 30
0.0
 11
2164.6612501335
 21
4181.0923311204
 31
0.0
  0
LINE
  5
FD
330
1F
100
AcDbEntity
  8
0
  6
Continuous
 62
     7
370
    15
100
AcDbLine
 10
2152.9715108752
 20
4185.1916827972
 30
0.0
 11
2152.9715108752
 21
4181.0923311204
 31
0.0
  0
LINE
  5
FE
330
1F
100
AcDbEntity
  8
0
  6
Continuous
 62
     7
370
    15
100
AcDbLine
 10
2151.9359569265
 20
4185.1916827972
 30
0.0
 11
2151.9359569265
 21
4181.0923311204
 31
0.0
  0
LINE
  5
FF
330
1F
100
AcDbEntity
  8
0
  6
Continuous
 62
     7
370
    15
100
AcDbLine
 10
2157.5295954222
 20
4185.9406734905
 30
0.0
 11
2215.8010267454
 21
4185.9406734905
 31
0.0
  0
LINE
  5
100
330
1F
100
AcDbEntity
  8
0
  6
Continuous
 62
     7
370
    15
100
AcDbLine
 10
2101.8010267454
 20
4185.9406734905
 30
0.0
 11
2157.5295954222
 21
4185.9406734905
 31
0.0
  0
LINE
  5
101
330
1F
100
AcDbEntity
  8
0
  6
Continuous
 62
     7
370
    15
100
AcDbLine
 10
2157.4626779841
 20
4233.9406734905
 30
0.0
 11
2218.8010267454
 21
4233.9406734905
 31
0.0
  0
LINE
  5
102
330
1F
100
AcDbEntity
  8
0
  6
Continuous
 62
     7
370
    15
100
AcDbLine
 10
2098.8010267454
 20
4233.9406734905
 30
0.0
 11
2157.4626779841
 21
4233.9406734905
 31
0.0
  0
CIRCLE
  5
104
330
1F
100
AcDbEntity
  8
0
  6
Continuous
 62
     7
370
    15
100
AcDbCircle
 10
2158.8010267454
 20
1955.1410384109
 30
0.0
 40
14.25
  0
CIRCLE
  5
105
330
1F
100
AcDbEntity
  8
0
  6
Continuous
 62
     7
370
    15
100
AcDbCircle
 10
2158.8010267454
 20
1955.1410384109
 30
0.0
 40
14.75
  0
CIRCLE
  5
106
330
1F
100
AcDbEntity
  8
0
  6
Continuous
 62
     7
370
    15
100
AcDbCircle
 10
2158.8010267454
 20
3145.1410384109
 30
0.0
 40
14.25
  0
CIRCLE
  5
107
330
1F
100
AcDbEntity
  8
0
  6
Continuous
 62
     7
370
    15
100
AcDbCircle
 10
2158.8010267454
 20
3145.1410384109
 30
0.0
 40
14.75
  0
SPLINE
  5
108
330
1F
100
AcDbEntity
  8
0
  6
Continuous
 62
     7
370
    15
100
AcDbSpline
210
0.0
220
0.0
230
1.0
 70
     8
 71
     3
 72
    32
 73
    28
 74
     0
 42
0.00000001
 43
0.00000001
 40
0.0
 40
0.0
 40
0.0
 40
0.0
 40
0.0290647980731818
 40
0.0596313158485403
 40
0.0917033016926149
 40
0.1252839688632108
 40
0.1795214663968032
 40
0.2501812170842095
 40
0.2872098714398232
 40
0.320409358493799
 40
0.3497790046959305
 40
0.3753185067113614
 40
0.4392657673555211
 40
0.5001700715694569
 40
0.5301520830280329
 40
0.560966656895304
 40
0.5926172574995252
 40
0.6251070763380995
 40
0.6582500154201143
 40
0.699889705240931
 40
0.750019983584112
 40
0.7888159809854479
 40
0.8225853426976824
 40
0.851326369448143
 40
0.8750379221979061
 40
0.9393790657789673
 40
1.0
 40
1.0
 40
1.0
 40
1.0
 10
2173.597015192482
 20
1955.141038410854
 30
0.0
 10
2173.58491787276
 20
1955.597729441371
 30
0.0
 10
2173.56009818912
 20
1956.534707810096
 30
0.0
 10
2173.352118129163
 20
1957.963166852009
 30
0.0
 10
2172.997830785636
 20
1959.433972243495
 30
0.0
 10
2172.366885612737
 20
1961.21063633199
 30
0.0
 10
2171.216735046487
 20
1963.427963578145
 30
0.0
 10
2169.614893587728
 20
1965.428343659852
 30
0.0
 10
2167.960417762351
 20
1966.898524315785
 30
0.0
 10
2166.683451476003
 20
1967.803399488116
 30
0.0
 10
2165.480924981342
 20
1968.489052240652
 30
0.0
 10
2163.785967615541
 20
1969.270802175485
 30
0.0
 10
2161.507661598299
 20
1969.954811452295
 30
0.0
 10
2159.070881219007
 20
1970.186599125329
 30
0.0
 10
2157.159127708891
 20
1970.094878680258
 30
0.0
 10
2155.71980467362
 20
1969.887064809798
 30
0.0
 10
2154.269835920754
 20
1969.529849531384
 30
0.0
 10
2152.828924665105
 20
1969.01644206656
 30
0.0
 10
2151.307417234216
 20
1968.290231939665
 30
0.0
 10
2149.645672171424
 20
1967.242282334465
 30
0.0
 10
2148.082023240823
 20
1965.907086390215
 30
0.0
 10
2146.803982525948
 20
1964.463099381415
 30
0.0
 10
2145.891466106575
 20
1963.159116497819
 30
0.0
 10
2145.226645492781
 20
1961.978803210331
 30
0.0
 10
2144.464532135003
 20
1960.312416137868
 30
0.0
 10
2143.757940766058
 20
1958.059960566869
 30
0.0
 10
2143.649581742102
 20
1956.094508160521
 30
0.0
 10
2143.597015192482
 20
1955.141038410854
 30
0.0
  0
LINE
  5
109
330
1F
100
AcDbEntity
  8
0
  6
Continuous
 62
     7
370
    15
100
AcDbLine
 10
2143.5970151925
 20
1955.1410384109
 30
0.0
 11
2142.6040398795
 21
1955.1410384109
 31
0.0
  0
SPLINE
  5
10A
330
1F
100
AcDbEntity
  8
0
  6
Continuous
 62
     7
370
    15
100
AcDbSpline
210
0.0
220
0.0
230
1.0
 70
     8
 71
     3
 72
    23
 73
    19
 74
     0
 42
0.00000001
 43
0.00000001
 40
0.0
 40
0.0
 40
0.0
 40
0.0
 40
0.0622849163130932
 40
0.1247336001071358
 40
0.1869252982384194
 40
0.2495622342502426
 40
0.3120094096728024
 40
0.3745896758457155
 40
0.4372276636313378
 40
0.4997864855636001
 40
0.5624825975730352
 40
0.6250509293158422
 40
0.6877436140659398
 40
0.7502575775910196
 40
0.8126217385059771
 40
0.8750993593026738
 40
0.9379149562197765
 40
1.0
 40
1.0
 40
1.0
 40
1.0
 10
2142.604039879459
 20
1955.141038410854
 30
0.0
 10
2142.662605663234
 20
1956.182215042161
 30
0.0
 10
2142.779891219443
 20
1958.267305899755
 30
0.0
 10
2143.737002089561
 20
1961.266254251774
 30
0.0
 10
2145.208159142291
 20
1964.037126206353
 30
0.0
 10
2147.216672015829
 20
1966.45255413016
 30
0.0
 10
2149.647280837422
 20
1968.449462320795
 30
0.0
 10
2152.430810046695
 20
1969.919578998174
 30
0.0
 10
2155.444931250278
 20
1970.840364732966
 30
0.0
 10
2158.5857209806
 20
1971.14086566702
 30
0.0
 10
2161.725860933234
 20
1970.844458540212
 30
0.0
 10
2164.744494992763
 20
1969.926873543774
 30
0.0
 10
2167.530714859735
 20
1968.457200672853
 30
0.0
 10
2169.963828232864
 20
1966.46500812297
 30
0.0
 10
2171.972488334705
 20
1964.047086704169
 30
0.0
 10
2173.445909381237
 20
1961.27084432013
 30
0.0
 10
2174.416768862478
 20
1958.267588114595
 30
0.0
 10
2174.530843054048
 20
1956.17914983516
 30
0.0
 10
2174.587546535617
 20
1955.141038410854
 30
0.0
  0
LINE
  5
10B
330
1F
100
AcDbEntity
  8
0
  6
Continuous
 62
     7
370
    15
100
AcDbLine
 10
2173.5970151925
 20
1955.1410384109
 30
0.0
 11
2174.5875465356
 21
1955.1410384109
 31
0.0
  0
SPLINE
  5
10C
330
1F
100
AcDbEntity
  8
0
  6
Continuous
 62
     7
370
    15
100
AcDbSpline
210
0.0
220
0.0
230
1.0
 70
     8
 71
     3
 72
    23
 73
    19
 74
     0
 42
0.00000001
 43
0.00000001
 40
0.0
 40
0.0
 40
0.0
 40
0.0
 40
0.0622667167536707
 40
0.1246933408274144
 40
0.1868780928387522
 40
0.2495051534959629
 40
0.3119578980926566
 40
0.3745485062379861
 40
0.4372026934923372
 40
0.4997846490927624
 40
0.5625012567373513
 40
0.625089337604203
 40
0.6877961454815879
 40
0.7503135924829212
 40
0.8126771581394487
 40
0.8751399114175286
 40
0.9379390181274082
 40
0.9999999999999999
 40
0.9999999999999999
 40
0.9999999999999999
 40
0.9999999999999999
 10
2174.499215533415
 20
3145.141038410854
 30
0.0
 10
2174.440965708955
 20
3144.106282564856
 30
0.0
 10
2174.324316468506
 20
3142.034113513634
 30
0.0
 10
2173.37237528516
 20
3139.053627128586
 30
0.0
 10
2171.909151525255
 20
3136.299858360739
 30
0.0
 10
2169.911366079275
 20
3133.89925063406
 30
0.0
 10
2167.493787600662
 20
3131.914736238839
 30
0.0
 10
2164.725228233855
 20
3130.453868585032
 30
0.0
 10
2161.727496999995
 20
3129.539078111398
 30
0.0
 10
2158.60404509707
 20
3129.240809302021
 30
0.0
 10
2155.481451278356
 20
3129.535688418166
 30
0.0
 10
2152.479871892259
 20
3130.447747267482
 30
0.0
 10
2149.70946998718
 20
3131.908267600256
 30
0.0
 10
2147.290096001926
 20
3133.887935303854
 30
0.0
 10
2145.292713240326
 20
3136.290584877002
 30
0.0
 10
2143.827451945444
 20
3139.049449973416
 30
0.0
 10
2142.861919162022
 20
3142.033928811548
 30
0.0
 10
2142.748460374269
 20
3144.109425056355
 30
0.0
 10
2142.692066342757
 20
3145.141038410854
 30
0.0
  0
LINE
  5
10D
330
1F
100
AcDbEntity
  8
0
  6
Continuous
 62
     7
370
    15
100
AcDbLine
 10
2142.6920663428
 20
3145.1410384109
 30
0.0
 11
2143.5970151925
 21
3145.1410384109
 31
0.0
  0
SPLINE
  5
10E
330
1F
100
AcDbEntity
  8
0
  6
Continuous
 62
     7
370
    15
100
AcDbSpline
210
0.0
220
0.0
230
1.0
 70
     8
 71
     3
 72
    32
 73
    28
 74
     0
 42
0.00000001
 43
0.00000001
 40
0.0
 40
0.0
 40
0.0
 40
0.0
 40
0.0291126692762247
 40
0.0596951656577172
 40
0.0917513701600881
 40
0.1252846230439232
 40
0.1798861809807382
 40
0.2501826722713356
 40
0.2874898840629505
 40
0.3207823529041627
 40
0.3500592294086303
 40
0.3753200436133659
 40
0.4393288102931208
 40
0.500173886767635
 40
0.5302010026220223
 40
0.561030740935164
 40
0.592666518197525
 40
0.6251114914079856
 40
0.658639536668532
 40
0.7002782811861517
 40
0.7500222870469172
 40
0.7891775503883588
 40
0.8230663501869259
 40
0.8516867109469226
 40
0.875037239100447
 40
0.9394189263239121
 40
1.0
 40
1.0
 40
1.0
 40
1.0
 10
2143.597015192482
 20
3145.141038410854
 30
0.0
 10
2143.609150990976
 20
3144.683603541283
 30
0.0
 10
2143.634035294597
 20
3143.745639040071
 30
0.0
 10
2143.842375518824
 20
3142.316498372214
 30
0.0
 10
2144.196728741176
 20
3140.846522569013
 30
0.0
 10
2144.829336465105
 20
3139.06554067193
 30
0.0
 10
2145.98042501369
 20
3136.849460026122
 30
0.0
 10
2147.585767539797
 20
3134.846953334271
 30
0.0
 10
2149.240789822593
 20
3133.377431610472
 30
0.0
 10
2150.522058175165
 20
3132.471357539246
 30
0.0
 10
2151.721272836996
 20
3131.789099229871
 30
0.0
 10
2153.411840037109
 20
3131.010101223867
 30
0.0
 10
2155.685770089032
 20
3130.327393997341
 30
0.0
 10
2158.123107896912
 20
3130.095510044746
 30
0.0
 10
2160.034889467976
 20
3130.187150519492
 30
0.0
 10
2161.474957918608
 20
3130.39515216145
 30
0.0
 10
2162.92432523854
 20
3130.752312007195
 30
0.0
 10
2164.370201772594
 20
3131.267445894557
 30
0.0
 10
2165.896425940407
 20
3131.996884300913
 30
0.0
 10
2167.557196116069
 20
3133.046882373633
 30
0.0
 10
2169.119888047998
 20
3134.382759497197
 30
0.0
 10
2170.398381363318
 20
3135.828810480722
 30
0.0
 10
2171.312537029082
 20
3137.138767836192
 30
0.0
 10
2171.973075105517
 20
3138.315089203111
 30
0.0
 10
2172.731445190019
 20
3139.975678947801
 30
0.0
 10
2173.436237864179
 20
3142.222806973878
 30
0.0
 10
2173.544520518145
 20
3144.188219934877
 30
0.0
 10
2173.597015192482
 20
3145.141038410854
 30
0.0
  0
LINE
  5
10F
330
1F
100
AcDbEntity
  8
0
  6
Continuous
 62
     7
370
    15
100
AcDbLine
 10
2174.4992155334
 20
3145.1410384109
 30
0.0
 11
2173.5970151925
 21
3145.1410384109
 31
0.0
  0
LINE
  5
110
330
1F
100
AcDbEntity
  8
0
  6
Continuous
 62
     7
370
    15
100
AcDbLine
 10
2142.6040398795
 20
1941.1410384109
 30
0.0
 11
2142.6040398795
 21
1955.1410384109
 31
0.0
  0
SPLINE
  5
111
330
1F
100
AcDbEntity
  8
0
  6
Continuous
 62
     7
370
    15
100
AcDbSpline
210
0.0
220
0.0
230
1.0
 70
    24
 71
     3
 72
    19
 73
    15
 74
     0
 42
0.00000001
 43
0.00000001
 40
0.0
 40
0.0
 40
0.0
 40
0.0
 40
0.0419711949322677
 40
0.0848709023391784
 40
0.1295452281148061
 40
0.1766990203573228
 40
0.2443020742953031
 40
0.318075089185583
 40
0.3983798295247291
 40
0.4852105044424646
 40
0.578273080304248
 40
0.6770486894809119
 40
0.8343328090817921
 40
1.0
 40
1.0
 40
1.0
 40
1.0
 10
2088.801026745435
 20
1941.141038410854
 30
0.0
 10
2088.848916881057
 20
1941.141038410854
 30
0.0
 10
2088.945756607207
 20
1941.141038410854
 30
0.0
 10
2089.72200622117
 20
1941.141038410854
 30
0.0
 10
2090.948503543781
 20
1941.141038410854
 30
0.0
 10
2092.870152663676
 20
1941.141038410854
 30
0.0
 10
2095.659025458444
 20
1941.141038410854
 30
0.0
 10
2099.442954558763
 20
1941.141038410854
 30
0.0
 10
2103.951019328269
 20
1941.141038410854
 30
0.0
 10
2109.12931367328
 20
1941.141038410855
 30
0.0
 10
2114.915563345348
 20
1941.141038410854
 30
0.0
 10
2122.385189279427
 20
1941.141038410854
 30
0.0
 10
2131.647966957492
 20
1941.141038410854
 30
0.0
 10
2138.889359024043
 20
1941.141038410854
 30
0.0
 10
2142.604039977264
 20
1941.141038410854
 30
0.0
  0
SPLINE
  5
112
330
1F
100
AcDbEntity
  8
0
  6
Continuous
 62
     7
370
    15
100
AcDbSpline
210
0.0
220
0.0
230
1.0
 70
    24
 71
     3
 72
    19
 73
    15
 74
     0
 42
0.00000001
 43
0.00000001
 40
0.0
 40
0.0
 40
0.0
 40
0.0
 40
0.1656322243172451
 40
0.3229568384373604
 40
0.4217827204811289
 40
0.5149012210146251
 40
0.6017829349455817
 40
0.6821242262279832
 40
0.7559112263599496
 40
0.8235000745811895
 40
0.8706235949589769
 40
0.9152520311753077
 40
0.9580936460158465
 40
1.0
 40
1.0
 40
1.0
 40
1.0
 10
2174.587546461661
 20
1941.141038410854
 30
0.0
 10
2178.325575083088
 20
1941.141038410854
 30
0.0
 10
2185.614144143492
 20
1941.141038410854
 30
0.0
 10
2194.941243361207
 20
1941.141038410855
 30
0.0
 10
2202.466688467583
 20
1941.141038410854
 30
0.0
 10
2208.29844659219
 20
1941.141038410855
 30
0.0
 10
2213.518947172747
 20
1941.141038410854
 30
0.0
 10
2218.064862935817
 20
1941.141038410854
 30
0.0
 10
2221.881371438549
 20
1941.141038410855
 30
0.0
 10
2224.694981334698
 20
1941.141038410854
 30
0.0
 10
2226.633961347573
 20
1941.141038410854
 30
0.0
 10
2227.871577192284
 20
1941.141038410855
 30
0.0
 10
2228.654957601011
 20
1941.141038410854
 30
0.0
 10
2228.75269657291
 20
1941.141038410854
 30
0.0
 10
2228.801026745435
 20
1941.141038410854
 30
0.0
  0
LINE
  5
113
330
1F
100
AcDbEntity
  8
0
  6
Continuous
 62
     7
370
    15
100
AcDbLine
 10
2174.5875465356
 20
1955.1410384109
 30
0.0
 11
2174.5875465356
 21
1941.1410384109
 31
0.0
  0
LINE
  5
114
330
1F
100
AcDbEntity
  8
0
  6
Continuous
 62
     7
370
    15
100
AcDbLine
 10
2174.4992155334
 20
3159.1410384109
 30
0.0
 11
2174.4992155334
 21
3145.1410384109
 31
0.0
  0
SPLINE
  5
115
330
1F
100
AcDbEntity
  8
0
  6
Continuous
 62
     7
370
    15
100
AcDbSpline
210
0.0
220
0.0
230
1.0
 70
    24
 71
     3
 72
    19
 73
    15
 74
     0
 42
0.00000001
 43
0.00000001
 40
0.0
 40
0.0
 40
0.0
 40
0.0
 40
0.0418924813908583
 40
0.0847216772418236
 40
0.129340321660416
 40
0.1764574100140331
 40
0.2440433031235854
 40
0.3178333967122547
 40
0.3981826105340419
 40
0.4850753301158327
 40
0.5782058465137796
 40
0.677042481642098
 40
0.834375615784313
 40
1.0
 40
1.0
 40
1.0
 40
1.0
 10
2228.801026745435
 20
3159.141038410854
 30
0.0
 10
2228.752601682018
 20
3159.141038410854
 30
0.0
 10
2228.654668772413
 20
3159.141038410854
 30
0.0
 10
2227.869750708378
 20
3159.141038410854
 30
0.0
 10
2226.629737713331
 20
3159.141038410854
 30
0.0
 10
2224.687021496012
 20
3159.141038410854
 30
0.0
 10
2221.868079852249
 20
3159.141038410854
 30
0.0
 10
2218.044551177421
 20
3159.141038410854
 30
0.0
 10
2213.49048140844
 20
3159.141038410854
 30
0.0
 10
2208.260891517521
 20
3159.141038410854
 30
0.0
 10
2202.419336885068
 20
3159.141038410854
 30
0.0
 10
2194.881883511108
 20
3159.141038410854
 30
0.0
 10
2185.54095908617
 20
3159.141038410854
 30
0.0
 10
2178.242256229863
 20
3159.141038410854
 30
0.0
 10
2174.499215435224
 20
3159.141038410854
 30
0.0
  0
SPLINE
  5
116
330
1F
100
AcDbEntity
  8
0
  6
Continuous
 62
     7
370
    15
100
AcDbSpline
210
0.0
220
0.0
230
1.0
 70
    24
 71
     3
 72
    19
 73
    15
 74
     0
 42
0.00000001
 43
0.00000001
 40
0.0
 40
0.0
 40
0.0
 40
0.0
 40
0.1656598958384007
 40
0.3229528251129904
 40
0.4217392578180873
 40
0.5148138392240423
 40
0.6016554453565998
 40
0.681967987487687
 40
0.755743947425666
 40
0.8233438890808848
 40
0.8704911361850862
 40
0.9151555668155555
 40
0.9580427628158166
 40
1.0
 40
1.0
 40
1.0
 40
1.0
 10
2142.692066419644
 20
3159.141038410854
 30
0.0
 10
2138.972370640241
 20
3159.141038410854
 30
0.0
 10
2131.720849356593
 20
3159.141038410854
 30
0.0
 10
2122.444267002916
 20
3159.141038410854
 30
0.0
 10
2114.962667953997
 20
3159.141038410854
 30
0.0
 10
2109.166660888683
 20
3159.141038410854
 30
0.0
 10
2103.979319527695
 20
3159.141038410854
 30
0.0
 10
2099.46314298134
 20
3159.141038410854
 30
0.0
 10
2095.672233001158
 20
3159.141038410854
 30
0.0
 10
2092.878060635373
 20
3159.141038410854
 30
0.0
 10
2090.952699110218
 20
3159.141038410854
 30
0.0
 10
2089.723820254297
 20
3159.141038410854
 30
0.0
 10
2088.946043424192
 20
3159.141038410854
 30
0.0
 10
2088.84901112268
 20
3159.141038410854
 30
0.0
 10
2088.801026745435
 20
3159.141038410854
 30
0.0
  0
LINE
  5
117
330
1F
100
AcDbEntity
  8
0
  6
Continuous
 62
     7
370
    15
100
AcDbLine
 10
2142.6920663428
 20
3145.1410384109
 30
0.0
 11
2142.6920663428
 21
3159.1410384109
 31
0.0
  0
LINE
  5
118
330
1F
100
AcDbEntity
  8
0
  6
Continuous
 62
     7
370
    15
100
AcDbLine
 10
2173.5970151925
 20
3145.1410384109
 30
0.0
 11
2173.5970151925
 21
3160.1410384109
 31
0.0
  0
LINE
  5
119
330
1F
100
AcDbEntity
  8
0
  6
Continuous
 62
     7
370
    15
100
AcDbLine
 10
2174.4994233496
 20
3159.1414146478
 30
0.0
 11
2173.5944856718
 21
3160.1387410185
 31
0.0
  0
SPLINE
  5
11A
330
1F
100
AcDbEntity
  8
0
  6
Continuous
 62
     7
370
    15
100
AcDbSpline
210
0.0
220
0.0
230
1.0
 70
    24
 71
     3
 72
    25
 73
    21
 74
     0
 42
0.00000001
 43
0.00000001
 40
0.0
 40
0.0
 40
0.0
 40
0.0
 40
0.0724059324077857
 40
0.143420375234994
 40
0.2131474752649064
 40
0.2853363155149754
 40
0.3586550915253529
 40
0.4291542135157169
 40
0.4970360374775554
 40
0.5521733482991728
 40
0.6045269891189085
 40
0.6542800366757124
 40
0.7016457325637994
 40
0.7468711007148853
 40
0.7911763657215422
 40
0.8328647872441732
 40
0.8723986439689129
 40
0.9368387353314596
 40
0.9979173852163054
 40
1.0
 40
1.0
 40
1.0
 40
1.0
 10
2173.597060680086
 20
3160.141038410854
 30
0.0
 10
2175.221115393956
 20
3160.141038410854
 30
0.0
 10
2178.438013909309
 20
3160.141038410854
 30
0.0
 10
2183.188598200343
 20
3160.141038410854
 30
0.0
 10
2187.901990932989
 20
3160.141038410854
 30
0.0
 10
2192.622450637089
 20
3160.141038410854
 30
0.0
 10
2197.301794743908
 20
3160.141038410854
 30
0.0
 10
2201.812333514571
 20
3160.141038410854
 30
0.0
 10
2205.848721600995
 20
3160.141038410854
 30
0.0
 10
2209.416945168703
 20
3160.141038410854
 30
0.0
 10
2212.525465792271
 20
3160.141038410854
 30
0.0
 10
2215.373584162993
 20
3160.141038410854
 30
0.0
 10
2217.961296099563
 20
3160.141038410854
 30
0.0
 10
2220.304379125183
 20
3160.141038410854
 30
0.0
 10
2222.381329505686
 20
3160.141038410854
 30
0.0
 10
2224.153227506639
 20
3160.141038410854
 30
0.0
 10
2225.931608823666
 20
3160.141038410854
 30
0.0
 10
2227.295983106911
 20
3160.141038410855
 30
0.0
 10
2227.969974552162
 20
3160.141038410853
 30
0.0
 10
2227.789103167418
 20
3160.141038410854
 30
0.0
 10
2227.783139299821
 20
3160.141038410854
 30
0.0
  0
SPLINE
  5
11B
330
1F
100
AcDbEntity
  8
0
  6
Continuous
 62
     7
370
    15
100
AcDbSpline
210
0.0
220
0.0
230
1.0
 70
    24
 71
     3
 72
    24
 73
    20
 74
     0
 42
0.00000001
 43
0.00000001
 40
0.0
 40
0.0
 40
0.0
 40
0.0
 40
0.0590269083356136
 40
0.090598447899946
 40
0.1234495327420604
 40
0.1529231499897973
 40
0.1835584466088189
 40
0.2155705768938561
 40
0.2491482387096877
 40
0.2944472769575461
 40
0.3419223197918848
 40
0.3918290484162182
 40
0.4443876678402727
 40
0.4997867692180165
 40
0.5958322524751598
 40
0.6972287875764074
 40
0.7988254340045567
 40
0.8980809224247525
 40
1.0
 40
1.0
 40
1.0
 40
1.0
 10
2227.783138635759
 20
1940.141038410854
 30
0.0
 10
2227.693622568176
 20
1940.141038410854
 30
0.0
 10
2227.556227318893
 20
1940.141038410854
 30
0.0
 10
2226.654475099064
 20
1940.141038410854
 30
0.0
 10
2225.765052696041
 20
1940.141038410854
 30
0.0
 10
2224.690458195225
 20
1940.141038410854
 30
0.0
 10
2223.475489545026
 20
1940.141038410854
 30
0.0
 10
2222.068618434867
 20
1940.141038410854
 30
0.0
 10
2220.312319169306
 20
1940.141038410854
 30
0.0
 10
2218.162828284882
 20
1940.141038410854
 30
0.0
 10
2215.580526136661
 20
1940.141038410854
 30
0.0
 10
2212.732489840799
 20
1940.141038410854
 30
0.0
 10
2209.618857623096
 20
1940.141038410854
 30
0.0
 10
2205.475314944251
 20
1940.141038410854
 30
0.0
 10
2200.177814189277
 20
1940.141038410854
 30
0.0
 10
2193.739827649996
 20
1940.141038410854
 30
0.0
 10
2187.111384602308
 20
1940.141038410854
 30
0.0
 10
2180.391467982704
 20
1940.141038410854
 30
0.0
 10
2175.88177535055
 20
1940.141038410854
 30
0.0
 10
2173.597074444436
 20
1940.141038410854
 30
0.0
  0
LINE
  5
11C
330
1F
100
AcDbEntity
  8
0
  6
Continuous
 62
     7
370
    15
100
AcDbLine
 10
2173.5970151925
 20
1940.141035279
 30
0.0
 11
2173.5970151925
 21
1940.2355606907
 31
0.0
  0
LINE
  5
11D
330
1F
100
AcDbEntity
  8
0
  6
Continuous
 62
     7
370
    15
100
AcDbLine
 10
2173.5970151925
 20
1940.2355606907
 30
0.0
 11
2174.5878024183
 21
1941.1405760434
 31
0.0
  0
LINE
  5
11E
330
1F
100
AcDbEntity
  8
0
  6
Continuous
 62
     7
370
    15
100
AcDbLine
 10
2173.5970151925
 20
1940.2355606907
 30
0.0
 11
2173.5970151925
 21
1955.1410384109
 31
0.0
  0
LINE
  5
11F
330
1F
100
AcDbEntity
  8
0
  6
Continuous
 62
     7
370
    15
100
AcDbLine
 10
2143.5978840342
 20
3160.1394624034
 30
0.0
 11
2142.6918298039
 21
3159.1414654477
 31
0.0
  0
LINE
  5
120
330
1F
100
AcDbEntity
  8
0
  6
Continuous
 62
     7
370
    15
100
AcDbLine
 10
2143.5970151925
 20
3160.1410384109
 30
0.0
 11
2143.5970151925
 21
3145.1410384109
 31
0.0
  0
SPLINE
  5
121
330
1F
100
AcDbEntity
  8
0
  6
Continuous
 62
     7
370
    15
100
AcDbSpline
210
0.0
220
0.0
230
1.0
 70
    24
 71
     3
 72
    24
 73
    20
 74
     0
 42
0.00000001
 43
0.00000001
 40
0.0
 40
0.0
 40
0.0
 40
0.0
 40
0.0590768646241216
 40
0.0906463750777037
 40
0.1234832740437382
 40
0.1529665685290883
 40
0.1836059214760487
 40
0.2156157332776353
 40
0.2491841553645255
 40
0.2944876041167557
 40
0.3419635802509226
 40
0.3918679271012814
 40
0.4444210339823474
 40
0.499811682423826
 40
0.5958467362944777
 40
0.6972509530389418
 40
0.7988376306236079
 40
0.8980732456989811
 40
1.0
 40
1.0
 40
1.0
 40
1.0
 10
2089.818411577024
 20
3160.141038410854
 30
0.0
 10
2089.907088556829
 20
3160.141038410854
 30
0.0
 10
2090.043152764421
 20
3160.141038410854
 30
0.0
 10
2090.93512127554
 20
3160.141038410854
 30
0.0
 10
2091.814919154583
 20
3160.141038410854
 30
0.0
 10
2092.8784726391
 20
3160.141038410854
 30
0.0
 10
2094.081725645312
 20
3160.141038410854
 30
0.0
 10
2095.475333270904
 20
3160.141038410854
 30
0.0
 10
2097.215735138738
 20
3160.141038410854
 30
0.0
 10
2099.346691125459
 20
3160.141038410854
 30
0.0
 10
2101.907857191593
 20
3160.141038410854
 30
0.0
 10
2104.733291181073
 20
3160.141038410854
 30
0.0
 10
2107.822855587463
 20
3160.141038410854
 30
0.0
 10
2111.935219633499
 20
3160.141038410854
 30
0.0
 10
2117.194559331983
 20
3160.141038410854
 30
0.0
 10
2123.587708768586
 20
3160.141038410855
 30
0.0
 10
2130.171051687145
 20
3160.141038410854
 30
0.0
 10
2136.846207536639
 20
3160.141038410854
 30
0.0
 10
2141.326725532233
 20
3160.141038410854
 30
0.0
 10
2143.596954592935
 20
3160.141038410854
 30
0.0
  0
LINE
  5
122
330
1F
100
AcDbEntity
  8
0
  6
Continuous
 62
     7
370
    15
100
AcDbLine
 10
2143.5970151925
 20
1955.1410384109
 30
0.0
 11
2143.5970151925
 21
1940.2329743842
 31
0.0
  0
LINE
  5
123
330
1F
100
AcDbEntity
  8
0
  6
Continuous
 62
     7
370
    15
100
AcDbLine
 10
2142.6038120319
 20
1941.1406278154
 30
0.0
 11
2143.5970151925
 21
1940.2329743842
 31
0.0
  0
LINE
  5
124
330
1F
100
AcDbEntity
  8
0
  6
Continuous
 62
     7
370
    15
100
AcDbLine
 10
2143.5970151925
 20
1940.2329743842
 30
0.0
 11
2143.5970151925
 21
1940.1410358691
 31
0.0
  0
SPLINE
  5
125
330
1F
100
AcDbEntity
  8
0
  6
Continuous
 62
     7
370
    15
100
AcDbSpline
210
0.0
220
0.0
230
1.0
 70
    24
 71
     3
 72
    25
 73
    21
 74
     0
 42
0.00000001
 43
0.00000001
 40
0.0
 40
0.0
 40
0.0
 40
0.0
 40
0.0724341148220288
 40
0.1434607893201509
 40
0.2131838186593915
 40
0.2853694837361827
 40
0.3586921857420586
 40
0.4291869283872676
 40
0.4970560970984381
 40
0.5521882340208929
 40
0.604539757315824
 40
0.6542940136958583
 40
0.7016645175091775
 40
0.7468985511795482
 40
0.791192430760198
 40
0.8328830946863554
 40
0.8724316712158764
 40
0.9368570946373657
 40
0.997953657858391
 40
1.0
 40
1.0
 40
1.0
 40
1.0
 10
2143.596968426417
 20
1940.141038410854
 30
0.0
 10
2141.982701773144
 20
1940.141038410854
 30
0.0
 10
2138.785534681079
 20
1940.141038410854
 30
0.0
 10
2134.065221431005
 20
1940.141038410854
 30
0.0
 10
2129.383008119234
 20
1940.141038410854
 30
0.0
 10
2124.694498788032
 20
1940.141038410854
 30
0.0
 10
2120.047454218205
 20
1940.141038410854
 30
0.0
 10
2115.568962667765
 20
1940.141038410854
 30
0.0
 10
2111.562194529121
 20
1940.141038410854
 30
0.0
 10
2108.020875610507
 20
1940.141038410854
 30
0.0
 10
2104.936267774614
 20
1940.141038410854
 30
0.0
 10
2102.110642202871
 20
1940.141038410854
 30
0.0
 10
2099.544008958052
 20
1940.141038410854
 30
0.0
 10
2097.221129478695
 20
1940.141038410854
 30
0.0
 10
2095.163120443182
 20
1940.141038410854
 30
0.0
 10
2093.408304624478
 20
1940.141038410854
 30
0.0
 10
2091.648348813856
 20
1940.141038410854
 30
0.0
 10
2090.299637538915
 20
1940.141038410854
 30
0.0
 10
2089.63381505685
 20
1940.141038410855
 30
0.0
 10
2089.812614904694
 20
1940.141038410854
 30
0.0
 10
2089.818409469602
 20
1940.141038410854
 30
0.0
  0
LINE
  5
126
330
1F
100
AcDbEntity
  8
0
  6
Continuous
 62
     7
370
    15
100
AcDbLine
 10
2145.3417067844
 20
1962.1410384109
 30
0.0
 11
2145.534527584
 21
1962.1410384109
 31
0.0
  0
LINE
  5
127
330
1F
100
AcDbEntity
  8
0
  6
Continuous
 62
     8
370
    15
100
AcDbLine
 10
2157.4626779841
 20
4188.9406734905
 30
0.0
 11
2218.8010267454
 21
4188.9406734905
 31
0.0
  0
LINE
  5
128
330
1F
100
AcDbEntity
  8
0
  6
Continuous
 62
     8
370
    15
100
AcDbLine
 10
2098.8010267454
 20
4188.9406734905
 30
0.0
 11
2157.4626779841
 21
4188.9406734905
 31
0.0
  0
DIMENSION
  5
129
330
1F
100
AcDbEntity
  8
0
  6
Continuous
 62
     7
370
     0
100
AcDbDimension
  2
_D
 10
2428.9010267454
 20
3160.1410384109
 30
0.0
 11
2428.9010267454
 21
2577.02301216
 31
0.0
 70
    32
  1
<>
 71
     2
 42
-1.0
 73
     0
 74
     0
 75
     0
  3
SLDDIMSTYLE0
100
AcDbAlignedDimension
 13
2227.8010296384
 23
1940.1410384109
 33
0.0
 14
2218.0160184285
 24
3160.1410384109
 34
0.0
 50
90.0
100
AcDbRotatedDimension
  0
DIMENSION
  5
134
330
1F
100
AcDbEntity
  8
0
  6
Continuous
 62
     7
370
     0
100
AcDbDimension
  2
_D_1
 10
2428.9010267454
 20
4185.9406734905
 30
0.0
 11
2428.9010267454
 21
3742.4822101852
 31
0.0
 70
    32
  1
2500
 71
     2
 42
-1.0
 73
     0
 74
     0
 75
     0
  3
SLDDIMSTYLE0
100
AcDbAlignedDimension
 13
2218.0160184285
 23
3160.1410384109
 33
0.0
 14
2215.8010267454
 24
4185.9406734905
 34
0.0
 50
90.0
100
AcDbRotatedDimension
  0
DIMENSION
  5
13E
330
1F
100
AcDbEntity
  8
0
  6
Continuous
 62
     7
370
     0
100
AcDbDimension
  2
_D_2
 10
2098.8010267454
 20
4455.654748474
 30
0.0
 11
2155.6894682282
 21
4455.654748474
 31
0.0
 70
    32
  1
%%c<>
 71
     2
 42
-1.0
 73
     0
 74
     0
 75
     0
  3
SLDDIMSTYLE1
100
AcDbAlignedDimension
 13
2218.8010267454
 23
4233.9406734905
 33
0.0
 14
2098.8010267454
 24
4233.9406734905
 34
0.0
100
AcDbRotatedDimension
  0
ENDSEC
  0
SECTION
  2
OBJECTS
  0
DICTIONARY
  5
C
330
0
100
AcDbDictionary
281
     1
  3
ACAD_COLOR
350
6C
  3
ACAD_GROUP
350
D
  3
ACAD_LAYOUT
350
1A
  3
ACAD_MATERIAL
350
6B
  3
ACAD_MLEADERSTYLE
350
1A9
  3
ACAD_MLINESTYLE
350
17
  3
ACAD_PLOTSETTINGS
350
19
  3
ACAD_PLOTSTYLENAME
350
E
  3
ACAD_SCALELIST
350
99
  3
ACAD_TABLESTYLE
350
92
  3
AcDbVariableDictionary
350
59
  0
DICTIONARY
  5
1A8
330
1F
100
AcDbDictionary
280
     1
281
     1
  0
DICTIONARY
  5
6C
102
{ACAD_REACTORS
330
C
102
}
330
C
100
AcDbDictionary
281
     1
  0
DICTIONARY
  5
D
102
{ACAD_REACTORS
330
C
102
}
330
C
100
AcDbDictionary
281
     1
  0
DICTIONARY
  5
1A
102
{ACAD_REACTORS
330
C
102
}
330
C
100
AcDbDictionary
281
     1
  3
Layout1
350
74
  3
Layout2
350
26
  3
Model
350
22
  0
DICTIONARY
  5
6B
102
{ACAD_REACTORS
330
C
102
}
330
C
100
AcDbDictionary
281
     1
  0
DICTIONARY
  5
1A9
102
{ACAD_REACTORS
330
C
102
}
330
C
100
AcDbDictionary
281
     1
  0
DICTIONARY
  5
17
102
{ACAD_REACTORS
330
C
102
}
330
C
100
AcDbDictionary
281
     1
  3
Standard
350
18
  0
DICTIONARY
  5
19
102
{ACAD_REACTORS
330
C
102
}
330
C
100
AcDbDictionary
281
     1
  0
ACDBDICTIONARYWDFLT
  5
E
102
{ACAD_REACTORS
330
C
102
}
330
C
100
AcDbDictionary
281
     1
  3
Normal
350
F
100
AcDbDictionaryWithDefault
340
F
  0
DICTIONARY
  5
99
102
{ACAD_REACTORS
330
C
102
}
330
C
100
AcDbDictionary
281
     1
  3
A0
350
14D
  3
A1
350
14E
  3
A2
350
14F
  3
A3
350
150
  3
A4
350
151
  3
A5
350
152
  3
A6
350
153
  3
A7
350
154
  3
A8
350
155
  3
A9
350
156
  3
B0
350
157
  3
B1
350
158
  3
B2
350
159
  3
B3
350
15A
  3
B4
350
15B
  3
B5
350
15C
  3
B6
350
15D
  3
B7
350
15E
  3
B8
350
15F
  3
B9
350
160
  3
C0
350
161
  3
C1
350
162
  3
C2
350
163
  3
C3
350
164
  3
C4
350
165
  3
C5
350
166
  3
C6
350
167
  3
C7
350
168
  3
C8
350
169
  3
C9
350
16A
  3
D0
350
16B
  3
D1
350
16C
  3
D2
350
16D
  0
DICTIONARY
  5
92
102
{ACAD_REACTORS
330
C
102
}
330
C
100
AcDbDictionary
281
     1
  3
Standard
350
93
  0
DICTIONARY
  5
59
102
{ACAD_REACTORS
330
C
102
}
330
C
100
AcDbDictionary
281
     1
  3
CANNOSCALE
350
1AA
  3
CTABLESTYLE
350
98
  3
DIMASSOC
350
170
  3
HIDETEXT
350
5E
  0
LAYOUT
  5
74
102
{ACAD_REACTORS
330
1A
102
}
330
1A
100
AcDbPlotSettings
  1

  2
none_device
  4
ISO_C5_(229.00_x_162.00_MM)
  6

 40
0.0
 41
0.0
 42
0.0
 43
0.0
 44
229.0
 45
162.0
 46
0.0
 47
0.0
 48
0.0
 49
0.0
140
0.0
141
0.0
142
1.0
143
1.0
 70
   688
 72
     1
 73
     0
 74
     5
  7

 75
    16
 76
     0
 77
     2
 78
   300
147
1.0
148
0.0
149
0.0
100
AcDbLayout
  1
Layout1
 70
     1
 71
     1
 10
0.0
 20
0.0
 11
420.0
 21
297.0
 12
0.0
 22
0.0
 32
0.0
 14
1.000000000000000E+20
 24
1.000000000000000E+20
 34
1.000000000000000E+20
 15
-1.000000000000000E+20
 25
-1.000000000000000E+20
 35
-1.000000000000000E+20
146
0.0
 13
0.0
 23
0.0
 33
0.0
 16
1.0
 26
0.0
 36
0.0
 17
0.0
 27
1.0
 37
0.0
 76
     0
330
73
  0
LAYOUT
  5
26
102
{ACAD_REACTORS
330
1A
102
}
330
1A
100
AcDbPlotSettings
  1

  2
none_device
  4
ISO_C5_(229.00_x_162.00_MM)
  6

 40
0.0
 41
0.0
 42
0.0
 43
0.0
 44
229.0
 45
162.0
 46
0.0
 47
0.0
 48
0.0
 49
0.0
140
0.0
141
0.0
142
1.0
143
1.0
 70
   688
 72
     1
 73
     0
 74
     5
  7

 75
    16
 76
     0
 77
     2
 78
   300
147
1.0
148
0.0
149
0.0
100
AcDbLayout
  1
Layout2
 70
     1
 71
     2
 10
0.0
 20
0.0
 11
0.0
 21
0.0
 12
0.0
 22
0.0
 32
0.0
 14
0.0
 24
0.0
 34
0.0
 15
0.0
 25
0.0
 35
0.0
146
0.0
 13
0.0
 23
0.0
 33
0.0
 16
1.0
 26
0.0
 36
0.0
 17
0.0
 27
1.0
 37
0.0
 76
     0
330
23
  0
LAYOUT
  5
22
102
{ACAD_REACTORS
330
1A
102
}
330
1A
100
AcDbPlotSettings
  1

  2
none_device
  4
ISO_C5_(229.00_x_162.00_MM)
  6

 40
0.0
 41
0.0
 42
0.0
 43
0.0
 44
229.0
 45
162.0
 46
0.0
 47
0.0
 48
0.0
 49
0.0
140
0.0
141
0.0
142
1.0
143
1.0
 70
 11952
 72
     1
 73
     0
 74
     0
  7

 75
    16
 76
     0
 77
     2
 78
   300
147
1.0
148
0.0
149
0.0
100
AcDbLayout
  1
Model
 70
     1
 71
     0
 10
0.0
 20
0.0
 11
4200.0
 21
5940.0
 12
0.0
 22
0.0
 32
0.0
 14
1.5768713071
 24
4.2956031328
 34
0.0
 15
4201.5768713071
 25
5944.2956031328
 35
0.1
146
0.0
 13
0.0
 23
0.0
 33
0.0
 16
1.0
 26
0.0
 36
0.0
 17
0.0
 27
1.0
 37
0.0
 76
     0
330
1F
331
97
  0
MLINESTYLE
  5
18
102
{ACAD_REACTORS
330
17
102
}
330
17
100
AcDbMlineStyle
  2
Standard
 70
     0
  3

 62
   256
 51
90.0
 52
90.0
 71
     2
 49
0.5
 62
   256
  6
BYLAYER
 49
-0.5
 62
   256
  6
BYLAYER
  0
ACDBPLACEHOLDER
  5
F
102
{ACAD_REACTORS
330
E
102
}
330
E
  0
SCALE
  5
14D
102
{ACAD_REACTORS
330
99
102
}
330
99
100
AcDbScale
 70
     0
300
1:1
140
1.0
141
1.0
290
     1
  0
SCALE
  5
14E
102
{ACAD_REACTORS
330
99
102
}
330
99
100
AcDbScale
 70
     0
300
1:2
140
1.0
141
2.0
290
     0
  0
SCALE
  5
14F
102
{ACAD_REACTORS
330
99
102
}
330
99
100
AcDbScale
 70
     0
300
1:4
140
1.0
141
4.0
290
     0
  0
SCALE
  5
150
102
{ACAD_REACTORS
330
99
102
}
330
99
100
AcDbScale
 70
     0
300
1:5
140
1.0
141
5.0
290
     0
  0
SCALE
  5
151
102
{ACAD_REACTORS
330
99
102
}
330
99
100
AcDbScale
 70
     0
300
1:8
140
1.0
141
8.0
290
     0
  0
SCALE
  5
152
102
{ACAD_REACTORS
330
99
102
}
330
99
100
AcDbScale
 70
     0
300
1:10
140
1.0
141
10.0
290
     0
  0
SCALE
  5
153
102
{ACAD_REACTORS
330
99
102
}
330
99
100
AcDbScale
 70
     0
300
1:16
140
1.0
141
16.0
290
     0
  0
SCALE
  5
154
102
{ACAD_REACTORS
330
99
102
}
330
99
100
AcDbScale
 70
     0
300
1:20
140
1.0
141
20.0
290
     0
  0
SCALE
  5
155
102
{ACAD_REACTORS
330
99
102
}
330
99
100
AcDbScale
 70
     0
300
1:30
140
1.0
141
30.0
290
     0
  0
SCALE
  5
156
102
{ACAD_REACTORS
330
99
102
}
330
99
100
AcDbScale
 70
     0
300
1:40
140
1.0
141
40.0
290
     0
  0
SCALE
  5
157
102
{ACAD_REACTORS
330
99
102
}
330
99
100
AcDbScale
 70
     0
300
1:50
140
1.0
141
50.0
290
     0
  0
SCALE
  5
158
102
{ACAD_REACTORS
330
99
102
}
330
99
100
AcDbScale
 70
     0
300
1:100
140
1.0
141
100.0
290
     0
  0
SCALE
  5
159
102
{ACAD_REACTORS
330
99
102
}
330
99
100
AcDbScale
 70
     0
300
2:1
140
2.0
141
1.0
290
     0
  0
SCALE
  5
15A
102
{ACAD_REACTORS
330
99
102
}
330
99
100
AcDbScale
 70
     0
300
4:1
140
4.0
141
1.0
290
     0
  0
SCALE
  5
15B
102
{ACAD_REACTORS
330
99
102
}
330
99
100
AcDbScale
 70
     0
300
8:1
140
8.0
141
1.0
290
     0
  0
SCALE
  5
15C
102
{ACAD_REACTORS
330
99
102
}
330
99
100
AcDbScale
 70
     0
300
10:1
140
10.0
141
1.0
290
     0
  0
SCALE
  5
15D
102
{ACAD_REACTORS
330
99
102
}
330
99
100
AcDbScale
 70
     0
300
100:1
140
100.0
141
1.0
290
     0
  0
SCALE
  5
15E
102
{ACAD_REACTORS
330
99
102
}
330
99
100
AcDbScale
 70
     0
300
1/128" = 1'-0"
140
0.0078125
141
12.0
290
     0
  0
SCALE
  5
15F
102
{ACAD_REACTORS
330
99
102
}
330
99
100
AcDbScale
 70
     0
300
1/64" = 1'-0"
140
0.015625
141
12.0
290
     0
  0
SCALE
  5
160
102
{ACAD_REACTORS
330
99
102
}
330
99
100
AcDbScale
 70
     0
300
1/32" = 1'-0"
140
0.03125
141
12.0
290
     0
  0
SCALE
  5
161
102
{ACAD_REACTORS
330
99
102
}
330
99
100
AcDbScale
 70
     0
300
1/16" = 1'-0"
140
0.0625
141
12.0
290
     0
  0
SCALE
  5
162
102
{ACAD_REACTORS
330
99
102
}
330
99
100
AcDbScale
 70
     0
300
3/32" = 1'-0"
140
0.09375
141
12.0
290
     0
  0
SCALE
  5
163
102
{ACAD_REACTORS
330
99
102
}
330
99
100
AcDbScale
 70
     0
300
1/8" = 1'-0"
140
0.125
141
12.0
290
     0
  0
SCALE
  5
164
102
{ACAD_REACTORS
330
99
102
}
330
99
100
AcDbScale
 70
     0
300
3/16" = 1'-0"
140
0.1875
141
12.0
290
     0
  0
SCALE
  5
165
102
{ACAD_REACTORS
330
99
102
}
330
99
100
AcDbScale
 70
     0
300
1/4" = 1'-0"
140
0.25
141
12.0
290
     0
  0
SCALE
  5
166
102
{ACAD_REACTORS
330
99
102
}
330
99
100
AcDbScale
 70
     0
300
3/8" = 1'-0"
140
0.375
141
12.0
290
     0
  0
SCALE
  5
167
102
{ACAD_REACTORS
330
99
102
}
330
99
100
AcDbScale
 70
     0
300
1/2" = 1'-0"
140
0.5
141
12.0
290
     0
  0
SCALE
  5
168
102
{ACAD_REACTORS
330
99
102
}
330
99
100
AcDbScale
 70
     0
300
3/4" = 1'-0"
140
0.75
141
12.0
290
     0
  0
SCALE
  5
169
102
{ACAD_REACTORS
330
99
102
}
330
99
100
AcDbScale
 70
     0
300
1" = 1'-0"
140
1.0
141
12.0
290
     0
  0
SCALE
  5
16A
102
{ACAD_REACTORS
330
99
102
}
330
99
100
AcDbScale
 70
     0
300
1-1/2" = 1'-0"
140
1.5
141
12.0
290
     0
  0
SCALE
  5
16B
102
{ACAD_REACTORS
330
99
102
}
330
99
100
AcDbScale
 70
     0
300
3" = 1'-0"
140
3.0
141
12.0
290
     0
  0
SCALE
  5
16C
102
{ACAD_REACTORS
330
99
102
}
330
99
100
AcDbScale
 70
     0
300
6" = 1'-0"
140
6.0
141
12.0
290
     0
  0
SCALE
  5
16D
102
{ACAD_REACTORS
330
99
102
}
330
99
100
AcDbScale
 70
     0
300
1'-0" = 1'-0"
140
12.0
141
12.0
290
     0
  0
TABLESTYLE
  5
93
102
{ACAD_REACTORS
330
92
102
}
330
92
100
AcDbTableStyle
  3
Standard
 70
     0
 71
     0
 40
0.06
 41
0.06
280
     0
281
     0
  7
Standard
140
0.18
170
     2
 62
     0
 63
     7
283
     0
 90
      512
 91
        0
  1

274
    -2
284
     1
 64
     0
275
    -2
285
     1
 65
     0
276
    -2
286
     1
 66
     0
277
    -2
287
     1
 67
     0
278
    -2
288
     1
 68
     0
279
    -2
289
     1
 69
     0
  7
Standard
140
0.25
170
     5
 62
     0
 63
     7
283
     0
 90
      512
 91
        0
  1

274
    -2
284
     1
 64
     0
275
    -2
285
     1
 65
     0
276
    -2
286
     1
 66
     0
277
    -2
287
     1
 67
     0
278
    -2
288
     1
 68
     0
279
    -2
289
     1
 69
     0
  7
Standard
140
0.18
170
     5
 62
     0
 63
     7
283
     0
 90
      512
 91
        0
  1

274
    -2
284
     1
 64
     0
275
    -2
285
     1
 65
     0
276
    -2
286
     1
 66
     0
277
    -2
287
     1
 67
     0
278
    -2
288
     1
 68
     0
279
    -2
289
     1
 69
     0
  0
DICTIONARYVAR
  5
1AA
102
{ACAD_REACTORS
330
59
102
}
330
59
100
DictionaryVariables
280
     0
  1
1:1
  0
DICTIONARYVAR
  5
98
102
{ACAD_REACTORS
330
59
102
}
330
59
100
DictionaryVariables
280
     0
  1
Standard
  0
DICTIONARYVAR
  5
170
102
{ACAD_REACTORS
330
59
102
}
330
59
100
DictionaryVariables
280
     0
  1
2
  0
DICTIONARYVAR
  5
5E
102
{ACAD_REACTORS
330
59
102
}
330
59
100
DictionaryVariables
280
     0
  1
1
  0
ENDSEC
  0
EOF
