  0
SECTION
  2
HEADER
  9
$ACADVER
  1
AC1021
  9
$ACADMAINTVER
 70
    25
  9
$DWGCODEPAGE
  3
ANSI_1252
  9
$LASTSAVEDBY
  1
Josep Sancho
  9
$INSBASE
 10
0.0
 20
0.0
 30
0.0
  9
$EXTMIN
 10
176.8264998564
 20
49.9980727422
 30
0.0
  9
$EXTMAX
 10
2049.4323743066
 20
4010.634417971
 30
0.0
  9
$LIMMIN
 10
0.0
 20
0.0
  9
$LIMMAX
 10
2100.0
 20
2970.0
  9
$ORTHOMODE
 70
     0
  9
$REGENMODE
 70
     1
  9
$FILLMODE
 70
     1
  9
$QTEXTMODE
 70
     0
  9
$MIRRTEXT
 70
     1
  9
$LTSCALE
 40
10.0
  9
$ATTMODE
 70
     1
  9
$TEXTSIZE
 40
35.0
  9
$TRACEWID
 40
1.0
  9
$TEXTSTYLE
  7
Standard
  9
$CLAYER
  8
0
  9
$CELTYPE
  6
ByLayer
  9
$CECOLOR
 62
   256
  9
$CELTSCALE
 40
1.0
  9
$DISPSILH
 70
     0
  9
$DIMSCALE
 40
1.0
  9
$DIMASZ
 40
33.02
  9
$DIMEXO
 40
10.0
  9
$DIMDLI
 40
3.75
  9
$DIMRND
 40
0.0
  9
$DIMDLE
 40
0.0
  9
$DIMEXE
 40
10.0
  9
$DIMTP
 40
0.0
  9
$DIMTM
 40
0.0
  9
$DIMTXT
 40
35.0
  9
$DIMCEN
 40
2.5
  9
$DIMTSZ
 40
0.0
  9
$DIMTOL
 70
     0
  9
$DIMLIM
 70
     0
  9
$DIMTIH
 70
     1
  9
$DIMTOH
 70
     1
  9
$DIMSE1
 70
     0
  9
$DIMSE2
 70
     0
  9
$DIMTAD
 70
     1
  9
$DIMZIN
 70
     0
  9
$DIMBLK
  1

  9
$DIMASO
 70
     1
  9
$DIMSHO
 70
     1
  9
$DIMPOST
  1

  9
$DIMAPOST
  1

  9
$DIMALT
 70
     0
  9
$DIMALTD
 70
     3
  9
$DIMALTF
 40
0.0393700787
  9
$DIMLFAC
 40
1.0
  9
$DIMTOFL
 70
     1
  9
$DIMTVP
 40
0.0
  9
$DIMTIX
 70
     0
  9
$DIMSOXD
 70
     0
  9
$DIMSAH
 70
     0
  9
$DIMBLK1
  1

  9
$DIMBLK2
  1

  9
$DIMSTYLE
  2
ISO-25
  9
$DIMCLRD
 70
     0
  9
$DIMCLRE
 70
     0
  9
$DIMCLRT
 70
     0
  9
$DIMTFAC
 40
1.0
  9
$DIMGAP
 40
15.24
  9
$DIMJUST
 70
     0
  9
$DIMSD1
 70
     0
  9
$DIMSD2
 70
     0
  9
$DIMTOLJ
 70
     0
  9
$DIMTZIN
 70
     0
  9
$DIMALTZ
 70
     0
  9
$DIMALTTZ
 70
     0
  9
$DIMUPT
 70
     0
  9
$DIMDEC
 70
     3
  9
$DIMTDEC
 70
     3
  9
$DIMALTU
 70
     2
  9
$DIMALTTD
 70
     3
  9
$DIMTXSTY
  7
Standard
  9
$DIMAUNIT
 70
     0
  9
$DIMADEC
 70
     2
  9
$DIMALTRND
 40
0.0
  9
$DIMAZIN
 70
     0
  9
$DIMDSEP
 70
    44
  9
$DIMATFIT
 70
     3
  9
$DIMFRAC
 70
     0
  9
$DIMLDRBLK
  1

  9
$DIMLUNIT
 70
     2
  9
$DIMLWD
 70
    -2
  9
$DIMLWE
 70
    -2
  9
$DIMTMOVE
 70
     0
  9
$DIMFXL
 40
1.0
  9
$DIMFXLON
 70
     0
  9
$DIMJOGANG
 40
0.7853981633974483
  9
$DIMTFILL
 70
     0
  9
$DIMTFILLCLR
 70
     0
  9
$DIMARCSYM
 70
     0
  9
$DIMLTYPE
  6

  9
$DIMLTEX1
  6

  9
$DIMLTEX2
  6

  9
$LUNITS
 70
     2
  9
$LUPREC
 70
     2
  9
$SKETCHINC
 40
1.0
  9
$FILLETRAD
 40
10.0
  9
$AUNITS
 70
     0
  9
$AUPREC
 70
     2
  9
$MENU
  1
.
  9
$ELEVATION
 40
0.0
  9
$PELEVATION
 40
0.0
  9
$THICKNESS
 40
0.0
  9
$LIMCHECK
 70
     0
  9
$CHAMFERA
 40
10.0
  9
$CHAMFERB
 40
10.0
  9
$CHAMFERC
 40
20.0
  9
$CHAMFERD
 40
0.0
  9
$SKPOLY
 70
     0
  9
$TDCREATE
 40
2453353.800459155
  9
$TDUCREATE
 40
2453353.717125822
  9
$TDUPDATE
 40
2457122.896539954
  9
$TDUUPDATE
 40
2457122.813206621
  9
$TDINDWG
 40
0.0431250116
  9
$TDUSRTIMER
 40
0.0431250116
  9
$USRTIMER
 70
     1
  9
$ANGBASE
 50
0.0
  9
$ANGDIR
 70
     0
  9
$PDMODE
 70
     0
  9
$PDSIZE
 40
-1.0
  9
$PLINEWID
 40
0.0
  9
$SPLFRAME
 70
     0
  9
$SPLINETYPE
 70
     6
  9
$SPLINESEGS
 70
     8
  9
$HANDSEED
  5
234
  9
$SURFTAB1
 70
     6
  9
$SURFTAB2
 70
     6
  9
$SURFTYPE
 70
     6
  9
$SURFU
 70
     6
  9
$SURFV
 70
     6
  9
$UCSBASE
  2

  9
$UCSNAME
  2

  9
$UCSORG
 10
0.0
 20
0.0
 30
0.0
  9
$UCSXDIR
 10
1.0
 20
0.0
 30
0.0
  9
$UCSYDIR
 10
0.0
 20
1.0
 30
0.0
  9
$UCSORTHOREF
  2

  9
$UCSORTHOVIEW
 70
     0
  9
$UCSORGTOP
 10
0.0
 20
0.0
 30
0.0
  9
$UCSORGBOTTOM
 10
0.0
 20
0.0
 30
0.0
  9
$UCSORGLEFT
 10
0.0
 20
0.0
 30
0.0
  9
$UCSORGRIGHT
 10
0.0
 20
0.0
 30
0.0
  9
$UCSORGFRONT
 10
0.0
 20
0.0
 30
0.0
  9
$UCSORGBACK
 10
0.0
 20
0.0
 30
0.0
  9
$PUCSBASE
  2

  9
$PUCSNAME
  2

  9
$PUCSORG
 10
0.0
 20
0.0
 30
0.0
  9
$PUCSXDIR
 10
1.0
 20
0.0
 30
0.0
  9
$PUCSYDIR
 10
0.0
 20
1.0
 30
0.0
  9
$PUCSORTHOREF
  2

  9
$PUCSORTHOVIEW
 70
     0
  9
$PUCSORGTOP
 10
0.0
 20
0.0
 30
0.0
  9
$PUCSORGBOTTOM
 10
0.0
 20
0.0
 30
0.0
  9
$PUCSORGLEFT
 10
0.0
 20
0.0
 30
0.0
  9
$PUCSORGRIGHT
 10
0.0
 20
0.0
 30
0.0
  9
$PUCSORGFRONT
 10
0.0
 20
0.0
 30
0.0
  9
$PUCSORGBACK
 10
0.0
 20
0.0
 30
0.0
  9
$USERI1
 70
     0
  9
$USERI2
 70
     0
  9
$USERI3
 70
     0
  9
$USERI4
 70
     0
  9
$USERI5
 70
     0
  9
$USERR1
 40
0.0
  9
$USERR2
 40
0.0
  9
$USERR3
 40
0.0
  9
$USERR4
 40
0.0
  9
$USERR5
 40
0.0
  9
$WORLDVIEW
 70
     1
  9
$SHADEDGE
 70
     3
  9
$SHADEDIF
 70
    70
  9
$TILEMODE
 70
     1
  9
$MAXACTVP
 70
    64
  9
$PINSBASE
 10
0.0
 20
0.0
 30
0.0
  9
$PLIMCHECK
 70
     0
  9
$PEXTMIN
 10
1.000000000000000E+20
 20
1.000000000000000E+20
 30
1.000000000000000E+20
  9
$PEXTMAX
 10
-1.000000000000000E+20
 20
-1.000000000000000E+20
 30
-1.000000000000000E+20
  9
$PLIMMIN
 10
0.0
 20
0.0
  9
$PLIMMAX
 10
420.0
 20
297.0
  9
$UNITMODE
 70
     0
  9
$VISRETAIN
 70
     1
  9
$PLINEGEN
 70
     0
  9
$PSLTSCALE
 70
     1
  9
$TREEDEPTH
 70
  3020
  9
$CMLSTYLE
  2
Standard
  9
$CMLJUST
 70
     0
  9
$CMLSCALE
 40
20.0
  9
$PROXYGRAPHICS
 70
     1
  9
$MEASUREMENT
 70
     1
  9
$CELWEIGHT
370
    -1
  9
$ENDCAPS
280
     0
  9
$JOINSTYLE
280
     0
  9
$LWDISPLAY
290
     1
  9
$INSUNITS
 70
     4
  9
$HYPERLINKBASE
  1

  9
$STYLESHEET
  1

  9
$XEDIT
290
     0
  9
$CEPSNTYPE
380
     0
  9
$PSTYLEMODE
290
     1
  9
$FINGERPRINTGUID
  2
{47E7E735-6ECE-48CC-9922-0AB6916BF107}
  9
$VERSIONGUID
  2
{FAEB1C32-E019-11D5-929B-00C0DF256EC4}
  9
$EXTNAMES
290
     1
  9
$PSVPSCALE
 40
0.0
  9
$OLESTARTUP
290
     0
  9
$SORTENTS
280
   127
  9
$INDEXCTL
280
     0
  9
$HIDETEXT
280
     1
  9
$XCLIPFRAME
290
     0
  9
$HALOGAP
280
     0
  9
$OBSCOLOR
 70
   257
  9
$OBSLTYPE
280
     0
  9
$INTERSECTIONDISPLAY
280
     0
  9
$INTERSECTIONCOLOR
 70
   257
  9
$DIMASSOC
280
     2
  9
$PROJECTNAME
  1

  9
$CAMERADISPLAY
290
     0
  9
$LENSLENGTH
 40
50.0
  9
$CAMERAHEIGHT
 40
0.0
  9
$STEPSPERSEC
 40
2.0
  9
$STEPSIZE
 40
6.0
  9
$3DDWFPREC
 40
2.0
  9
$PSOLWIDTH
 40
0.25
  9
$PSOLHEIGHT
 40
4.0
  9
$LOFTANG1
 40
1.570796326794897
  9
$LOFTANG2
 40
1.570796326794897
  9
$LOFTMAG1
 40
0.0
  9
$LOFTMAG2
 40
0.0
  9
$LOFTPARAM
 70
     7
  9
$LOFTNORMALS
280
     1
  9
$LATITUDE
 40
37.795
  9
$LONGITUDE
 40
-122.394
  9
$NORTHDIRECTION
 40
0.0
  9
$TIMEZONE
 70
 -8000
  9
$LIGHTGLYPHDISPLAY
280
     1
  9
$TILEMODELIGHTSYNCH
280
     1
  9
$SOLIDHIST
280
     1
  9
$SHOWHIST
280
     1
  9
$DWFFRAME
280
     2
  9
$DGNFRAME
280
     2
  9
$REALWORLDSCALE
290
     1
  9
$INTERFERECOLOR
 62
   256
  9
$CSHADOW
280
     0
  9
$SHADOWPLANELOCATION
 40
0.0
  0
ENDSEC
  0
SECTION
  2
CLASSES
  0
CLASS
  1
ACDBDICTIONARYWDFLT
  2
AcDbDictionaryWithDefault
  3
ObjectDBX Classes
 90
        0
 91
        4
280
     0
281
     0
  0
CLASS
  1
ACDBPLACEHOLDER
  2
AcDbPlaceHolder
  3
ObjectDBX Classes
 90
        0
 91
        1
280
     0
281
     0
  0
CLASS
  1
LAYOUT
  2
AcDbLayout
  3
ObjectDBX Classes
 90
        0
 91
        1
280
     0
281
     0
  0
CLASS
  1
DICTIONARYVAR
  2
AcDbDictionaryVar
  3
ObjectDBX Classes
 90
        0
 91
        4
280
     0
281
     0
  0
CLASS
  1
TABLESTYLE
  2
AcDbTableStyle
  3
ObjectDBX Classes
 90
     4095
 91
        4
280
     0
281
     0
  0
CLASS
  1
SCALE
  2
AcDbScale
  3
ObjectDBX Classes
 90
     1153
 91
        4
280
     0
281
     0
  0
CLASS
  1
IMAGEDEF
  2
AcDbRasterImageDef
  3
ISM
 90
        0
 91
        4
280
     0
281
     0
  0
CLASS
  1
VISUALSTYLE
  2
AcDbVisualStyle
  3
ObjectDBX Classes
 90
     4095
 91
        4
280
     0
281
     0
  0
ENDSEC
  0
SECTION
  2
TABLES
  0
TABLE
  2
VPORT
  5
8
330
0
100
AcDbSymbolTable
 70
     2
  0
VPORT
  5
97
330
8
100
AcDbSymbolTableRecord
100
AcDbViewportTableRecord
  2
*Active
 70
     0
 10
0.0
 20
0.0
 11
1.0
 21
1.0
 12
1429.095045455456
 22
1775.992194205555
 13
0.0
 23
0.0
 14
10.0
 24
10.0
 15
10.0
 25
10.0
 16
0.0
 26
0.0
 36
1.0
 17
0.0
 27
0.0
 37
0.0
 40
1520.684526304001
 41
0.7070707070999999
 42
50.0
 43
0.0
 44
0.0
 50
0.0
 51
0.0
 71
    16
 72
  2000
 73
     1
 74
     3
 75
     0
 76
     0
 77
     0
 78
     0
281
     0
 65
     0
110
0.0
120
0.0
130
0.0
111
1.0
121
0.0
131
0.0
112
0.0
122
1.0
132
0.0
 79
     0
146
0.0
 60
     3
 61
     5
292
     1
282
     1
141
0.0
142
0.0
 63
   256
  0
ENDTAB
  0
TABLE
  2
LTYPE
  5
5
330
0
100
AcDbSymbolTable
 70
     6
  0
LTYPE
  5
14
330
5
100
AcDbSymbolTableRecord
100
AcDbLinetypeTableRecord
  2
ByBlock
 70
     0
  3

 72
    65
 73
     0
 40
0.0
  0
LTYPE
  5
15
330
5
100
AcDbSymbolTableRecord
100
AcDbLinetypeTableRecord
  2
ByLayer
 70
     0
  3

 72
    65
 73
     0
 40
0.0
  0
LTYPE
  5
16
330
5
100
AcDbSymbolTableRecord
100
AcDbLinetypeTableRecord
  2
Continuous
 70
     0
  3
Solid line
 72
    65
 73
     0
 40
0.0
  0
LTYPE
  5
20E
330
5
100
AcDbSymbolTableRecord
100
AcDbLinetypeTableRecord
  2
HIDDEN
 70
     0
  3
Hidden __ __ __ __ __ __ __ __ __ __ __ __ __ __
 72
    65
 73
     2
 40
1.905
 49
1.27
 74
     4
 75
     0
340
0
 46
1.0
 50
0.0
 44
0.0
 45
0.0
 49
-0.635
 74
     4
 75
     0
340
0
 46
1.0
 50
0.0
 44
0.0
 45
0.0
  0
LTYPE
  5
20F
330
5
100
AcDbSymbolTableRecord
100
AcDbLinetypeTableRecord
  2
PHANTOM
 70
     0
  3
Phantom ______  __  __  ______  __  __  ______
 72
    65
 73
     6
 40
12.7
 49
6.35
 74
     4
 75
     0
340
0
 46
1.0
 50
0.0
 44
0.0
 45
0.0
 49
-1.27
 74
     4
 75
     0
340
0
 46
1.0
 50
0.0
 44
0.0
 45
0.0
 49
1.27
 74
     4
 75
     0
340
0
 46
1.0
 50
0.0
 44
0.0
 45
0.0
 49
-1.27
 74
     4
 75
     0
340
0
 46
1.0
 50
0.0
 44
0.0
 45
0.0
 49
1.27
 74
     4
 75
     0
340
0
 46
1.0
 50
0.0
 44
0.0
 45
0.0
 49
-1.27
 74
     4
 75
     0
340
0
 46
1.0
 50
0.0
 44
0.0
 45
0.0
  0
LTYPE
  5
210
330
5
100
AcDbSymbolTableRecord
100
AcDbLinetypeTableRecord
  2
CENTER
 70
     0
  3
Center ____ _ ____ _ ____ _ ____ _ ____ _ ____
 72
    65
 73
     4
 40
10.16
 49
6.35
 74
     4
 75
     0
340
0
 46
1.0
 50
0.0
 44
0.0
 45
0.0
 49
-1.27
 74
     4
 75
     0
340
0
 46
1.0
 50
0.0
 44
0.0
 45
0.0
 49
1.27
 74
     4
 75
     0
340
0
 46
1.0
 50
0.0
 44
0.0
 45
0.0
 49
-1.27
 74
     4
 75
     0
340
0
 46
1.0
 50
0.0
 44
0.0
 45
0.0
  0
LTYPE
  5
211
330
5
100
AcDbSymbolTableRecord
100
AcDbLinetypeTableRecord
  2
CENTERX2
 70
     0
  3
Center (2x) ________  __  ________  __  _____
 72
    65
 73
     4
 40
20.32
 49
12.7
 74
     4
 75
     0
340
0
 46
1.0
 50
0.0
 44
0.0
 45
0.0
 49
-2.54
 74
     4
 75
     0
340
0
 46
1.0
 50
0.0
 44
0.0
 45
0.0
 49
2.54
 74
     4
 75
     0
340
0
 46
1.0
 50
0.0
 44
0.0
 45
0.0
 49
-2.54
 74
     4
 75
     0
340
0
 46
1.0
 50
0.0
 44
0.0
 45
0.0
  0
LTYPE
  5
212
330
5
100
AcDbSymbolTableRecord
100
AcDbLinetypeTableRecord
  2
DOT2
 70
     0
  3
Dot (.5x) ........................................
 72
    65
 73
     2
 40
0.635
 49
0.0
 74
     4
 75
     0
340
0
 46
1.0
 50
0.0
 44
0.0
 45
0.0
 49
-0.635
 74
     4
 75
     0
340
0
 46
1.0
 50
0.0
 44
0.0
 45
0.0
  0
ENDTAB
  0
TABLE
  2
LAYER
  5
2
330
0
100
AcDbSymbolTable
 70
     1
  0
LAYER
  5
10
330
2
100
AcDbSymbolTableRecord
100
AcDbLayerTableRecord
  2
0
 70
     0
 62
     7
  6
Continuous
370
    -3
390
F
347
0
  0
ENDTAB
  0
TABLE
  2
STYLE
  5
3
330
0
100
AcDbSymbolTable
 70
     4
  0
STYLE
  5
11
330
3
100
AcDbSymbolTableRecord
100
AcDbTextStyleTableRecord
  2
Standard
 70
     0
 40
0.0
 41
1.0
 50
0.0
 71
     0
 42
2.5
  3
txt
  4

  0
STYLE
  5
64
330
3
100
AcDbSymbolTableRecord
100
AcDbTextStyleTableRecord
  2
SLDTEXTSTYLE0
 70
     0
 40
0.0
 41
0.75
 50
0.0
 71
     0
 42
0.2
  3
TXT
  4

  0
STYLE
  5
8A
330
3
100
AcDbSymbolTableRecord
100
AcDbTextStyleTableRecord
  2
SLDTEXTSTYLE1
 70
     0
 40
0.0
 41
0.6944444444
 50
0.0
 71
     0
 42
0.2
  3
TXT
  4

  0
STYLE
  5
20D
330
3
100
AcDbSymbolTableRecord
100
AcDbTextStyleTableRecord
  2
SLDTEXTSTYLE2
 70
     0
 40
0.0
 41
0.605
 50
0.0
 71
     0
 42
0.2
  3
TXT
  4

  0
ENDTAB
  0
TABLE
  2
VIEW
  5
6
330
0
100
AcDbSymbolTable
 70
     0
  0
ENDTAB
  0
TABLE
  2
UCS
  5
7
330
0
100
AcDbSymbolTable
 70
     0
  0
ENDTAB
  0
TABLE
  2
APPID
  5
9
330
0
100
AcDbSymbolTable
 70
     1
  0
APPID
  5
12
330
9
100
AcDbSymbolTableRecord
100
AcDbRegAppTableRecord
  2
ACAD
 70
     0
  0
ENDTAB
  0
TABLE
  2
DIMSTYLE
  5
A
330
0
100
AcDbSymbolTable
 70
     6
100
AcDbDimStyleTable
  0
DIMSTYLE
105
27
330
A
100
AcDbSymbolTableRecord
100
AcDbDimStyleTableRecord
  2
Standard
 70
     0
278
     0
340
11
  0
DIMSTYLE
105
213
330
A
100
AcDbSymbolTableRecord
100
AcDbDimStyleTableRecord
  2
ISO-25
 70
     0
 41
2.5
 42
0.625
 43
3.75
 44
1.25
 73
     0
 74
     0
 77
     1
 78
     8
140
2.5
141
2.5
143
0.0393700787
147
0.625
171
     3
172
     1
271
     2
272
     2
274
     3
278
    44
283
     0
284
     8
340
11
  0
DIMSTYLE
105
1BB
102
{ACAD_REACTORS
330
1BA
330
1F7
102
}
330
A
100
AcDbSymbolTableRecord
100
AcDbDimStyleTableRecord
  2
SLDDIMSTYLE0
 70
     0
 41
33.02
 44
0.0
 45
0.000000001
 73
     0
 77
     1
 78
    12
140
35.0
147
8.75
173
     1
271
     2
272
     2
284
    12
340
64
  0
DIMSTYLE
105
1C6
102
{ACAD_REACTORS
330
1C5
102
}
330
A
100
AcDbSymbolTableRecord
100
AcDbDimStyleTableRecord
  2
SLDDIMSTYLE1
 70
     0
 41
33.02
 44
0.0
 45
0.000000001
 73
     0
 77
     1
 78
    12
140
35.0
147
8.75
173
     1
271
     1
272
     1
284
    12
340
64
  0
DIMSTYLE
105
1D3
102
{ACAD_REACTORS
330
1D2
102
}
330
A
100
AcDbSymbolTableRecord
100
AcDbDimStyleTableRecord
  2
SLDDIMSTYLE2
 70
     0
  3
<>
 41
33.02
 44
0.0
 45
0.000000001
 78
    12
140
35.0
147
8.75
173
     1
271
     2
272
     2
284
    12
340
64
  0
DIMSTYLE
105
1DE
102
{ACAD_REACTORS
330
1DD
330
1EB
102
}
330
A
100
AcDbSymbolTableRecord
100
AcDbDimStyleTableRecord
  2
SLDDIMSTYLE3
 70
     0
 41
33.02
 44
0.0
 45
0.000000001
 73
     0
 77
     1
 78
    12
140
35.0
147
8.75
173
     1
271
     2
272
     2
284
    12
340
64
  0
ENDTAB
  0
TABLE
  2
BLOCK_RECORD
  5
1
330
0
100
AcDbSymbolTable
 70
     7
  0
BLOCK_RECORD
  5
1F
102
{ACAD_XDICTIONARY
360
232
102
}
330
1
100
AcDbSymbolTableRecord
100
AcDbBlockTableRecord
  2
*Model_Space
340
22
 70
     0
280
     1
281
     0
  0
BLOCK_RECORD
  5
73
330
1
100
AcDbSymbolTableRecord
100
AcDbBlockTableRecord
  2
*Paper_Space
340
74
 70
     0
280
     1
281
     0
  0
BLOCK_RECORD
  5
23
330
1
100
AcDbSymbolTableRecord
100
AcDbBlockTableRecord
  2
*Paper_Space0
340
26
 70
     0
280
     1
281
     0
  0
BLOCK_RECORD
  5
1BC
330
1
100
AcDbSymbolTableRecord
100
AcDbBlockTableRecord
  2
*D1
340
0
 70
     0
280
     1
281
     0
  0
BLOCK_RECORD
  5
1C7
330
1
100
AcDbSymbolTableRecord
100
AcDbBlockTableRecord
  2
*D2
340
0
 70
     0
280
     1
281
     0
  0
BLOCK_RECORD
  5
1D4
330
1
100
AcDbSymbolTableRecord
100
AcDbBlockTableRecord
  2
*D3
340
0
 70
     0
280
     1
281
     0
  0
BLOCK_RECORD
  5
1DF
330
1
100
AcDbSymbolTableRecord
100
AcDbBlockTableRecord
  2
*D4
340
0
 70
     0
280
     1
281
     0
  0
BLOCK_RECORD
  5
1EC
330
1
100
AcDbSymbolTableRecord
100
AcDbBlockTableRecord
  2
*D5
340
0
 70
     0
280
     1
281
     0
  0
BLOCK_RECORD
  5
1F8
330
1
100
AcDbSymbolTableRecord
100
AcDbBlockTableRecord
  2
*D6
340
0
 70
     0
280
     1
281
     0
  0
ENDTAB
  0
ENDSEC
  0
SECTION
  2
BLOCKS
  0
BLOCK
  5
20
330
1F
100
AcDbEntity
  8
0
100
AcDbBlockBegin
  2
*Model_Space
 70
     0
 10
0.0
 20
0.0
 30
0.0
  3
*Model_Space
  1

  0
ENDBLK
  5
21
330
1F
100
AcDbEntity
  8
0
100
AcDbBlockEnd
  0
BLOCK
  5
75
330
73
100
AcDbEntity
 67
     1
  8
0
100
AcDbBlockBegin
  2
*Paper_Space
 70
     0
 10
0.0
 20
0.0
 30
0.0
  3
*Paper_Space
  1

  0
ENDBLK
  5
76
330
73
100
AcDbEntity
 67
     1
  8
0
100
AcDbBlockEnd
  0
BLOCK
  5
21A
330
23
100
AcDbEntity
  8
0
100
AcDbBlockBegin
  2
*Paper_Space0
 70
     0
 10
0.0
 20
0.0
 30
0.0
  3
*Paper_Space0
  1

  0
ENDBLK
  5
21B
330
23
100
AcDbEntity
  8
0
100
AcDbBlockEnd
  0
BLOCK
  5
21C
330
1BC
100
AcDbEntity
  8
0
100
AcDbBlockBegin
  2
*D1
 70
     1
 10
0.0
 20
0.0
 30
0.0
  3
*D1
  1

  0
SOLID
  5
1BF
330
1BC
100
AcDbEntity
  8
0
  6
Continuous
 62
     7
 48
10.0
370
     0
100
AcDbTrace
 10
1291.4160269693
 20
1247.5513510307
 30
0.0
 11
1296.4960269693
 21
1280.5713510307
 31
0.0
 12
1286.3360269693
 22
1280.5713510307
 32
0.0
 13
1286.3360269693
 23
1280.5713510307
 33
0.0
  0
SOLID
  5
1C0
330
1BC
100
AcDbEntity
  8
0
  6
Continuous
 62
     7
 48
10.0
370
     0
100
AcDbTrace
 10
1291.4160269693
 20
1513.5513510307
 30
0.0
 11
1286.3360269693
 21
1480.5313510307
 31
0.0
 12
1296.4960269693
 22
1480.5313510307
 32
0.0
 13
1296.4960269693
 23
1480.5313510307
 33
0.0
  0
LINE
  5
1C1
330
1BC
100
AcDbEntity
  8
0
  6
Continuous
 62
     7
 48
10.0
370
     0
100
AcDbLine
 10
1172.7524008872
 20
1247.5513510307
 30
0.0
 11
1301.4160269693
 21
1247.5513510307
 31
0.0
  0
LINE
  5
1C2
330
1BC
100
AcDbEntity
  8
0
  6
Continuous
 62
     7
 48
10.0
370
     0
100
AcDbLine
 10
1125.511198745
 20
1513.5513510307
 30
0.0
 11
1301.4160269693
 21
1513.5513510307
 31
0.0
  0
LINE
  5
1C3
330
1BC
100
AcDbEntity
  8
0
  6
Continuous
 62
     7
 48
10.0
370
     0
100
AcDbLine
 10
1291.4160269693
 20
1247.5513510307
 30
0.0
 11
1291.4160269693
 21
1513.5513510307
 31
0.0
  0
MTEXT
  5
1C4
330
1BC
100
AcDbEntity
  8
0
  6
Continuous
 62
     7
 48
10.0
370
     0
100
AcDbMText
 10
1246.2986578235
 20
1351.1290304229
 30
0.0
 40
35.0
 41
0.0
 46
0.0
 71
     1
 72
     1
  1
266
  7
SLDTEXTSTYLE0
 11
6.123233995736766E-17
 21
1.0
 31
0.0
 73
     1
 44
1.0
  0
ENDBLK
  5
21D
330
1BC
100
AcDbEntity
  8
0
100
AcDbBlockEnd
  0
BLOCK
  5
21E
330
1C7
100
AcDbEntity
  8
0
100
AcDbBlockBegin
  2
*D2
 70
     1
 10
0.0
 20
0.0
 30
0.0
  3
*D2
  1

  0
SOLID
  5
1CA
330
1C7
100
AcDbEntity
  8
0
  6
Continuous
 62
     7
 48
10.0
370
     0
100
AcDbTrace
 10
917.9657626697
 20
1440.0513510307
 30
0.0
 11
923.0457626697
 21
1473.0713510307
 31
0.0
 12
912.8857626697
 22
1473.0713510307
 32
0.0
 13
912.8857626697
 23
1473.0713510307
 33
0.0
  0
SOLID
  5
1CB
330
1C7
100
AcDbEntity
  8
0
  6
Continuous
 62
     7
 48
10.0
370
     0
100
AcDbTrace
 10
917.9657626697
 20
1247.5513510307
 30
0.0
 11
912.8857626697
 21
1214.5313510307
 31
0.0
 12
923.0457626697
 22
1214.5313510307
 32
0.0
 13
923.0457626697
 23
1214.5313510307
 33
0.0
  0
LINE
  5
1CC
330
1C7
100
AcDbEntity
  8
0
  6
Continuous
 62
     7
 48
10.0
370
     0
100
AcDbLine
 10
1055.6908948195
 20
1440.0513510307
 30
0.0
 11
907.9657626697
 21
1440.0513510307
 31
0.0
  0
LINE
  5
1CD
330
1C7
100
AcDbEntity
  8
0
  6
Continuous
 62
     7
 48
10.0
370
     0
100
AcDbLine
 10
1094.6908948195
 20
1247.5513510307
 30
0.0
 11
907.9657626697
 21
1247.5513510307
 31
0.0
  0
LINE
  5
1CE
330
1C7
100
AcDbEntity
  8
0
  6
Continuous
 62
     7
 48
10.0
370
     0
100
AcDbLine
 10
917.9657626697
 20
1440.0513510307
 30
0.0
 11
917.9657626697
 21
1503.5513510307
 31
0.0
  0
LINE
  5
1CF
330
1C7
100
AcDbEntity
  8
0
  6
Continuous
 62
     7
 48
10.0
370
     0
100
AcDbLine
 10
917.9657626697
 20
1440.0513510307
 30
0.0
 11
917.9657626697
 21
1247.5513510307
 31
0.0
  0
LINE
  5
1D0
330
1C7
100
AcDbEntity
  8
0
  6
Continuous
 62
     7
 48
10.0
370
     0
100
AcDbLine
 10
917.9657626697
 20
1247.5513510307
 30
0.0
 11
917.9657626697
 21
1184.0513510307
 31
0.0
  0
MTEXT
  5
1D1
330
1C7
100
AcDbEntity
  8
0
  6
Continuous
 62
     7
 48
10.0
370
     0
100
AcDbMText
 10
872.8483935239
 20
1282.9118056502
 30
0.0
 40
35.0
 41
0.0
 46
0.0
 71
     1
 72
     1
  1
192,5
  7
SLDTEXTSTYLE0
 11
-7.044195017643634E-15
 21
1.0
 31
0.0
 73
     1
 44
1.0
  0
ENDBLK
  5
21F
330
1C7
100
AcDbEntity
  8
0
100
AcDbBlockEnd
  0
BLOCK
  5
220
330
1D4
100
AcDbEntity
  8
0
100
AcDbBlockBegin
  2
*D3
 70
     1
 10
0.0
 20
0.0
 30
0.0
  3
*D3
  1

  0
SOLID
  5
1D7
330
1D4
100
AcDbEntity
  8
0
  6
Continuous
 62
     7
 48
10.0
370
     0
100
AcDbTrace
 10
1104.6646490172
 20
1247.5513548576
 30
0.0
 11
1099.5750199399
 21
1214.5328376913
 31
0.0
 12
1109.7350195079
 22
1214.5298748319
 32
0.0
 13
1109.7350195079
 23
1214.5298748319
 33
0.0
  0
LINE
  5
1D8
330
1D4
100
AcDbEntity
  8
0
  6
Continuous
 62
     7
 48
10.0
370
     0
100
AcDbLine
 10
1104.6646490172
 20
1247.5513548576
 30
0.0
 11
1104.6425488984
 21
1171.7674033891
 31
0.0
  0
LINE
  5
1D9
330
1D4
100
AcDbEntity
  8
0
  6
Continuous
 62
     7
 48
10.0
370
     0
100
AcDbLine
 10
1104.6908948195
 20
1337.5513510307
 30
0.0
 11
1104.6646490172
 21
1247.5513548576
 31
0.0
  0
LINE
  5
1DA
330
1D4
100
AcDbEntity
  8
0
  6
Continuous
 62
     7
 48
10.0
370
     0
100
AcDbLine
 10
1104.6425488984
 20
1171.7674033891
 30
0.0
 11
1282.6156499852
 21
1171.7674033891
 31
0.0
  0
MTEXT
  5
1DB
330
1D4
100
AcDbEntity
  8
0
  6
Continuous
 62
     7
 48
10.0
370
     0
100
AcDbMText
 10
1136.3925488984
 20
1216.8847742812
 30
0.0
 40
35.0
 41
0.0
 46
0.0
 71
     1
 72
     1
  1
%%c
  7
SLDTEXTSTYLE0
 73
     1
 44
1.0
  0
MTEXT
  5
1DC
330
1D4
100
AcDbEntity
  8
0
  6
Continuous
 62
     7
 48
10.0
370
     0
100
AcDbMText
 10
1189.1769228821
 20
1217.4194960478
 30
0.0
 40
35.0
 41
0.0
 46
0.0
 71
     1
 72
     1
  1
180
  7
SLDTEXTSTYLE0
 73
     1
 44
1.0
  0
ENDBLK
  5
221
330
1D4
100
AcDbEntity
  8
0
100
AcDbBlockEnd
  0
BLOCK
  5
222
330
1DF
100
AcDbEntity
  8
0
100
AcDbBlockBegin
  2
*D4
 70
     1
 10
0.0
 20
0.0
 30
0.0
  3
*D4
  1

  0
SOLID
  5
1E2
330
1DF
100
AcDbEntity
  8
0
  6
Continuous
 62
     7
 48
10.0
370
     0
100
AcDbTrace
 10
1034.6908948195
 20
2327.4285801194
 30
0.0
 11
1001.6708948195
 21
2332.5085801194
 31
0.0
 12
1001.6708948195
 22
2322.3485801194
 32
0.0
 13
1001.6708948195
 23
2322.3485801194
 33
0.0
  0
SOLID
  5
1E3
330
1DF
100
AcDbEntity
  8
0
  6
Continuous
 62
     7
 48
10.0
370
     0
100
AcDbTrace
 10
1174.6908948195
 20
2327.4285801194
 30
0.0
 11
1207.7108948195
 21
2322.3485801194
 31
0.0
 12
1207.7108948195
 22
2332.5085801194
 32
0.0
 13
1207.7108948195
 23
2332.5085801194
 33
0.0
  0
LINE
  5
1E4
330
1DF
100
AcDbEntity
  8
0
  6
Continuous
 62
     7
 48
10.0
370
     0
100
AcDbLine
 10
1034.6908948195
 20
2241.232651244
 30
0.0
 11
1034.6908948195
 21
2337.4285801194
 31
0.0
  0
LINE
  5
1E5
330
1DF
100
AcDbEntity
  8
0
  6
Continuous
 62
     7
 48
10.0
370
     0
100
AcDbLine
 10
1174.6908948195
 20
2241.232651244
 30
0.0
 11
1174.6908948195
 21
2337.4285801194
 31
0.0
  0
LINE
  5
1E6
330
1DF
100
AcDbEntity
  8
0
  6
Continuous
 62
     7
 48
10.0
370
     0
100
AcDbLine
 10
1034.6908948195
 20
2327.4285801194
 30
0.0
 11
971.1908948195
 21
2327.4285801194
 31
0.0
  0
LINE
  5
1E7
330
1DF
100
AcDbEntity
  8
0
  6
Continuous
 62
     7
 48
10.0
370
     0
100
AcDbLine
 10
1034.6908948195
 20
2327.4285801194
 30
0.0
 11
1174.6908948195
 21
2327.4285801194
 31
0.0
  0
LINE
  5
1E8
330
1DF
100
AcDbEntity
  8
0
  6
Continuous
 62
     7
 48
10.0
370
     0
100
AcDbLine
 10
1174.6908948195
 20
2327.4285801194
 30
0.0
 11
1238.1908948195
 21
2327.4285801194
 31
0.0
  0
MTEXT
  5
1E9
330
1DF
100
AcDbEntity
  8
0
  6
Continuous
 62
     7
 48
10.0
370
     0
100
AcDbMText
 10
1014.1883645359
 20
2372.5459510114
 30
0.0
 40
35.0
 41
0.0
 46
0.0
 71
     1
 72
     1
  1
%%c
  7
SLDTEXTSTYLE0
 73
     1
 44
1.0
  0
MTEXT
  5
1EA
330
1DF
100
AcDbEntity
  8
0
  6
Continuous
 62
     7
 48
10.0
370
     0
100
AcDbMText
 10
1066.9604006666
 20
2372.5459492651
 30
0.0
 40
35.0
 41
0.0
 46
0.0
 71
     1
 72
     1
  1
140
  7
SLDTEXTSTYLE0
 73
     1
 44
1.0
  0
ENDBLK
  5
223
330
1DF
100
AcDbEntity
  8
0
100
AcDbBlockEnd
  0
BLOCK
  5
224
330
1EC
100
AcDbEntity
  8
0
100
AcDbBlockBegin
  2
*D5
 70
     1
 10
0.0
 20
0.0
 30
0.0
  3
*D5
  1

  0
SOLID
  5
1EF
330
1EC
100
AcDbEntity
  8
0
  6
Continuous
 62
     7
 48
10.0
370
     0
100
AcDbTrace
 10
1271.2300018576
 20
2231.232651244
 30
0.0
 11
1276.3100018576
 21
2264.252651244
 31
0.0
 12
1266.1500018576
 22
2264.252651244
 32
0.0
 13
1266.1500018576
 23
2264.252651244
 33
0.0
  0
SOLID
  5
1F0
330
1EC
100
AcDbEntity
  8
0
  6
Continuous
 62
     7
 48
10.0
370
     0
100
AcDbTrace
 10
1271.2300018576
 20
2191.232651244
 30
0.0
 11
1266.1500018576
 21
2158.212651244
 31
0.0
 12
1276.3100018576
 22
2158.212651244
 32
0.0
 13
1276.3100018576
 23
2158.212651244
 33
0.0
  0
LINE
  5
1F1
330
1EC
100
AcDbEntity
  8
0
  6
Continuous
 62
     7
 48
10.0
370
     0
100
AcDbLine
 10
1184.6908948195
 20
2231.232651244
 30
0.0
 11
1281.2300018576
 21
2231.232651244
 31
0.0
  0
LINE
  5
1F2
330
1EC
100
AcDbEntity
  8
0
  6
Continuous
 62
     7
 48
10.0
370
     0
100
AcDbLine
 10
1181.6908948195
 20
2191.232651244
 30
0.0
 11
1281.2300018576
 21
2191.232651244
 31
0.0
  0
LINE
  5
1F3
330
1EC
100
AcDbEntity
  8
0
  6
Continuous
 62
     7
 48
10.0
370
     0
100
AcDbLine
 10
1271.2300018576
 20
2231.232651244
 30
0.0
 11
1271.2300018576
 21
2294.732651244
 31
0.0
  0
LINE
  5
1F4
330
1EC
100
AcDbEntity
  8
0
  6
Continuous
 62
     7
 48
10.0
370
     0
100
AcDbLine
 10
1271.2300018576
 20
2231.232651244
 30
0.0
 11
1271.2300018576
 21
2191.232651244
 31
0.0
  0
LINE
  5
1F5
330
1EC
100
AcDbEntity
  8
0
  6
Continuous
 62
     7
 48
10.0
370
     0
100
AcDbLine
 10
1271.2300018576
 20
2191.232651244
 30
0.0
 11
1271.2300018576
 21
2127.732651244
 31
0.0
  0
MTEXT
  5
1F6
330
1EC
100
AcDbEntity
  8
0
  6
Continuous
 62
     7
 48
10.0
370
     0
100
AcDbMText
 10
1226.1126327118
 20
2185.3117287033
 30
0.0
 40
35.0
 41
0.0
 46
0.0
 71
     1
 72
     1
  1
40
  7
SLDTEXTSTYLE0
 11
-7.044195017643634E-15
 21
1.0
 31
0.0
 73
     1
 44
1.0
  0
ENDBLK
  5
225
330
1EC
100
AcDbEntity
  8
0
100
AcDbBlockEnd
  0
BLOCK
  5
226
330
1F8
100
AcDbEntity
  8
0
100
AcDbBlockBegin
  2
*D6
 70
     1
 10
0.0
 20
0.0
 30
0.0
  3
*D6
  1

  0
SOLID
  5
1FB
330
1F8
100
AcDbEntity
  8
0
  6
Continuous
 62
     7
 48
10.0
370
     0
100
AcDbTrace
 10
919.9657626697
 20
2191.232651244
 30
0.0
 11
914.8857626697
 21
2158.212651244
 31
0.0
 12
925.0457626697
 22
2158.212651244
 32
0.0
 13
925.0457626697
 23
2158.212651244
 33
0.0
  0
SOLID
  5
1FC
330
1F8
100
AcDbEntity
  8
0
  6
Continuous
 62
     7
 48
10.0
370
     0
100
AcDbTrace
 10
919.9657626697
 20
1440.0513510307
 30
0.0
 11
925.0457626697
 21
1473.0713510307
 31
0.0
 12
914.8857626697
 22
1473.0713510307
 32
0.0
 13
914.8857626697
 23
1473.0713510307
 33
0.0
  0
LINE
  5
1FD
330
1F8
100
AcDbEntity
  8
0
  6
Continuous
 62
     7
 48
10.0
370
     0
100
AcDbLine
 10
1027.6908948195
 20
2191.232651244
 30
0.0
 11
909.9657626697
 21
2191.232651244
 31
0.0
  0
LINE
  5
1FE
330
1F8
100
AcDbEntity
  8
0
  6
Continuous
 62
     7
 48
10.0
370
     0
100
AcDbLine
 10
1052.6908948195
 20
1440.0513510307
 30
0.0
 11
909.9657626697
 21
1440.0513510307
 31
0.0
  0
LINE
  5
1FF
330
1F8
100
AcDbEntity
  8
0
  6
Continuous
 62
     7
 48
10.0
370
     0
100
AcDbLine
 10
919.9657626697
 20
2191.232651244
 30
0.0
 11
919.9657626697
 21
1440.0513510307
 31
0.0
  0
MTEXT
  5
200
330
1F8
100
AcDbEntity
  8
0
  6
Continuous
 62
     7
 48
10.0
370
     0
100
AcDbMText
 10
874.8483935239
 20
1677.183402849
 30
0.0
 40
35.0
 41
0.0
 46
0.0
 71
     1
 72
     1
  1
MAX.2,5M
  7
SLDTEXTSTYLE0
 11
-7.044195017643634E-15
 21
1.0
 31
0.0
 73
     1
 44
1.0
  0
ENDBLK
  5
227
330
1F8
100
AcDbEntity
  8
0
100
AcDbBlockEnd
  0
ENDSEC
  0
SECTION
  2
ENTITIES
  0
ARC
  5
228
330
1F
100
AcDbEntity
  8
0
  6
Continuous
 62
     7
 48
100.0
370
    15
100
AcDbCircle
 10
1096.1908948195
 20
1450.1280170876
 30
0.0
 40
2.0
100
AcDbArc
 50
270.0
 51
0.0
  0
ARC
  5
229
330
1F
100
AcDbEntity
  8
0
  6
Continuous
 62
     7
 48
100.0
370
    15
100
AcDbCircle
 10
1113.1908948195
 20
1450.1280170876
 30
0.0
 40
2.0
100
AcDbArc
 50
180.0
 51
270.0
  0
LINE
  5
22A
330
1F
100
AcDbEntity
  8
0
  6
Continuous
 62
     7
 48
10.0
370
    15
100
AcDbLine
 10
1096.1908943575
 20
1448.1280179222
 30
0.0
 11
1096.1908943575
 21
1444.1280172666
 31
0.0
  0
LINE
  5
22B
330
1F
100
AcDbEntity
  8
0
  6
Continuous
 62
     7
 48
10.0
370
    15
100
AcDbLine
 10
1113.1908952814
 20
1444.1280172666
 30
0.0
 11
1113.1908952814
 21
1448.1280179222
 31
0.0
  0
LINE
  5
22C
330
1F
100
AcDbEntity
  8
0
  6
Continuous
 62
     7
 48
10.0
370
    15
100
AcDbLine
 10
1098.1908946854
 20
1464.4674913486
 30
0.0
 11
1098.1908946854
 21
1450.1280145248
 31
0.0
  0
LINE
  5
22D
330
1F
100
AcDbEntity
  8
0
  6
Continuous
 62
     7
 48
10.0
370
    15
100
AcDbLine
 10
1098.1908946854
 20
1476.6280160745
 30
0.0
 11
1098.1908946854
 21
1475.109513243
 31
0.0
  0
LINE
  5
22E
330
1F
100
AcDbEntity
  8
0
  6
Continuous
 62
     7
 48
10.0
370
    15
100
AcDbLine
 10
1111.1908949536
 20
1475.109513243
 30
0.0
 11
1111.1908949536
 21
1476.6280160745
 31
0.0
  0
LINE
  5
22F
330
1F
100
AcDbEntity
  8
0
  6
Continuous
 62
     7
 48
10.0
370
    15
100
AcDbLine
 10
1111.1908949536
 20
1450.1280145248
 30
0.0
 11
1111.1908949536
 21
1464.477698644
 31
0.0
  0
ARC
  5
230
330
1F
100
AcDbEntity
  8
0
  6
Continuous
 62
     7
 48
100.0
370
    15
100
AcDbCircle
 10
1098.6908948195
 20
1476.6280170876
 30
0.0
 40
0.5
100
AcDbArc
 50
90.0
 51
180.0
  0
ARC
  5
231
330
1F
100
AcDbEntity
  8
0
  6
Continuous
 62
     7
 48
100.0
370
    15
100
AcDbCircle
 10
1110.6908948195
 20
1476.6280170876
 30
0.0
 40
0.5
100
AcDbArc
 50
0.0
 51
90.0
  0
ARC
  5
CA
330
1F
100
AcDbEntity
  8
0
  6
Continuous
 62
     7
 48
100.0
370
    15
100
AcDbCircle
 10
1086.7794817232
 20
2189.982651244
 30
0.0
 40
1.5
100
AcDbArc
 50
270.0
 51
0.0
  0
ARC
  5
CB
330
1F
100
AcDbEntity
  8
0
  6
Continuous
 62
     7
 48
100.0
370
    15
100
AcDbCircle
 10
1072.7794817232
 20
2189.982651244
 30
0.0
 40
1.5
100
AcDbArc
 50
180.0
 51
270.0
  0
LINE
  5
CC
330
1F
100
AcDbEntity
  8
0
  6
Continuous
 62
     7
 48
10.0
370
    15
100
AcDbLine
 10
1088.2794823122
 20
2189.9826483329
 30
0.0
 11
1088.2794823122
 21
2191.2326769431
 31
0.0
  0
LINE
  5
CD
330
1F
100
AcDbEntity
  8
0
  6
Continuous
 62
     7
 48
10.0
370
    15
100
AcDbLine
 10
1071.2794813883
 20
2191.2326769431
 30
0.0
 11
1071.2794813883
 21
2189.9826483329
 31
0.0
  0
LINE
  5
CE
330
1F
100
AcDbEntity
  8
0
  6
Continuous
 62
     7
 48
10.0
370
    15
100
AcDbLine
 10
1098.6908947673
 20
2181.7326502402
 30
0.0
 11
1099.1908948493
 21
2181.2326268752
 31
0.0
  0
LINE
  5
CF
330
1F
100
AcDbEntity
  8
0
  6
Continuous
 62
     7
 48
10.0
370
    15
100
AcDbLine
 10
1110.1908947897
 20
2181.2326268752
 30
0.0
 11
1110.6908948716
 21
2181.7326502402
 31
0.0
  0
LINE
  5
D0
330
1F
100
AcDbEntity
  8
0
  6
Continuous
 62
     7
 48
10.0
370
    15
100
AcDbLine
 10
1110.6908948716
 20
2191.0326437553
 30
0.0
 11
1110.4908947457
 21
2191.2326769431
 31
0.0
  0
LINE
  5
D1
330
1F
100
AcDbEntity
  8
0
  6
Continuous
 62
     7
 48
10.0
370
    15
100
AcDbLine
 10
1098.8908948932
 20
2191.2326769431
 30
0.0
 11
1098.6908947673
 21
2191.0326437553
 31
0.0
  0
LINE
  5
D2
330
1F
100
AcDbEntity
  8
0
  6
Continuous
 62
     7
 48
10.0
370
    15
100
AcDbLine
 10
1098.6908947673
 20
2191.0326437553
 30
0.0
 11
1098.6908947673
 21
2181.7326502402
 31
0.0
  0
LINE
  5
D3
330
1F
100
AcDbEntity
  8
0
  6
Continuous
 62
     7
 48
10.0
370
    15
100
AcDbLine
 10
1110.6908948716
 20
2181.7326502402
 30
0.0
 11
1110.6908948716
 21
2191.0326437553
 31
0.0
  0
LINE
  5
D4
330
1F
100
AcDbEntity
  8
0
  6
Continuous
 62
     7
 48
10.0
370
    15
100
AcDbLine
 10
1174.6908951175
 20
2194.2326383193
 30
0.0
 11
1174.6908951175
 21
2231.2326387962
 31
0.0
  0
LINE
  5
D5
330
1F
100
AcDbEntity
  8
0
  6
Continuous
 62
     7
 48
10.0
370
    15
100
AcDbLine
 10
1034.6908945214
 20
2231.2326387962
 30
0.0
 11
1034.6908945214
 21
2194.2326383193
 31
0.0
  0
ARC
  5
D6
330
1F
100
AcDbEntity
  8
0
  6
Continuous
 62
     7
 48
100.0
370
    15
100
AcDbCircle
 10
1171.6908948195
 20
2194.232651244
 30
0.0
 40
3.0
100
AcDbArc
 50
270.0
 51
0.0
  0
ARC
  5
D7
330
1F
100
AcDbEntity
  8
0
  6
Continuous
 62
     7
 48
100.0
370
    15
100
AcDbCircle
 10
1037.6908948195
 20
2194.232651244
 30
0.0
 40
3.0
100
AcDbArc
 50
180.0
 51
270.0
  0
LINE
  5
D8
330
1F
100
AcDbEntity
  8
0
  6
Continuous
 62
     7
 48
10.0
370
    15
100
AcDbLine
 10
1105.3158948055
 20
1550.9127931197
 30
0.0
 11
1105.3158948055
 21
1893.6977343162
 31
0.0
  0
LINE
  5
D9
330
1F
100
AcDbEntity
  8
0
  6
Continuous
 62
     7
 48
10.0
370
    15
100
AcDbLine
 10
1105.3158948055
 20
1929.0364937385
 30
0.0
 11
1105.3158948055
 21
1971.0673646529
 31
0.0
  0
LINE
  5
DA
330
1F
100
AcDbEntity
  8
0
  6
Continuous
 62
     7
 48
10.0
370
    15
100
AcDbLine
 10
1105.3158948055
 20
2007.8713254531
 30
0.0
 11
1105.3158948055
 21
2181.2326268752
 31
0.0
  0
LINE
  5
DD
330
1F
100
AcDbEntity
  8
0
  6
Continuous
 62
     7
 48
10.0
370
    15
100
AcDbLine
 10
1104.0658948334
 20
2181.2326268752
 30
0.0
 11
1104.0658948334
 21
2002.7565912803
 31
0.0
  0
LINE
  5
DE
330
1F
100
AcDbEntity
  8
0
  6
Continuous
 62
     7
 48
10.0
370
    15
100
AcDbLine
 10
1104.0658948334
 20
1952.5390224059
 30
0.0
 11
1104.0658948334
 21
1947.3861412605
 31
0.0
  0
LINE
  5
DF
330
1F
100
AcDbEntity
  8
0
  6
Continuous
 62
     7
 48
10.0
370
    15
100
AcDbLine
 10
1104.0658948334
 20
1898.5469297965
 30
0.0
 11
1104.0658948334
 21
1543.5859517654
 31
0.0
  0
SPLINE
  5
E0
330
1F
100
AcDbEntity
  8
0
  6
Continuous
 62
     7
 48
10.0
370
    15
100
AcDbSpline
210
0.0
220
0.0
230
1.0
 70
     8
 71
     3
 72
    15
 73
    11
 74
     0
 42
0.00000001
 43
0.00000001
 40
0.0
 40
0.0
 40
0.0
 40
0.0
 40
0.0528569208520625
 40
0.2086225629875381
 40
0.3840614526335442
 40
0.5289481276794026
 40
0.6493252746673697
 40
0.8127098412139209
 40
0.9404964126515202
 40
1.0
 40
1.0
 40
1.0
 40
1.0
 10
1108.332180520189
 20
1477.128009637182
 30
0.0
 10
1108.335188060978
 20
1477.584545654901
 30
0.0
 10
1108.347058613735
 20
1479.386461327955
 30
0.0
 10
1108.356399272124
 20
1482.703746642425
 30
0.0
 10
1108.356601142831
 20
1486.815939731527
 30
0.0
 10
1108.339447198639
 20
1490.622436050442
 30
0.0
 10
1108.30690024548
 20
1494.324704580767
 30
0.0
 10
1108.258344939888
 20
1497.879096233941
 30
0.0
 10
1108.202635968727
 20
1500.907502694483
 30
0.0
 10
1108.178681188406
 20
1502.525024056382
 30
0.0
 10
1108.171070562345
 20
1503.038923581427
 30
0.0
  0
SPLINE
  5
E1
330
1F
100
AcDbEntity
  8
0
  6
Continuous
 62
     7
 48
10.0
370
    15
100
AcDbSpline
210
0.0
220
0.0
230
1.0
 70
     8
 71
     3
 72
    33
 73
    29
 74
     0
 42
0.00000001
 43
0.00000001
 40
0.0
 40
0.0
 40
0.0
 40
0.0
 40
0.010043925785414
 40
0.0239511527464355
 40
0.0418658700855359
 40
0.0608892935220366
 40
0.0807732501628214
 40
0.1176411307377206
 40
0.1550781481332785
 40
0.1919637478622224
 40
0.2578963298630079
 40
0.3235617341582456
 40
0.3890632945705798
 40
0.4328682774245506
 40
0.4764272888153586
 40
0.5200478429396059
 40
0.5636367549463993
 40
0.6070654418045899
 40
0.6506401889291197
 40
0.6944216369943259
 40
0.738238611832334
 40
0.7796418373885682
 40
0.8213267829086267
 40
0.8627906222610243
 40
0.9039193946816811
 40
0.9446568335355439
 40
0.9776142438064538
 40
1.0
 40
1.0
 40
1.0
 40
1.0
 10
1108.197867273954
 20
1513.276632269209
 30
0.0
 10
1108.230501065924
 20
1514.694740629726
 30
0.0
 10
1108.308320929676
 20
1518.07641933578
 30
0.0
 10
1108.655837158715
 20
1523.979946022117
 30
0.0
 10
1109.322031293646
 20
1531.131335102183
 30
0.0
 10
1110.407861417287
 20
1539.083889584215
 30
0.0
 10
1112.141350761397
 20
1549.644319718273
 30
0.0
 10
1114.641171256651
 20
1562.710378486986
 30
0.0
 10
1117.827595372515
 20
1578.086100679608
 30
0.0
 10
1121.949771235229
 20
1597.459361418595
 30
0.0
 10
1126.84414090477
 20
1620.744336165112
 30
0.0
 10
1132.07459860366
 20
1648.085531066231
 30
0.0
 10
1135.997309050832
 20
1672.487521797837
 30
0.0
 10
1138.700018014755
 20
1693.90854860494
 30
0.0
 10
1140.425699176504
 20
1712.329347108475
 30
0.0
 10
1141.460343584512
 20
1730.772516514126
 30
0.0
 10
1141.697875671119
 20
1749.226462781148
 30
0.0
 10
1141.026330651
 20
1767.664670493732
 30
0.0
 10
1139.325699017238
 20
1786.067821207887
 30
0.0
 10
1136.415877169241
 20
1804.374451064872
 30
0.0
 10
1132.583536465021
 20
1822.191151890163
 30
0.0
 10
1128.138633462567
 20
1839.555759234668
 30
0.0
 10
1123.342659293442
 20
1856.479761395891
 30
0.0
 10
1118.362011306257
 20
1873.308311432524
 30
0.0
 10
1113.486914211368
 20
1890.030644271423
 30
0.0
 10
1109.397839441569
 20
1905.722258098837
 30
0.0
 10
1106.593348693336
 20
1919.016085734256
 30
0.0
 10
1105.683798673243
 20
1926.781404112634
 30
0.0
 10
1105.315894805496
 20
1929.922397573775
 30
0.0
  0
LINE
  5
E2
330
1F
100
AcDbEntity
  8
0
  6
Continuous
 62
     7
 48
10.0
370
    15
100
AcDbLine
 10
1104.0674727849
 20
1947.3862604697
 30
0.0
 11
1104.1156845606
 21
1949.4325475295
 31
0.0
  0
SPLINE
  5
E3
330
1F
100
AcDbEntity
  8
0
  6
Continuous
 62
     7
 48
10.0
370
    15
100
AcDbSpline
210
0.0
220
0.0
230
1.0
 70
     8
 71
     3
 72
    31
 73
    27
 74
     0
 42
0.00000001
 43
0.00000001
 40
0.0
 40
0.0
 40
0.0
 40
0.0
 40
0.0168106485360342
 40
0.0762787157879699
 40
0.1366741063621394
 40
0.1970158568728861
 40
0.2576512240966701
 40
0.3171332068914182
 40
0.372563625117169
 40
0.4232039219500821
 40
0.4436641466097141
 40
0.4665373663010908
 40
0.4925845555816204
 40
0.5220330256334303
 40
0.5551522686392434
 40
0.5922598336448118
 40
0.6337286226370494
 40
0.6695716987250598
 40
0.7086041156938087
 40
0.7510997207038738
 40
0.7973673537470677
 40
0.8477534425000314
 40
0.8904835679370172
 40
0.9362027367674888
 40
0.9851375976198493
 40
0.9999999999999999
 40
0.9999999999999999
 40
0.9999999999999999
 40
0.9999999999999999
 10
1105.315894805496
 20
1970.245535810774
 30
0.0
 10
1105.430805566026
 20
1971.500346952953
 30
0.0
 10
1105.952215862879
 20
1977.194082222993
 30
0.0
 10
1107.796078822214
 20
1987.286648476412
 30
0.0
 10
1110.632619850894
 20
2000.488307306207
 30
0.0
 10
1113.994504146622
 20
2013.662248316082
 30
0.0
 10
1117.523502856954
 20
2026.717395619367
 30
0.0
 10
1120.978872430464
 20
2039.411942011208
 30
0.0
 10
1124.134939246413
 20
2051.411203340551
 30
0.0
 10
1126.421625768767
 20
2060.614508007718
 30
0.0
 10
1128.040338930967
 20
2067.468763231831
 30
0.0
 10
1129.197403574784
 20
2072.538102146933
 30
0.0
 10
1130.453115364482
 20
2078.275655998168
 30
0.0
 10
1131.804091180573
 20
2084.778083842062
 30
0.0
 10
1133.232966913251
 20
2092.110426619302
 30
0.0
 10
1134.717056209885
 20
2100.349037393406
 30
0.0
 10
1136.101240646213
 20
2108.812053093513
 30
0.0
 10
1137.37234503688
 20
2117.438492405074
 30
0.0
 10
1138.522603929195
 20
2126.159570981701
 30
0.0
 10
1139.621160482776
 20
2135.674299604345
 30
0.0
 10
1140.640190262781
 20
2146.053324587298
 30
0.0
 10
1141.47344582345
 20
2156.466564232191
 30
0.0
 10
1142.135241251085
 20
2166.850823037813
 30
0.0
 10
1142.624020125791
 20
2177.135446084037
 30
0.0
 10
1142.923980652422
 20
2185.338324700242
 30
0.0
 10
1143.000543768542
 20
2190.118964672401
 30
0.0
 10
1143.018380142418
 20
2191.232676943129
 30
0.0
  0
SPLINE
  5
E4
330
1F
100
AcDbEntity
  8
0
  6
Continuous
 62
     7
 48
10.0
370
    15
100
AcDbSpline
210
0.0
220
0.0
230
1.0
 70
     8
 71
     3
 72
    25
 73
    21
 74
     0
 42
0.00000001
 43
0.00000001
 40
0.0
 40
0.0
 40
0.0
 40
0.0
 40
0.0265221950278886
 40
0.0878863188557909
 40
0.1445383269141223
 40
0.1968453696425771
 40
0.2593192299754306
 40
0.3155665766933276
 40
0.3661617874137412
 40
0.4145634789537562
 40
0.457599722148823
 40
0.4957175894207479
 40
0.5293115502209893
 40
0.5614225366565994
 40
0.5941006610793137
 40
0.6730276361084429
 40
0.7541120233724311
 40
0.851823218063683
 40
0.9493891759376983
 40
1.0
 40
1.0
 40
1.0
 40
1.0
 10
1136.015948243109
 20
2191.232676943129
 30
0.0
 10
1135.987573647122
 20
2189.581242337109
 30
0.0
 10
1135.893549046681
 20
2184.108900843447
 30
0.0
 10
1135.542156352091
 20
2175.113820990964
 30
0.0
 10
1134.996157498682
 20
2164.520891562011
 30
0.0
 10
1134.267684169125
 20
2153.869368189472
 30
0.0
 10
1133.359351815074
 20
2143.256816610838
 30
0.0
 10
1132.262234878286
 20
2132.769362194902
 30
0.0
 10
1131.088405359213
 20
2123.172676933437
 30
0.0
 10
1129.86868189191
 20
2114.411727812043
 30
0.0
 10
1128.631428611272
 20
2106.438839541278
 30
0.0
 10
1127.436942900904
 20
2099.39328976809
 30
0.0
 10
1126.277593846532
 20
2093.032424749999
 30
0.0
 10
1125.111545753096
 20
2087.01752247987
 30
0.0
 10
1123.312848018076
 20
2078.250141423278
 30
0.0
 10
1120.688195092131
 20
2066.539653389901
 30
0.0
 10
1116.8136090387
 20
2050.963682679078
 30
0.0
 10
1112.375997270241
 20
2034.335244306402
 30
0.0
 10
1108.26000662243
 20
2019.584358564669
 30
0.0
 10
1106.065458262624
 20
2010.621068161759
 30
0.0
 10
1105.315894805496
 20
2007.559593160933
 30
0.0
  0
SPLINE
  5
E5
330
1F
100
AcDbEntity
  8
0
  6
Continuous
 62
     7
 48
10.0
370
    15
100
AcDbSpline
210
0.0
220
0.0
230
1.0
 70
     8
 71
     3
 72
    16
 73
    12
 74
     0
 42
0.00000001
 43
0.00000001
 40
0.0
 40
0.0
 40
0.0
 40
0.0
 40
0.0361466438101107
 40
0.1656973499133728
 40
0.295887973405525
 40
0.4250030073653724
 40
0.5541884599042832
 40
0.6850569286893994
 40
0.8179253151845466
 40
0.9534727750492791
 40
1.0
 40
1.0
 40
1.0
 40
1.0
 10
1104.124130375819
 20
2002.76761813957
 30
0.0
 10
1103.813050351259
 20
2001.535697801346
 30
0.0
 10
1102.387049753489
 20
1995.888536299428
 30
0.0
 10
1100.339550743262
 20
1985.684847529352
 30
0.0
 10
1098.225790887412
 20
1972.175105261734
 30
0.0
 10
1097.076981085396
 20
1958.554465876586
 30
0.0
 10
1096.960834736803
 20
1944.863044537619
 30
0.0
 10
1097.899790814258
 20
1931.069556326544
 30
0.0
 10
1099.893572747444
 20
1917.168539619301
 30
0.0
 10
1102.095138344833
 20
1906.308994378594
 30
0.0
 10
1103.715460230846
 20
1900.117338945207
 30
0.0
 10
1104.129516039645
 20
1898.535128076857
 30
0.0
  0
SPLINE
  5
E6
330
1F
100
AcDbEntity
  8
0
  6
Continuous
 62
     7
 48
10.0
370
    15
100
AcDbSpline
210
0.0
220
0.0
230
1.0
 70
     8
 71
     3
 72
    27
 73
    23
 74
     0
 42
0.00000001
 43
0.00000001
 40
0.0
 40
0.0
 40
0.0
 40
0.0
 40
0.0138889313365642
 40
0.0562217049774413
 40
0.0988183196871407
 40
0.141217475857545
 40
0.1834943857818247
 40
0.2342283850742134
 40
0.2846392231060073
 40
0.3346274707809107
 40
0.3846287673204051
 40
0.4346733010170166
 40
0.4972388088372513
 40
0.5602014300292308
 40
0.6233148616779708
 40
0.686462358239198
 40
0.7500449099969185
 40
0.8133400822620067
 40
0.8771587358747271
 40
0.940863019119404
 40
0.9718806964470297
 40
1.0
 40
1.0
 40
1.0
 40
1.0
 10
1105.315894805496
 20
1893.911774595564
 30
0.0
 10
1105.712632814763
 20
1892.345261491937
 30
0.0
 10
1107.318608592873
 20
1886.004094168031
 30
0.0
 10
1110.565129850917
 20
1874.9721333262
 30
0.0
 10
1114.742557650619
 20
1860.760303104507
 30
0.0
 10
1118.890636116747
 20
1846.545169706569
 30
0.0
 10
1123.066434503557
 20
1831.353435101419
 30
0.0
 10
1127.049038064198
 20
1815.145624461665
 30
0.0
 10
1130.508616350873
 20
1797.898020647174
 30
0.0
 10
1132.951822353348
 20
1780.559464615125
 30
0.0
 10
1134.300012925342
 20
1763.145747931832
 30
0.0
 10
1134.761024942635
 20
1744.225002815795
 30
0.0
 10
1134.190168364725
 20
1723.795811605697
 30
0.0
 10
1132.515933994496
 20
1701.905280730304
 30
0.0
 10
1129.948818094031
 20
1680.035205489208
 30
0.0
 10
1126.645804511871
 20
1658.192955856995
 30
0.0
 10
1122.760389330173
 20
1636.426538800966
 30
0.0
 10
1118.430938122372
 20
1614.665535894139
 30
0.0
 10
1113.836548810376
 20
1592.945225820626
 30
0.0
 10
1109.997150167599
 20
1574.903920337985
 30
0.0
 10
1107.150727358342
 20
1560.897650789509
 30
0.0
 10
1105.907189906557
 20
1554.130524032438
 30
0.0
 10
1105.315894805496
 20
1550.912793119734
 30
0.0
  0
SPLINE
  5
E7
330
1F
100
AcDbEntity
  8
0
  6
Continuous
 62
     7
 48
10.0
370
    15
100
AcDbSpline
210
0.0
220
0.0
230
1.0
 70
     8
 71
     3
 72
    13
 73
     9
 74
     0
 42
0.00000001
 43
0.00000001
 40
0.0
 40
0.0
 40
0.0
 40
0.0
 40
0.0924454207476291
 40
0.396243533420502
 40
0.5644511300805166
 40
0.756833087411908
 40
0.9602760567653904
 40
1.0
 40
1.0
 40
1.0
 40
1.0
 10
1104.065894833436
 20
1543.420072038954
 30
0.0
 10
1103.910668404003
 20
1542.497215024185
 30
0.0
 10
1103.245330214388
 20
1538.54162564597
 30
0.0
 10
1102.506959058415
 20
1532.873195020897
 30
0.0
 10
1101.825682225445
 20
1526.181761471128
 30
0.0
 10
1101.433515776503
 20
1520.485121581197
 30
0.0
 10
1101.224353089779
 20
1516.079721610967
 30
0.0
 10
1101.194874496266
 20
1513.618332393415
 30
0.0
 10
1101.190058849422
 20
1513.21623786289
 30
0.0
  0
SPLINE
  5
E8
330
1F
100
AcDbEntity
  8
0
  6
Continuous
 62
     7
 48
10.0
370
    15
100
AcDbSpline
210
0.0
220
0.0
230
1.0
 70
     8
 71
     3
 72
    15
 73
    11
 74
     0
 42
0.00000001
 43
0.00000001
 40
0.0
 40
0.0
 40
0.0
 40
0.0
 40
0.012951362098907
 40
0.1343704482292557
 40
0.2816731727277251
 40
0.403048923369192
 40
0.5505259779245866
 40
0.7317723572997022
 40
0.8951263423241169
 40
1.0
 40
1.0
 40
1.0
 40
1.0
 10
1101.165061453027
 20
1503.162171085661
 30
0.0
 10
1101.166461399765
 20
1503.049781113326
 30
0.0
 10
1101.180985854357
 20
1501.883734573679
 30
0.0
 10
1101.231334593977
 20
1499.439720108171
 30
0.0
 10
1101.286022427039
 20
1496.054689384974
 30
0.0
 10
1101.328920320352
 20
1492.443319235783
 30
0.0
 10
1101.355693855623
 20
1488.537198789294
 30
0.0
 10
1101.362696434139
 20
1484.266688397754
 30
0.0
 10
1101.3550295654
 20
1480.365914785251
 30
0.0
 10
1101.340514791151
 20
1478.038140359705
 30
0.0
 10
1101.334839695734
 20
1477.128009637182
 30
0.0
  0
LINE
  5
E9
330
1F
100
AcDbEntity
  8
0
  6
Continuous
 62
     7
 48
10.0
370
    15
100
AcDbLine
 10
1153.736655004
 20
1427.6280136307
 30
0.0
 11
1153.9866555106
 21
1427.8780178626
 31
0.0
  0
LINE
  5
EA
330
1F
100
AcDbEntity
  8
0
  6
Continuous
 62
     7
 48
10.0
370
    15
100
AcDbLine
 10
1153.9866555106
 20
1432.3780195316
 30
0.0
 11
1153.736655004
 21
1432.6280163129
 31
0.0
  0
LINE
  5
EB
330
1F
100
AcDbEntity
  8
0
  6
Continuous
 62
     7
 48
10.0
370
    15
100
AcDbLine
 10
1153.736655004
 20
1432.6280163129
 30
0.0
 11
1147.1637751531
 21
1432.6280163129
 31
0.0
  0
LINE
  5
EC
330
1F
100
AcDbEntity
  8
0
  6
Continuous
 62
     7
 48
10.0
370
    15
100
AcDbLine
 10
1147.1544172239
 20
1427.6280136307
 30
0.0
 11
1153.736655004
 21
1427.6280136307
 31
0.0
  0
LINE
  5
ED
330
1F
100
AcDbEntity
  8
0
  6
Continuous
 62
     7
 48
10.0
370
    15
100
AcDbLine
 10
1055.6451346349
 20
1432.6280163129
 30
0.0
 11
1055.3951341283
 21
1432.3780195316
 31
0.0
  0
LINE
  5
EE
330
1F
100
AcDbEntity
  8
0
  6
Continuous
 62
     7
 48
10.0
370
    15
100
AcDbLine
 10
1055.3951341283
 20
1427.8780178626
 30
0.0
 11
1055.6451346349
 21
1427.6280136307
 31
0.0
  0
LINE
  5
EF
330
1F
100
AcDbEntity
  8
0
  6
Continuous
 62
     7
 48
10.0
370
    15
100
AcDbLine
 10
1055.6451346349
 20
1427.6280136307
 30
0.0
 11
1062.2273277115
 21
1427.6280136307
 31
0.0
  0
LINE
  5
F0
330
1F
100
AcDbEntity
  8
0
  6
Continuous
 62
     7
 48
10.0
370
    15
100
AcDbLine
 10
1062.2179884088
 20
1432.6280163129
 30
0.0
 11
1055.6451346349
 21
1432.6280163129
 31
0.0
  0
LINE
  5
F1
330
1F
100
AcDbEntity
  8
0
  6
Continuous
 62
     7
 48
10.0
370
    15
100
AcDbLine
 10
1154.1908945512
 20
1441.1280186375
 30
0.0
 11
1154.1908945512
 21
1443.12801524
 31
0.0
  0
LINE
  5
F2
330
1F
100
AcDbEntity
  8
0
  6
Continuous
 62
     7
 48
10.0
370
    15
100
AcDbLine
 10
1055.1908950877
 20
1443.12801524
 30
0.0
 11
1055.1908950877
 21
1441.1280186375
 31
0.0
  0
LINE
  5
F3
330
1F
100
AcDbEntity
  8
0
  6
Continuous
 62
     7
 48
10.0
370
    15
100
AcDbLine
 10
1154.1908945512
 20
1443.12801524
 30
0.0
 11
1153.19089625
 21
1444.1280172666
 31
0.0
  0
LINE
  5
F4
330
1F
100
AcDbEntity
  8
0
  6
Continuous
 62
     7
 48
10.0
370
    15
100
AcDbLine
 10
1056.190893389
 20
1444.1280172666
 30
0.0
 11
1055.1908950877
 21
1443.12801524
 31
0.0
  0
LINE
  5
F5
330
1F
100
AcDbEntity
  8
0
  6
Continuous
 62
     7
 48
10.0
370
    15
100
AcDbLine
 10
1139.6908949685
 20
1440.0513501366
 30
0.0
 11
1139.6908949685
 21
1441.1280186375
 31
0.0
  0
LINE
  5
F6
330
1F
100
AcDbEntity
  8
0
  6
Continuous
 62
     7
 48
10.0
370
    15
100
AcDbLine
 10
1069.6908946705
 20
1441.1280186375
 30
0.0
 11
1069.6908946705
 21
1440.0513501366
 31
0.0
  0
ARC
  5
F7
330
1F
100
AcDbEntity
  8
0
  6
Continuous
 62
     7
 48
100.0
370
    15
100
AcDbCircle
 10
1104.6908948195
 20
1337.5513510307
 30
0.0
 40
90.00000000000004
100
AcDbArc
 50
121.6682432535
 51
0.0
  0
ARC
  5
F8
330
1F
100
AcDbEntity
  8
0
  6
Continuous
 62
     7
 48
100.0
370
    15
100
AcDbCircle
 10
1104.6908948195
 20
1337.5513510307
 30
0.0
 40
90.00000000000004
100
AcDbArc
 50
0.0
 51
58.33175674649999
  0
ARC
  5
F9
330
1F
100
AcDbEntity
  8
0
  6
Continuous
 62
     7
 48
100.0
370
    15
100
AcDbCircle
 10
1052.1908948195
 20
1422.6615736834
 30
0.0
 40
10.00000000000023
100
AcDbArc
 50
301.6682432535
 51
0.0
  0
ARC
  5
FA
330
1F
100
AcDbEntity
  8
0
  6
Continuous
 62
     7
 48
100.0
370
    15
100
AcDbCircle
 10
1157.1908948195
 20
1422.6615736834
 30
0.0
 40
10.00000000000011
100
AcDbArc
 50
180.0
 51
238.3317567465
  0
LINE
  5
FB
330
1F
100
AcDbEntity
  8
0
  6
Continuous
 62
     7
 48
10.0
370
    15
100
AcDbLine
 10
1147.1908952665
 20
1439.5513491233
 30
0.0
 11
1146.6908942532
 21
1440.0513501366
 31
0.0
  0
LINE
  5
FC
330
1F
100
AcDbEntity
  8
0
  6
Continuous
 62
     7
 48
10.0
370
    15
100
AcDbLine
 10
1062.6908953857
 20
1440.0513501366
 30
0.0
 11
1062.1908943724
 21
1439.5513491233
 31
0.0
  0
LINE
  5
FD
330
1F
100
AcDbEntity
  8
0
  6
Continuous
 62
     7
 48
10.0
370
    15
100
AcDbLine
 10
1062.1908943724
 20
1427.0513535937
 30
0.0
 11
1062.1908943724
 21
1422.6615758141
 31
0.0
  0
LINE
  5
FE
330
1F
100
AcDbEntity
  8
0
  6
Continuous
 62
     7
 48
10.0
370
    15
100
AcDbLine
 10
1062.1908943724
 20
1439.5513491233
 30
0.0
 11
1062.1908943724
 21
1433.0143512686
 31
0.0
  0
LINE
  5
FF
330
1F
100
AcDbEntity
  8
0
  6
Continuous
 62
     7
 48
10.0
370
    15
100
AcDbLine
 10
1147.1908952665
 20
1433.0130995711
 30
0.0
 11
1147.1908952665
 21
1439.5513491233
 31
0.0
  0
LINE
  5
100
330
1F
100
AcDbEntity
  8
0
  6
Continuous
 62
     7
 48
10.0
370
    15
100
AcDbLine
 10
1147.1908952665
 20
1422.6615758141
 30
0.0
 11
1147.1908952665
 21
1427.0547734101
 31
0.0
  0
LINE
  5
101
330
1F
100
AcDbEntity
  8
0
  6
Continuous
 62
     7
 48
10.0
370
    15
100
AcDbLine
 10
1104.6908948195
 20
1448.1280179222
 30
0.0
 11
1113.1908952814
 21
1448.1280179222
 31
0.0
  0
LINE
  5
102
330
1F
100
AcDbEntity
  8
0
  6
Continuous
 62
     7
 48
10.0
370
    15
100
AcDbLine
 10
1096.1908943575
 20
1448.1280179222
 30
0.0
 11
1104.6908948195
 21
1448.1280179222
 31
0.0
  0
SPLINE
  5
103
330
1F
100
AcDbEntity
  8
0
  6
Continuous
 62
     7
 48
10.0
370
    15
100
AcDbSpline
210
0.0
220
0.0
230
1.0
 70
     8
 71
     3
 72
    11
 73
     7
 74
     0
 42
0.00000001
 43
0.00000001
 40
0.0
 40
0.0
 40
0.0
 40
0.0
 40
0.3155818843632269
 40
0.581814592322351
 40
0.8882047131292733
 40
1.0
 40
1.0
 40
1.0
 40
1.0
 10
1110.357198733506
 20
1473.850797255819
 30
0.0
 10
1110.382907987668
 20
1474.014757465022
 30
0.0
 10
1110.430306206547
 20
1474.317038574936
 30
0.0
 10
1110.580065867621
 20
1474.674697911695
 30
0.0
 10
1110.710159135285
 20
1474.873436817705
 30
0.0
 10
1110.786782397986
 20
1474.919384495653
 30
0.0
 10
1110.807266421286
 20
1474.931667884176
 30
0.0
  0
LINE
  5
104
330
1F
100
AcDbEntity
  8
0
  6
Continuous
 62
     7
 48
10.0
370
    15
100
AcDbLine
 10
1109.9644134377
 20
1470.0465755065
 30
0.0
 11
1110.3571987335
 21
1473.8507972558
 31
0.0
  0
LINE
  5
105
330
1F
100
AcDbEntity
  8
0
  6
Continuous
 62
     7
 48
10.0
370
    15
100
AcDbLine
 10
1109.9644134377
 20
1468.6268226703
 30
0.0
 11
1109.9644134377
 21
1470.0465755065
 31
0.0
  0
LINE
  5
106
330
1F
100
AcDbEntity
  8
0
  6
Continuous
 62
     7
 48
10.0
370
    15
100
AcDbLine
 10
1110.3571987335
 20
1465.1278363069
 30
0.0
 11
1109.9644134377
 21
1468.6268226703
 31
0.0
  0
SPLINE
  5
107
330
1F
100
AcDbEntity
  8
0
  6
Continuous
 62
     7
 48
10.0
370
    15
100
AcDbSpline
210
0.0
220
0.0
230
1.0
 70
     8
 71
     3
 72
    11
 73
     7
 74
     0
 42
0.00000001
 43
0.00000001
 40
0.0
 40
0.0
 40
0.0
 40
0.0
 40
0.2578378418486973
 40
0.5163012022997483
 40
0.7605319650753285
 40
1.0
 40
1.0
 40
1.0
 40
1.0
 10
1110.807266421286
 20
1464.387755235022
 30
0.0
 10
1110.763313412494
 20
1464.388718769073
 30
0.0
 10
1110.67530076423
 20
1464.390648174724
 30
0.0
 10
1110.533179097626
 20
1464.545578250702
 30
0.0
 10
1110.41028015674
 20
1464.7958059277
 30
0.0
 10
1110.374776011029
 20
1465.017888423691
 30
0.0
 10
1110.357198733506
 20
1465.127836306875
 30
0.0
  0
LINE
  5
108
330
1F
100
AcDbEntity
  8
0
  6
Continuous
 62
     7
 48
10.0
370
    15
100
AcDbLine
 10
1099.4173762013
 20
1470.0465755065
 30
0.0
 11
1099.4173762013
 21
1468.6268226703
 31
0.0
  0
LINE
  5
109
330
1F
100
AcDbEntity
  8
0
  6
Continuous
 62
     7
 48
10.0
370
    15
100
AcDbLine
 10
1099.0245909054
 20
1473.8507972558
 30
0.0
 11
1099.4173762013
 21
1470.0465755065
 31
0.0
  0
SPLINE
  5
10A
330
1F
100
AcDbEntity
  8
0
  6
Continuous
 62
     7
 48
10.0
370
    15
100
AcDbSpline
210
0.0
220
0.0
230
1.0
 70
     8
 71
     3
 72
    11
 73
     7
 74
     0
 42
0.00000001
 43
0.00000001
 40
0.0
 40
0.0
 40
0.0
 40
0.0
 40
0.2432531538372034
 40
0.4851256960746053
 40
0.7737085458619098
 40
1.0
 40
1.0
 40
1.0
 40
1.0
 10
1098.574523217646
 20
1474.931667884176
 30
0.0
 10
1098.620031216195
 20
1474.897258483825
 30
0.0
 10
1098.710788927348
 20
1474.82863497768
 30
0.0
 10
1098.851756868231
 20
1474.565924433393
 30
0.0
 10
1098.970908877013
 20
1474.238040743304
 30
0.0
 10
1099.008200800866
 20
1473.969029771198
 30
0.0
 10
1099.024590905425
 20
1473.850797255819
 30
0.0
  0
SPLINE
  5
10B
330
1F
100
AcDbEntity
  8
0
  6
Continuous
 62
     7
 48
10.0
370
    15
100
AcDbSpline
210
0.0
220
0.0
230
1.0
 70
     8
 71
     3
 72
    12
 73
     8
 74
     0
 42
0.00000001
 43
0.00000001
 40
0.0
 40
0.0
 40
0.0
 40
0.0
 40
0.2058403250271663
 40
0.4122812984380461
 40
0.6248242673106779
 40
0.8581430813945612
 40
1.0
 40
1.0
 40
1.0
 40
1.0
 10
1099.024590905425
 20
1465.127836306875
 30
0.0
 10
1099.010336102202
 20
1465.033083022349
 30
0.0
 10
1098.981784899802
 20
1464.843299960304
 30
0.0
 10
1098.886345013629
 20
1464.614235708113
 30
0.0
 10
1098.769794427052
 20
1464.451357054153
 30
0.0
 10
1098.660249628058
 20
1464.379771200835
 30
0.0
 10
1098.598043752362
 20
1464.385564676098
 30
0.0
 10
1098.574523217646
 20
1464.387755235022
 30
0.0
  0
LINE
  5
10C
330
1F
100
AcDbEntity
  8
0
  6
Continuous
 62
     7
 48
10.0
370
    15
100
AcDbLine
 10
1099.4173762013
 20
1468.6268226703
 30
0.0
 11
1099.0245909054
 21
1465.1278363069
 31
0.0
  0
LINE
  5
10D
330
1F
100
AcDbEntity
  8
0
  6
Continuous
 62
     7
 48
10.0
370
    15
100
AcDbLine
 10
1104.6908948195
 20
1477.1280096372
 30
0.0
 11
1110.6908948716
 21
1477.1280096372
 31
0.0
  0
LINE
  5
10E
330
1F
100
AcDbEntity
  8
0
  6
Continuous
 62
     7
 48
10.0
370
    15
100
AcDbLine
 10
1098.6908947673
 20
1477.1280096372
 30
0.0
 11
1104.6908948195
 21
1477.1280096372
 31
0.0
  0
ARC
  5
111
330
1F
100
AcDbEntity
  8
0
  6
Continuous
 62
     7
 48
100.0
370
    15
100
AcDbCircle
 10
1104.6908948195
 20
1488.6280170876
 30
0.0
 40
15.00000000000018
100
AcDbArc
 50
100.5709130904
 51
245.935920369
  0
ARC
  5
112
330
1F
100
AcDbEntity
  8
0
  6
Continuous
 62
     7
 48
100.0
370
    15
100
AcDbCircle
 10
1104.6908948195
 20
1488.6280170876
 30
0.0
 40
15.00000000000028
100
AcDbArc
 50
294.064079631
 51
79.6487916447
  0
ARC
  5
113
330
1F
100
AcDbEntity
  8
0
  6
Continuous
 62
     7
 48
100.0
370
    15
100
AcDbCircle
 10
1104.6908948195
 20
1488.6280170876
 30
0.0
 40
25.00000000000006
100
AcDbArc
 50
96.2663957488
 51
255.8385621113
  0
ARC
  5
114
330
1F
100
AcDbEntity
  8
0
  6
Continuous
 62
     7
 48
100.0
370
    15
100
AcDbCircle
 10
1104.6908948195
 20
1488.6280170876
 30
0.0
 40
25.00000000000012
100
AcDbArc
 50
284.1614378887
 51
83.7566318992
  0
LINE
  5
18E
330
1F
100
AcDbEntity
  8
0
  6
Continuous
 62
     7
 48
10.0
370
    15
100
AcDbLine
 10
1086.779481135
 20
2188.4826378425
 30
0.0
 11
1072.7794807028
 21
2188.4826378425
 31
0.0
  0
LINE
  5
18F
330
1F
100
AcDbEntity
  8
0
  6
Continuous
 62
     7
 48
10.0
370
    15
100
AcDbLine
 10
1099.4187131148
 20
2181.7326502402
 30
0.0
 11
1110.6908948716
 21
2181.7326502402
 31
0.0
  0
LINE
  5
190
330
1F
100
AcDbEntity
  8
0
  6
Continuous
 62
     7
 48
10.0
370
    15
100
AcDbLine
 10
1098.6908947673
 20
2181.7326502402
 30
0.0
 11
1099.4187131148
 21
2181.7326502402
 31
0.0
  0
LINE
  5
191
330
1F
100
AcDbEntity
  8
0
  6
Continuous
 62
     7
 48
10.0
370
    15
100
AcDbLine
 10
1099.8580617454
 20
2181.2326268752
 30
0.0
 11
1099.1908948493
 21
2181.2326268752
 31
0.0
  0
LINE
  5
192
330
1F
100
AcDbEntity
  8
0
  6
Continuous
 62
     7
 48
10.0
370
    15
100
AcDbLine
 10
1110.1908947897
 20
2181.2326268752
 30
0.0
 11
1099.8580617454
 21
2181.2326268752
 31
0.0
  0
LINE
  5
193
330
1F
100
AcDbEntity
  8
0
  6
Continuous
 62
     7
 48
10.0
370
    15
100
AcDbLine
 10
1110.6908948716
 20
2191.0326437553
 30
0.0
 11
1098.6908947673
 21
2191.0326437553
 31
0.0
  0
LINE
  5
194
330
1F
100
AcDbEntity
  8
0
  6
Continuous
 62
     7
 48
10.0
370
    15
100
AcDbLine
 10
1153.8608636331
 20
2231.2326387962
 30
0.0
 11
1034.6908945214
 21
2231.2326387962
 31
0.0
  0
LINE
  5
195
330
1F
100
AcDbEntity
  8
0
  6
Continuous
 62
     7
 48
10.0
370
    15
100
AcDbLine
 10
1174.6908951175
 20
2231.2326387962
 30
0.0
 11
1153.8608636331
 21
2231.2326387962
 31
0.0
  0
LINE
  5
196
330
1F
100
AcDbEntity
  8
0
  6
Continuous
 62
     7
 48
10.0
370
    15
100
AcDbLine
 10
1151.7535823953
 20
2191.2326769431
 30
0.0
 11
1037.6908931505
 21
2191.2326769431
 31
0.0
  0
LINE
  5
197
330
1F
100
AcDbEntity
  8
0
  6
Continuous
 62
     7
 48
10.0
370
    15
100
AcDbLine
 10
1171.6908964884
 20
2191.2326769431
 30
0.0
 11
1151.7535823953
 21
2191.2326769431
 31
0.0
  0
CIRCLE
  5
199
330
1F
100
AcDbEntity
  8
0
  6
Continuous
 62
     7
 48
100.0
370
    15
100
AcDbCircle
 10
1104.6908948195
 20
1430.1280170877
 30
0.0
 40
2.500000000000109
  0
CIRCLE
  5
19A
330
1F
100
AcDbEntity
  8
0
  6
Continuous
 62
     7
 48
100.0
370
    15
100
AcDbCircle
 10
1104.6908948195
 20
1430.1280170877
 30
0.0
 40
2.249999999999865
  0
LINE
  5
19B
330
1F
100
AcDbEntity
  8
0
  6
Continuous
 62
     7
 48
10.0
370
    15
100
AcDbLine
 10
1153.736655004
 20
1427.6280136307
 30
0.0
 11
1153.736655004
 21
1432.6280163129
 31
0.0
  0
LINE
  5
19C
330
1F
100
AcDbEntity
  8
0
  6
Continuous
 62
     7
 48
10.0
370
    15
100
AcDbLine
 10
1153.9866555106
 20
1427.9232428868
 30
0.0
 11
1153.9866555106
 21
1427.8780178626
 31
0.0
  0
LINE
  5
19D
330
1F
100
AcDbEntity
  8
0
  6
Continuous
 62
     7
 48
10.0
370
    15
100
AcDbLine
 10
1153.9866555106
 20
1432.3780195316
 30
0.0
 11
1153.9866555106
 21
1427.9232428868
 31
0.0
  0
LINE
  5
19E
330
1F
100
AcDbEntity
  8
0
  6
Continuous
 62
     7
 48
10.0
370
    15
100
AcDbLine
 10
1055.6451346349
 20
1432.6280163129
 30
0.0
 11
1055.6451346349
 21
1427.6280136307
 31
0.0
  0
LINE
  5
19F
330
1F
100
AcDbEntity
  8
0
  6
Continuous
 62
     7
 48
10.0
370
    15
100
AcDbLine
 10
1055.3951341283
 20
1427.8780178626
 30
0.0
 11
1055.3951341283
 21
1432.3780195316
 31
0.0
  0
LINE
  5
1A0
330
1F
100
AcDbEntity
  8
0
  6
Continuous
 62
     7
 48
10.0
370
    15
100
AcDbLine
 10
1104.6908948195
 20
1443.12801524
 30
0.0
 11
1055.1908950877
 21
1443.12801524
 31
0.0
  0
LINE
  5
1A1
330
1F
100
AcDbEntity
  8
0
  6
Continuous
 62
     7
 48
10.0
370
    15
100
AcDbLine
 10
1154.1908945512
 20
1443.12801524
 30
0.0
 11
1104.6908948195
 21
1443.12801524
 31
0.0
  0
LINE
  5
1A2
330
1F
100
AcDbEntity
  8
0
  6
Continuous
 62
     7
 48
10.0
370
    15
100
AcDbLine
 10
1104.6908948195
 20
1441.1280186375
 30
0.0
 11
1154.1908945512
 21
1441.1280186375
 31
0.0
  0
LINE
  5
1A3
330
1F
100
AcDbEntity
  8
0
  6
Continuous
 62
     7
 48
10.0
370
    15
100
AcDbLine
 10
1055.1908950877
 20
1441.1280186375
 30
0.0
 11
1104.6908948195
 21
1441.1280186375
 31
0.0
  0
LINE
  5
1A4
330
1F
100
AcDbEntity
  8
0
  6
Continuous
 62
     7
 48
10.0
370
    15
100
AcDbLine
 10
1104.6908948195
 20
1444.1280172666
 30
0.0
 11
1153.19089625
 21
1444.1280172666
 31
0.0
  0
LINE
  5
1A5
330
1F
100
AcDbEntity
  8
0
  6
Continuous
 62
     7
 48
10.0
370
    15
100
AcDbLine
 10
1056.190893389
 20
1444.1280172666
 30
0.0
 11
1104.6908948195
 21
1444.1280172666
 31
0.0
  0
LINE
  5
1A6
330
1F
100
AcDbEntity
  8
0
  6
Continuous
 62
     7
 48
10.0
370
    15
100
AcDbLine
 10
1062.6908953857
 20
1440.0513501366
 30
0.0
 11
1146.6908942532
 21
1440.0513501366
 31
0.0
  0
LINE
  5
1A7
330
1F
100
AcDbEntity
  8
0
  6
Continuous
 62
     7
 48
10.0
370
    15
100
AcDbLine
 10
1147.1908952665
 20
1439.5513491233
 30
0.0
 11
1062.1908943724
 21
1439.5513491233
 31
0.0
  0
SPLINE
  5
1A8
330
1F
100
AcDbEntity
  8
0
  6
Continuous
 62
     7
 48
10.0
370
    15
100
AcDbSpline
210
0.0
220
0.0
230
1.0
 70
     8
 71
     3
 72
    17
 73
    13
 74
     0
 42
0.00000001
 43
0.00000001
 40
0.0
 40
0.0
 40
0.0
 40
0.0
 40
0.0366856154027759
 40
0.1437795985488342
 40
0.2509711596142965
 40
0.3583956339781222
 40
0.4658256595277752
 40
0.5730240847326131
 40
0.6801150528115714
 40
0.7873905382901357
 40
0.8948542562353058
 40
1.0
 40
1.0
 40
1.0
 40
1.0
 10
1147.188220508066
 20
1433.013099571054
 30
0.0
 10
1147.188954070725
 20
1433.023601436968
 30
0.0
 10
1147.191829076187
 20
1433.064760731924
 30
0.0
 10
1147.172302071911
 20
1432.787693745183
 30
0.0
 10
1147.137867430593
 20
1432.210809684391
 30
0.0
 10
1147.101869864614
 20
1431.367306485748
 30
0.0
 10
1147.082052646921
 20
1430.380947049737
 30
0.0
 10
1147.086595547875
 20
1429.357217131018
 30
0.0
 10
1147.113705566397
 20
1428.411052289941
 30
0.0
 10
1147.150914028109
 20
1427.655417576684
 30
0.0
 10
1147.183966727646
 20
1427.146841782954
 30
0.0
 10
1147.188445568206
 20
1427.085238992989
 30
0.0
 10
1147.190660573212
 20
1427.054773410147
 30
0.0
  0
SPLINE
  5
1A9
330
1F
100
AcDbEntity
  8
0
  6
Continuous
 62
     7
 48
10.0
370
    15
100
AcDbSpline
210
0.0
220
0.0
230
1.0
 70
     8
 71
     3
 72
    17
 73
    13
 74
     0
 42
0.00000001
 43
0.00000001
 40
0.0
 40
0.0
 40
0.0
 40
0.0
 40
0.1071888136489599
 40
0.2143712432131552
 40
0.3217206841938617
 40
0.4291804370991847
 40
0.536458826566987
 40
0.6435458141771234
 40
0.7507312821642741
 40
0.8581507424012363
 40
0.9655749094801438
 40
1.0
 40
1.0
 40
1.0
 40
1.0
 10
1062.190894372431
 20
1427.051353593653
 30
0.0
 10
1062.19329648363
 20
1427.084437825191
 30
0.0
 10
1062.19810056296
 20
1427.150604317796
 30
0.0
 10
1062.23150864206
 20
1427.666304933937
 30
0.0
 10
1062.268715804908
 20
1428.42644645792
 30
0.0
 10
1062.295542611229
 20
1429.37675123179
 30
0.0
 10
1062.299554724337
 20
1430.401351298184
 30
0.0
 10
1062.279356343613
 20
1431.384163628074
 30
0.0
 10
1062.2432509903
 20
1432.223492805436
 30
0.0
 10
1062.208958279124
 20
1432.795607563376
 30
0.0
 10
1062.189759648539
 20
1433.067718844645
 30
0.0
 10
1062.192753220398
 20
1433.024773565747
 30
0.0
 10
1062.193479723898
 20
1433.014351268595
 30
0.0
  0
SPLINE
  5
1AA
330
1F
100
AcDbEntity
  8
0
  6
Continuous
 62
     7
 48
10.0
370
    15
100
AcDbSpline
210
0.0
220
0.0
230
1.0
 70
     8
 71
     3
 72
    68
 73
    64
 74
     0
 42
0.00000001
 43
0.00000001
 40
0.0
 40
0.0
 40
0.0
 40
0.0
 40
0.03125
 40
0.03125
 40
0.0625
 40
0.0625
 40
0.09375
 40
0.09375
 40
0.125
 40
0.125
 40
0.15625
 40
0.15625
 40
0.1875
 40
0.1875
 40
0.21875
 40
0.21875
 40
0.25
 40
0.25
 40
0.28125
 40
0.28125
 40
0.3125
 40
0.3125
 40
0.34375
 40
0.34375
 40
0.375
 40
0.375
 40
0.40625
 40
0.40625
 40
0.4375
 40
0.4375
 40
0.46875
 40
0.46875
 40
0.5
 40
0.5
 40
0.53125
 40
0.53125
 40
0.5625
 40
0.5625
 40
0.59375
 40
0.59375
 40
0.625
 40
0.625
 40
0.65625
 40
0.65625
 40
0.6875
 40
0.6875
 40
0.71875
 40
0.71875
 40
0.75
 40
0.75
 40
0.78125
 40
0.78125
 40
0.8125
 40
0.8125
 40
0.84375
 40
0.84375
 40
0.875
 40
0.875
 40
0.90625
 40
0.90625
 40
0.9375
 40
0.9375
 40
1.0
 40
1.0
 40
1.0
 40
1.0
 10
1101.690894819466
 20
1430.447872066889
 30
0.0
 10
1101.690894819466
 20
1429.853090512535
 30
0.0
 10
1101.71035503973
 20
1429.658155419451
 30
0.0
 10
1101.786592550844
 20
1429.274660294432
 30
0.0
 10
1101.84429935915
 20
1429.08410918415
 30
0.0
 10
1101.994900515201
 20
1428.720833381131
 30
0.0
 10
1102.087050628257
 20
1428.548546025369
 30
0.0
 10
1102.304752258828
 20
1428.222484951272
 30
0.0
 10
1102.431426817652
 20
1428.068151963562
 30
0.0
 10
1102.708126999893
 20
1427.791504583524
 30
0.0
 10
1102.859116853177
 20
1427.6673428438
 30
0.0
 10
1103.187025300631
 20
1427.448029686085
 30
0.0
 10
1103.361552867342
 20
1427.354868078363
 30
0.0
 10
1103.722509928738
 20
1427.205230681638
 30
0.0
 10
1103.911603804172
 20
1427.147614465965
 30
0.0
 10
1104.298876157878
 20
1427.07052867892
 30
0.0
 10
1104.493564733323
 20
1427.0514568976
 30
0.0
 10
1104.88499268994
 20
1427.051246034307
 30
0.0
 10
1105.083792766255
 20
1427.070727845866
 30
0.0
 10
1105.468596795528
 20
1427.147274068396
 30
0.0
 10
1105.655632598906
 20
1427.203910727708
 30
0.0
 10
1106.01891604401
 20
1427.354131186245
 30
0.0
 10
1106.194538506299
 20
1427.448035202398
 30
0.0
 10
1106.51959388577
 20
1427.665128626204
 30
0.0
 10
1106.67111916684
 20
1427.789067807409
 30
0.0
 10
1106.951301229207
 20
1428.068984588517
 30
0.0
 10
1107.075552579824
 20
1428.220617245409
 30
0.0
 10
1107.292875103223
 20
1428.545403677852
 30
0.0
 10
1107.386839230133
 20
1428.720720417642
 30
0.0
 10
1107.537507125236
 20
1429.084142431474
 30
0.0
 10
1107.594288459548
 20
1429.271137406697
 30
0.0
 10
1107.671130456753
 20
1429.655594193042
 30
0.0
 10
1107.690824036101
 20
1429.85446195222
 30
0.0
 10
1107.690965212952
 20
1430.246077115599
 30
0.0
 10
1107.672049630086
 20
1430.440724009459
 30
0.0
 10
1107.59541898571
 20
1430.827646521565
 30
0.0
 10
1107.537869533983
 20
1431.017225806918
 30
0.0
 10
1107.388530705601
 20
1431.378355075244
 30
0.0
 10
1107.295721789737
 20
1431.552635838446
 30
0.0
 10
1107.076506180756
 20
1431.881060857933
 30
0.0
 10
1106.952424873605
 20
1432.032192113067
 30
0.0
 10
1106.676107754783
 20
1432.309044362575
 30
0.0
 10
1106.521960758638
 20
1432.435814172415
 30
0.0
 10
1106.195925543124
 20
1432.653916970042
 30
0.0
 10
1106.023734442422
 20
1432.746186446079
 30
0.0
 10
1105.660893398847
 20
1432.896997202044
 30
0.0
 10
1105.470178584015
 20
1432.954961116015
 30
0.0
 10
1105.086677766897
 20
1433.031550784366
 30
0.0
 10
1104.891861125214
 20
1433.051153864555
 30
0.0
 10
1104.495858801818
 20
1433.051545266057
 30
0.0
 10
1104.300297422294
 20
1433.03223031407
 30
0.0
 10
1103.916798107216
 20
1432.956343613959
 30
0.0
 10
1103.726461577944
 20
1432.898911389885
 30
0.0
 10
1103.362721918167
 20
1432.748514025557
 30
0.0
 10
1103.190337924353
 20
1432.656482927832
 30
0.0
 10
1102.86426915411
 20
1432.439199827339
 30
0.0
 10
1102.709765037953
 20
1432.312641129067
 30
0.0
 10
1102.432749262809
 20
1432.03606430096
 30
0.0
 10
1102.308504111718
 20
1431.885210774464
 30
0.0
 10
1102.089103553423
 20
1431.55784007883
 30
0.0
 10
1101.995579207
 20
1431.383059336728
 30
0.0
 10
1101.770640716157
 20
1430.841799653399
 30
0.0
 10
1101.690894819466
 20
1430.447872066889
 30
0.0
 10
1101.690894819466
 20
1429.853090512535
 30
0.0
  0
LINE
  5
1AB
330
1F
100
AcDbEntity
  8
0
  6
Continuous
 62
     8
 48
10.0
370
    15
100
AcDbLine
 10
1104.6908948195
 20
1450.1280145248
 30
0.0
 11
1111.1908949536
 21
1450.1280145248
 31
0.0
  0
LINE
  5
1AC
330
1F
100
AcDbEntity
  8
0
  6
Continuous
 62
     8
 48
10.0
370
    15
100
AcDbLine
 10
1098.1908946854
 20
1450.1280145248
 30
0.0
 11
1104.6908948195
 21
1450.1280145248
 31
0.0
  0
LINE
  5
1AD
330
1F
100
AcDbEntity
  8
0
  6
Continuous
 62
     8
 48
10.0
370
    15
100
AcDbLine
 10
1104.6908948195
 20
1476.6280160745
 30
0.0
 11
1098.1908946854
 21
1476.6280160745
 31
0.0
  0
LINE
  5
1AE
330
1F
100
AcDbEntity
  8
0
  6
Continuous
 62
     8
 48
10.0
370
    15
100
AcDbLine
 10
1111.1908949536
 20
1476.6280160745
 30
0.0
 11
1104.6908948195
 21
1476.6280160745
 31
0.0
  0
ARC
  5
1AF
330
1F
100
AcDbEntity
  8
0
  6
Continuous
 62
     8
 48
100.0
370
    15
100
AcDbCircle
 10
1104.6908948195
 20
1488.6280170876
 30
0.0
 40
15.82635182233316
100
AcDbArc
 50
95.4182568623
 51
249.0207581126
  0
ARC
  5
1B0
330
1F
100
AcDbEntity
  8
0
  6
Continuous
 62
     8
 48
100.0
370
    15
100
AcDbCircle
 10
1104.6908948195
 20
1488.6280170876
 30
0.0
 40
15.8263518223331
100
AcDbArc
 50
290.9792418874
 51
84.8875656054
  0
ARC
  5
1B1
330
1F
100
AcDbEntity
  8
0
  6
Continuous
 62
     8
 48
100.0
370
    15
100
AcDbCircle
 10
1104.6908948195
 20
1488.6280170876
 30
0.0
 40
24.17364817766686
100
AcDbArc
 50
93.4920007477
 51
256.4437407196
  0
ARC
  5
1B2
330
1F
100
AcDbEntity
  8
0
  6
Continuous
 62
     8
 48
100.0
370
    15
100
AcDbCircle
 10
1104.6908948195
 20
1488.6280170876
 30
0.0
 40
24.17364817766702
100
AcDbArc
 50
283.5562592804
 51
86.6027146825
  0
DIMENSION
  5
1BA
330
1F
100
AcDbEntity
  8
0
  6
Continuous
 62
     7
 48
10.0
370
     0
100
AcDbDimension
  2
*D1
 10
1291.4160269693
 20
1513.5513510307
 30
0.0
 11
1291.4160269693
 21
1389.917062901
 31
0.0
 70
    32
 71
     2
 42
-1.0
 73
     0
 74
     0
 75
     0
  3
SLDDIMSTYLE0
100
AcDbAlignedDimension
 13
1162.7524008872
 23
1247.5513510307
 33
0.0
 14
1115.511198745
 24
1513.5513510307
 34
0.0
 50
90.0
100
AcDbRotatedDimension
  0
DIMENSION
  5
1C5
330
1F
100
AcDbEntity
  8
0
  6
Continuous
 62
     7
 48
10.0
370
     0
100
AcDbDimension
  2
*D2
 10
917.9657626697
 20
1247.5513510307
 30
0.0
 11
917.9657626697
 21
1341.0938543673
 31
0.0
 70
    32
 71
     2
 42
-1.0
 73
     0
 74
     0
 75
     0
  3
SLDDIMSTYLE1
100
AcDbAlignedDimension
 13
1065.6908948195
 23
1440.0513510307
 33
0.0
 14
1104.6908948195
 24
1247.5513510307
 34
0.0
 50
90.0
100
AcDbRotatedDimension
  0
DIMENSION
  5
1D2
330
1F
100
AcDbEntity
  8
0
  6
Continuous
 62
     7
 48
10.0
370
     0
100
AcDbDimension
  2
*D3
 10
1104.6908948195
 20
1337.5513510307
 30
0.0
 11
1201.5665994418
 21
1199.81353362
 31
0.0
 70
    36
  1
%%c180
 71
     1
 42
-1.0
 73
     0
 74
     0
 75
     0
  3
SLDDIMSTYLE2
100
AcDbRadialDimension
 15
1104.6646490172
 25
1247.5513548576
 35
0.0
 40
0.0
  0
DIMENSION
  5
1DD
330
1F
100
AcDbEntity
  8
0
  6
Continuous
 62
     7
 48
10.0
370
     0
100
AcDbDimension
  2
*D4
 10
1174.6908948195
 20
2327.4285801194
 30
0.0
 11
1079.3624150793
 21
2327.4285801194
 31
0.0
 70
    32
  1
%%c<>
 71
     2
 42
-1.0
 73
     0
 74
     0
 75
     0
  3
SLDDIMSTYLE3
100
AcDbAlignedDimension
 13
1034.6908948195
 23
2231.232651244
 33
0.0
 14
1174.6908948195
 24
2231.232651244
 34
0.0
100
AcDbRotatedDimension
  0
DIMENSION
  5
1EB
330
1F
100
AcDbEntity
  8
0
  6
Continuous
 62
     7
 48
10.0
370
     0
100
AcDbDimension
  2
*D5
 10
1271.2300018576
 20
2191.232651244
 30
0.0
 11
1271.2300018576
 21
2211.170417022
 31
0.0
 70
    32
 71
     2
 42
-1.0
 73
     0
 74
     0
 75
     0
  3
SLDDIMSTYLE3
100
AcDbAlignedDimension
 13
1174.6908948195
 23
2231.232651244
 33
0.0
 14
1171.6908948195
 24
2191.232651244
 34
0.0
 50
90.0
100
AcDbRotatedDimension
  0
DIMENSION
  5
1F7
330
1F
100
AcDbEntity
  8
0
  6
Continuous
 62
     7
 48
10.0
370
     0
100
AcDbDimension
  2
*D6
 10
919.9657626697
 20
1440.0513510307
 30
0.0
 11
919.9657626697
 21
1790.324929609
 31
0.0
 70
    32
  1
MAX.2,5M
 71
     2
 42
-1.0
 73
     0
 74
     0
 75
     0
  3
SLDDIMSTYLE0
100
AcDbAlignedDimension
 13
1037.6908948195
 23
2191.232651244
 33
0.0
 14
1062.6908948195
 24
1440.0513510307
 34
0.0
 50
90.0
100
AcDbRotatedDimension
  0
ENDSEC
  0
SECTION
  2
OBJECTS
  0
DICTIONARY
  5
C
330
0
100
AcDbDictionary
281
     1
  3
ACAD_COLOR
350
6C
  3
ACAD_GROUP
350
D
  3
ACAD_IMAGE_DICT
350
40
  3
ACAD_LAYOUT
350
1A
  3
ACAD_MATERIAL
350
6B
  3
ACAD_MLEADERSTYLE
350
203
  3
ACAD_MLINESTYLE
350
17
  3
ACAD_PLOTSETTINGS
350
19
  3
ACAD_PLOTSTYLENAME
350
E
  3
ACAD_SCALELIST
350
99
  3
ACAD_TABLESTYLE
350
92
  3
ACAD_VISUALSTYLE
350
2A
  3
AcDbVariableDictionary
350
59
  0
DICTIONARY
  5
232
330
1F
100
AcDbDictionary
280
     1
281
     1
  0
DICTIONARY
  5
6C
102
{ACAD_REACTORS
330
C
102
}
330
C
100
AcDbDictionary
281
     1
  0
DICTIONARY
  5
D
102
{ACAD_REACTORS
330
C
102
}
330
C
100
AcDbDictionary
281
     1
  0
DICTIONARY
  5
40
102
{ACAD_REACTORS
330
C
102
}
330
C
100
AcDbDictionary
281
     1
  3
G:\JSL\PARACHILNA\PRODUCTOS\BAI\BAI DI DI\CAD\DXF48D7.BMP
350
41
  0
DICTIONARY
  5
1A
102
{ACAD_REACTORS
330
C
102
}
330
C
100
AcDbDictionary
281
     1
  3
Layout1
350
74
  3
Layout2
350
26
  3
Model
350
22
  0
DICTIONARY
  5
6B
102
{ACAD_REACTORS
330
C
102
}
330
C
100
AcDbDictionary
281
     1
  0
DICTIONARY
  5
203
102
{ACAD_REACTORS
330
C
102
}
330
C
100
AcDbDictionary
281
     1
  0
DICTIONARY
  5
17
102
{ACAD_REACTORS
330
C
102
}
330
C
100
AcDbDictionary
281
     1
  3
Standard
350
18
  0
DICTIONARY
  5
19
102
{ACAD_REACTORS
330
C
102
}
330
C
100
AcDbDictionary
281
     1
  0
ACDBDICTIONARYWDFLT
  5
E
102
{ACAD_REACTORS
330
C
102
}
330
C
100
AcDbDictionary
281
     1
  3
Normal
350
F
100
AcDbDictionaryWithDefault
340
F
  0
DICTIONARY
  5
99
102
{ACAD_REACTORS
330
C
102
}
330
C
100
AcDbDictionary
281
     1
  3
A0
350
66
  3
A1
350
67
  3
A2
350
68
  3
A3
350
69
  3
A4
350
6A
  3
A5
350
214
  3
A6
350
215
  3
A7
350
6D
  3
A8
350
6E
  3
A9
350
6F
  3
B0
350
70
  3
B1
350
71
  3
B2
350
72
  3
B3
350
216
  3
B4
350
217
  3
B5
350
218
  3
B6
350
219
  3
B7
350
77
  3
B8
350
78
  3
B9
350
79
  3
C0
350
7A
  3
C1
350
7B
  3
C2
350
7C
  3
C3
350
7D
  3
C4
350
7E
  3
C5
350
7F
  3
C6
350
80
  3
C7
350
81
  3
C8
350
82
  3
C9
350
83
  3
D0
350
84
  3
D1
350
85
  3
D2
350
86
  0
DICTIONARY
  5
92
102
{ACAD_REACTORS
330
C
102
}
330
C
100
AcDbDictionary
281
     1
  3
Standard
350
93
  0
DICTIONARY
  5
2A
102
{ACAD_REACTORS
330
C
102
}
330
C
100
AcDbDictionary
281
     1
  3
2DWIREFRAME
350
2F
  3
3D HIDDEN
350
31
  3
3DWIREFRAME
350
30
  3
BASIC
350
32
  3
BRIGHTEN
350
36
  3
COLORCHANGE
350
3A
  3
CONCEPTUAL
350
34
  3
DIM
350
35
  3
FACEPATTERN
350
39
  3
FLAT
350
2B
  3
FLATWITHEDGES
350
2C
  3
GOURAUD
350
2D
  3
GOURAUDWITHEDGES
350
2E
  3
LINEPATTERN
350
38
  3
REALISTIC
350
33
  3
THICKEN
350
37
  0
DICTIONARY
  5
59
102
{ACAD_REACTORS
330
C
102
}
330
C
100
AcDbDictionary
281
     1
  3
CANNOSCALE
350
233
  3
CTABLESTYLE
350
98
  3
DIMASSOC
350
207
  3
HIDETEXT
350
208
  0
IMAGEDEF
  5
41
102
{ACAD_REACTORS
330
40
102
}
330
40
100
AcDbRasterImageDef
 90
        0
  1
G:\JSL\PARACHILNA\PRODUCTOS\BAI\BAI DI DI\CAD\dxf48D7.bmp
 10
468.0
 20
40.0
 11
0.002136752136752137
 21
0.002136752136752137
280
     1
281
     0
  0
LAYOUT
  5
74
102
{ACAD_REACTORS
330
1A
102
}
330
1A
100
AcDbPlotSettings
  1

  2
none_device
  4
ISO_C5_(229.00_x_162.00_MM)
  6

 40
0.0
 41
0.0
 42
0.0
 43
0.0
 44
229.0
 45
162.0
 46
0.0
 47
0.0
 48
0.0
 49
0.0
140
0.0
141
0.0
142
1.0
143
1.0
 70
   688
 72
     1
 73
     0
 74
     5
  7

 75
    16
 76
     0
 77
     2
 78
   300
147
1.0
148
0.0
149
0.0
100
AcDbLayout
  1
Layout1
 70
     1
 71
     1
 10
0.0
 20
0.0
 11
420.0
 21
297.0
 12
0.0
 22
0.0
 32
0.0
 14
1.000000000000000E+20
 24
1.000000000000000E+20
 34
1.000000000000000E+20
 15
-1.000000000000000E+20
 25
-1.000000000000000E+20
 35
-1.000000000000000E+20
146
0.0
 13
0.0
 23
0.0
 33
0.0
 16
1.0
 26
0.0
 36
0.0
 17
0.0
 27
1.0
 37
0.0
 76
     0
330
73
  0
LAYOUT
  5
26
102
{ACAD_REACTORS
330
1A
102
}
330
1A
100
AcDbPlotSettings
  1

  2
none_device
  4
ISO_C5_(229.00_x_162.00_MM)
  6

 40
0.0
 41
0.0
 42
0.0
 43
0.0
 44
229.0
 45
162.0
 46
0.0
 47
0.0
 48
0.0
 49
0.0
140
0.0
141
0.0
142
1.0
143
1.0
 70
   688
 72
     1
 73
     0
 74
     5
  7

 75
    16
 76
     0
 77
     2
 78
   300
147
1.0
148
0.0
149
0.0
100
AcDbLayout
  1
Layout2
 70
     1
 71
     2
 10
0.0
 20
0.0
 11
0.0
 21
0.0
 12
0.0
 22
0.0
 32
0.0
 14
0.0
 24
0.0
 34
0.0
 15
0.0
 25
0.0
 35
0.0
146
0.0
 13
0.0
 23
0.0
 33
0.0
 16
1.0
 26
0.0
 36
0.0
 17
0.0
 27
1.0
 37
0.0
 76
     0
330
23
  0
LAYOUT
  5
22
102
{ACAD_REACTORS
330
1A
102
}
330
1A
100
AcDbPlotSettings
  1

  2
none_device
  4
ISO_C5_(229.00_x_162.00_MM)
  6

 40
0.0
 41
0.0
 42
0.0
 43
0.0
 44
229.0
 45
162.0
 46
0.0
 47
0.0
 48
0.0
 49
0.0
140
0.0
141
0.0
142
1.0
143
1.0
 70
 11952
 72
     1
 73
     0
 74
     0
  7

 75
    16
 76
     0
 77
     2
 78
   300
147
1.0
148
0.0
149
0.0
100
AcDbLayout
  1
Model
 70
     1
 71
     0
 10
0.0
 20
0.0
 11
2100.0
 21
2970.0
 12
0.0
 22
0.0
 32
0.0
 14
176.8264998564
 24
49.9980727422
 34
0.0
 15
2049.4323743066
 25
4010.634417971
 35
0.0
146
0.0
 13
0.0
 23
0.0
 33
0.0
 16
1.0
 26
0.0
 36
0.0
 17
0.0
 27
1.0
 37
0.0
 76
     0
330
1F
331
97
  0
MLINESTYLE
  5
18
102
{ACAD_REACTORS
330
17
102
}
330
17
100
AcDbMlineStyle
  2
Standard
 70
     0
  3

 62
   256
 51
90.0
 52
90.0
 71
     2
 49
0.5
 62
   256
  6
BYLAYER
 49
-0.5
 62
   256
  6
BYLAYER
  0
ACDBPLACEHOLDER
  5
F
102
{ACAD_REACTORS
330
E
102
}
330
E
  0
SCALE
  5
66
102
{ACAD_REACTORS
330
99
102
}
330
99
100
AcDbScale
 70
     0
300
1:1
140
1.0
141
1.0
290
     1
  0
SCALE
  5
67
102
{ACAD_REACTORS
330
99
102
}
330
99
100
AcDbScale
 70
     0
300
1:2
140
1.0
141
2.0
290
     0
  0
SCALE
  5
68
102
{ACAD_REACTORS
330
99
102
}
330
99
100
AcDbScale
 70
     0
300
1:4
140
1.0
141
4.0
290
     0
  0
SCALE
  5
69
102
{ACAD_REACTORS
330
99
102
}
330
99
100
AcDbScale
 70
     0
300
1:5
140
1.0
141
5.0
290
     0
  0
SCALE
  5
6A
102
{ACAD_REACTORS
330
99
102
}
330
99
100
AcDbScale
 70
     0
300
1:8
140
1.0
141
8.0
290
     0
  0
SCALE
  5
214
102
{ACAD_REACTORS
330
99
102
}
330
99
100
AcDbScale
 70
     0
300
1:10
140
1.0
141
10.0
290
     0
  0
SCALE
  5
215
102
{ACAD_REACTORS
330
99
102
}
330
99
100
AcDbScale
 70
     0
300
1:16
140
1.0
141
16.0
290
     0
  0
SCALE
  5
6D
102
{ACAD_REACTORS
330
99
102
}
330
99
100
AcDbScale
 70
     0
300
1:20
140
1.0
141
20.0
290
     0
  0
SCALE
  5
6E
102
{ACAD_REACTORS
330
99
102
}
330
99
100
AcDbScale
 70
     0
300
1:30
140
1.0
141
30.0
290
     0
  0
SCALE
  5
6F
102
{ACAD_REACTORS
330
99
102
}
330
99
100
AcDbScale
 70
     0
300
1:40
140
1.0
141
40.0
290
     0
  0
SCALE
  5
70
102
{ACAD_REACTORS
330
99
102
}
330
99
100
AcDbScale
 70
     0
300
1:50
140
1.0
141
50.0
290
     0
  0
SCALE
  5
71
102
{ACAD_REACTORS
330
99
102
}
330
99
100
AcDbScale
 70
     0
300
1:100
140
1.0
141
100.0
290
     0
  0
SCALE
  5
72
102
{ACAD_REACTORS
330
99
102
}
330
99
100
AcDbScale
 70
     0
300
2:1
140
2.0
141
1.0
290
     0
  0
SCALE
  5
216
102
{ACAD_REACTORS
330
99
102
}
330
99
100
AcDbScale
 70
     0
300
4:1
140
4.0
141
1.0
290
     0
  0
SCALE
  5
217
102
{ACAD_REACTORS
330
99
102
}
330
99
100
AcDbScale
 70
     0
300
8:1
140
8.0
141
1.0
290
     0
  0
SCALE
  5
218
102
{ACAD_REACTORS
330
99
102
}
330
99
100
AcDbScale
 70
     0
300
10:1
140
10.0
141
1.0
290
     0
  0
SCALE
  5
219
102
{ACAD_REACTORS
330
99
102
}
330
99
100
AcDbScale
 70
     0
300
100:1
140
100.0
141
1.0
290
     0
  0
SCALE
  5
77
102
{ACAD_REACTORS
330
99
102
}
330
99
100
AcDbScale
 70
     0
300
1/128" = 1'-0"
140
0.0078125
141
12.0
290
     0
  0
SCALE
  5
78
102
{ACAD_REACTORS
330
99
102
}
330
99
100
AcDbScale
 70
     0
300
1/64" = 1'-0"
140
0.015625
141
12.0
290
     0
  0
SCALE
  5
79
102
{ACAD_REACTORS
330
99
102
}
330
99
100
AcDbScale
 70
     0
300
1/32" = 1'-0"
140
0.03125
141
12.0
290
     0
  0
SCALE
  5
7A
102
{ACAD_REACTORS
330
99
102
}
330
99
100
AcDbScale
 70
     0
300
1/16" = 1'-0"
140
0.0625
141
12.0
290
     0
  0
SCALE
  5
7B
102
{ACAD_REACTORS
330
99
102
}
330
99
100
AcDbScale
 70
     0
300
3/32" = 1'-0"
140
0.09375
141
12.0
290
     0
  0
SCALE
  5
7C
102
{ACAD_REACTORS
330
99
102
}
330
99
100
AcDbScale
 70
     0
300
1/8" = 1'-0"
140
0.125
141
12.0
290
     0
  0
SCALE
  5
7D
102
{ACAD_REACTORS
330
99
102
}
330
99
100
AcDbScale
 70
     0
300
3/16" = 1'-0"
140
0.1875
141
12.0
290
     0
  0
SCALE
  5
7E
102
{ACAD_REACTORS
330
99
102
}
330
99
100
AcDbScale
 70
     0
300
1/4" = 1'-0"
140
0.25
141
12.0
290
     0
  0
SCALE
  5
7F
102
{ACAD_REACTORS
330
99
102
}
330
99
100
AcDbScale
 70
     0
300
3/8" = 1'-0"
140
0.375
141
12.0
290
     0
  0
SCALE
  5
80
102
{ACAD_REACTORS
330
99
102
}
330
99
100
AcDbScale
 70
     0
300
1/2" = 1'-0"
140
0.5
141
12.0
290
     0
  0
SCALE
  5
81
102
{ACAD_REACTORS
330
99
102
}
330
99
100
AcDbScale
 70
     0
300
3/4" = 1'-0"
140
0.75
141
12.0
290
     0
  0
SCALE
  5
82
102
{ACAD_REACTORS
330
99
102
}
330
99
100
AcDbScale
 70
     0
300
1" = 1'-0"
140
1.0
141
12.0
290
     0
  0
SCALE
  5
83
102
{ACAD_REACTORS
330
99
102
}
330
99
100
AcDbScale
 70
     0
300
1-1/2" = 1'-0"
140
1.5
141
12.0
290
     0
  0
SCALE
  5
84
102
{ACAD_REACTORS
330
99
102
}
330
99
100
AcDbScale
 70
     0
300
3" = 1'-0"
140
3.0
141
12.0
290
     0
  0
SCALE
  5
85
102
{ACAD_REACTORS
330
99
102
}
330
99
100
AcDbScale
 70
     0
300
6" = 1'-0"
140
6.0
141
12.0
290
     0
  0
SCALE
  5
86
102
{ACAD_REACTORS
330
99
102
}
330
99
100
AcDbScale
 70
     0
300
1'-0" = 1'-0"
140
12.0
141
12.0
290
     0
  0
TABLESTYLE
  5
93
102
{ACAD_REACTORS
330
92
102
}
330
92
100
AcDbTableStyle
  3
Standard
 70
     0
 71
     0
 40
0.06
 41
0.06
280
     0
281
     0
  7
Standard
140
0.18
170
     2
 62
     0
 63
     7
283
     0
 90
      512
 91
        0
  1

274
    -2
284
     1
 64
     0
275
    -2
285
     1
 65
     0
276
    -2
286
     1
 66
     0
277
    -2
287
     1
 67
     0
278
    -2
288
     1
 68
     0
279
    -2
289
     1
 69
     0
  7
Standard
140
0.25
170
     5
 62
     0
 63
     7
283
     0
 90
      512
 91
        0
  1

274
    -2
284
     1
 64
     0
275
    -2
285
     1
 65
     0
276
    -2
286
     1
 66
     0
277
    -2
287
     1
 67
     0
278
    -2
288
     1
 68
     0
279
    -2
289
     1
 69
     0
  7
Standard
140
0.18
170
     5
 62
     0
 63
     7
283
     0
 90
      512
 91
        0
  1

274
    -2
284
     1
 64
     0
275
    -2
285
     1
 65
     0
276
    -2
286
     1
 66
     0
277
    -2
287
     1
 67
     0
278
    -2
288
     1
 68
     0
279
    -2
289
     1
 69
     0
  0
VISUALSTYLE
  5
2F
102
{ACAD_REACTORS
330
2A
102
}
330
2A
100
AcDbVisualStyle
  2
2dWireframe
 70
     4
 71
     0
 72
     2
 73
     0
 90
        0
 40
-0.6
 41
-30.0
 62
     5
 63
     7
 74
     1
 91
        4
 64
     7
 65
   257
 75
     1
175
     1
 42
1.0
 92
        0
 66
   257
 43
1.0
 76
     1
 77
     6
 78
     2
 67
     7
 79
     5
170
     0
171
     0
290
     1
174
     0
 93
        1
 44
0.0
173
     0
291
     1
 45
0.0
  0
VISUALSTYLE
  5
31
102
{ACAD_REACTORS
330
2A
102
}
330
2A
100
AcDbVisualStyle
  2
3D Hidden
 70
     6
 71
     1
 72
     2
 73
     2
 90
        0
 40
-0.6
 41
-30.0
 62
     5
 63
     7
 74
     2
 91
        2
 64
     7
 65
   257
 75
     2
175
     1
 42
40.0
 92
        0
 66
   257
 43
1.0
 76
     1
 77
     6
 78
     2
 67
     7
 79
     3
170
     0
171
     0
290
     1
174
     0
 93
        1
 44
0.0
173
     0
291
     1
 45
0.0
  0
VISUALSTYLE
  5
30
102
{ACAD_REACTORS
330
2A
102
}
330
2A
100
AcDbVisualStyle
  2
3dWireframe
 70
     5
 71
     0
 72
     2
 73
     0
 90
        0
 40
-0.6
 41
-30.0
 62
     5
 63
     7
 74
     1
 91
        4
 64
     7
 65
   257
 75
     1
175
     1
 42
1.0
 92
        0
 66
   257
 43
1.0
 76
     1
 77
     6
 78
     2
 67
     7
 79
     5
170
     0
171
     0
290
     1
174
     0
 93
        1
 44
0.0
173
     0
291
     1
 45
0.0
  0
VISUALSTYLE
  5
32
102
{ACAD_REACTORS
330
2A
102
}
330
2A
100
AcDbVisualStyle
  2
Basic
 70
     7
 71
     1
 72
     0
 73
     1
 90
        0
 40
-0.6
 41
-30.0
 62
     5
 63
     7
 74
     0
 91
        4
 64
     7
 65
   257
 75
     1
175
     1
 42
1.0
 92
        8
 66
     7
 43
1.0
 76
     1
 77
     6
 78
     2
 67
     7
 79
     5
170
     0
171
     0
290
     1
174
     0
 93
        1
 44
0.0
173
     0
291
     1
 45
0.0
  0
VISUALSTYLE
  5
36
102
{ACAD_REACTORS
330
2A
102
}
330
2A
100
AcDbVisualStyle
  2
Brighten
 70
    12
 71
     2
 72
     2
 73
     0
 90
        0
 40
-0.6
 41
-30.0
 62
     5
 63
     7
 74
     1
 91
        4
 64
     7
 65
   257
 75
     1
175
     1
 42
1.0
 92
        8
 66
     7
 43
1.0
 76
     1
 77
     6
 78
     2
 67
     7
 79
     5
170
     0
171
     0
290
     1
174
     0
 93
        1
 44
50.0
173
     0
291
     1
 45
0.0
  0
VISUALSTYLE
  5
3A
102
{ACAD_REACTORS
330
2A
102
}
330
2A
100
AcDbVisualStyle
  2
ColorChange
 70
    16
 71
     2
 72
     2
 73
     3
 90
        0
 40
-0.6
 41
-30.0
 62
     5
 63
     8
 74
     1
 91
        4
 64
     7
 65
   257
 75
     1
175
     1
 42
1.0
 92
        8
 66
     8
 43
1.0
 76
     1
 77
     6
 78
     2
 67
     7
 79
     5
170
     0
171
     0
290
     1
174
     0
 93
        1
 44
0.0
173
     0
291
     1
 45
0.0
  0
VISUALSTYLE
  5
34
102
{ACAD_REACTORS
330
2A
102
}
330
2A
100
AcDbVisualStyle
  2
Conceptual
 70
     9
 71
     3
 72
     2
 73
     0
 90
        0
 40
-0.6
 41
-30.0
 62
     5
 63
     7
 74
     2
 91
        2
 64
     7
 65
   257
 75
     1
175
     1
 42
40.0
 92
        8
 66
     7
 43
1.0
 76
     1
 77
     6
 78
     2
 67
     7
 79
     3
170
     0
171
     0
290
     1
174
     0
 93
        1
 44
0.0
173
     0
291
     1
 45
0.0
  0
VISUALSTYLE
  5
35
102
{ACAD_REACTORS
330
2A
102
}
330
2A
100
AcDbVisualStyle
  2
Dim
 70
    11
 71
     2
 72
     2
 73
     0
 90
        0
 40
-0.6
 41
-30.0
 62
     5
 63
     7
 74
     1
 91
        4
 64
     7
 65
   257
 75
     1
175
     1
 42
1.0
 92
        8
 66
     7
 43
1.0
 76
     1
 77
     6
 78
     2
 67
     7
 79
     5
170
     0
171
     0
290
     1
174
     0
 93
        1
 44
-50.0
173
     0
291
     1
 45
0.0
  0
VISUALSTYLE
  5
39
102
{ACAD_REACTORS
330
2A
102
}
330
2A
100
AcDbVisualStyle
  2
Facepattern
 70
    15
 71
     2
 72
     2
 73
     0
 90
        0
 40
-0.6
 41
-30.0
 62
     5
 63
     7
 74
     1
 91
        4
 64
     7
 65
   257
 75
     1
175
     1
 42
1.0
 92
        8
 66
     7
 43
1.0
 76
     1
 77
     6
 78
     2
 67
     7
 79
     5
170
     0
171
     0
290
     1
174
     0
 93
        1
 44
0.0
173
     0
291
     1
 45
0.0
  0
VISUALSTYLE
  5
2B
102
{ACAD_REACTORS
330
2A
102
}
330
2A
100
AcDbVisualStyle
  2
Flat
 70
     0
 71
     2
 72
     1
 73
     1
 90
        2
 40
-0.6
 41
30.0
 62
     5
 63
     7
 74
     0
 91
        4
 64
     7
 65
   257
 75
     1
175
     1
 42
1.0
 92
        8
 66
     7
 43
1.0
 76
     1
 77
     6
 78
     2
 67
     7
 79
     5
170
     0
171
     0
290
     1
174
     0
 93
       13
 44
0.0
173
     0
291
     1
 45
0.0
  0
VISUALSTYLE
  5
2C
102
{ACAD_REACTORS
330
2A
102
}
330
2A
100
AcDbVisualStyle
  2
FlatWithEdges
 70
     1
 71
     2
 72
     1
 73
     1
 90
        2
 40
-0.6
 41
30.0
 62
     5
 63
     7
 74
     1
 91
        4
 64
     7
 65
   257
 75
     1
175
     1
 42
1.0
 92
        0
 66
   257
 43
1.0
 76
     1
 77
     6
 78
     2
 67
     7
 79
     5
170
     0
171
     0
290
     1
174
     0
 93
       13
 44
0.0
173
     0
291
     1
 45
0.0
  0
VISUALSTYLE
  5
2D
102
{ACAD_REACTORS
330
2A
102
}
330
2A
100
AcDbVisualStyle
  2
Gouraud
 70
     2
 71
     2
 72
     2
 73
     1
 90
        2
 40
-0.6
 41
30.0
 62
     5
 63
     7
 74
     0
 91
        4
 64
     7
 65
   257
 75
     1
175
     1
 42
1.0
 92
        0
 66
     7
 43
1.0
 76
     1
 77
     6
 78
     2
 67
     7
 79
     5
170
     0
171
     0
290
     1
174
     0
 93
       13
 44
0.0
173
     0
291
     1
 45
0.0
  0
VISUALSTYLE
  5
2E
102
{ACAD_REACTORS
330
2A
102
}
330
2A
100
AcDbVisualStyle
  2
GouraudWithEdges
 70
     3
 71
     2
 72
     2
 73
     1
 90
        2
 40
-0.6
 41
30.0
 62
     5
 63
     7
 74
     1
 91
        4
 64
     7
 65
   257
 75
     1
175
     1
 42
1.0
 92
        0
 66
   257
 43
1.0
 76
     1
 77
     6
 78
     2
 67
     7
 79
     5
170
     0
171
     0
290
     1
174
     0
 93
       13
 44
0.0
173
     0
291
     1
 45
0.0
  0
VISUALSTYLE
  5
38
102
{ACAD_REACTORS
330
2A
102
}
330
2A
100
AcDbVisualStyle
  2
Linepattern
 70
    14
 71
     2
 72
     2
 73
     0
 90
        0
 40
-0.6
 41
-30.0
 62
     5
 63
     7
 74
     1
 91
        4
 64
     7
 65
   257
 75
     7
175
     7
 42
1.0
 92
        8
 66
     7
 43
1.0
 76
     1
 77
     6
 78
     2
 67
     7
 79
     5
170
     0
171
     0
290
     1
174
     0
 93
        1
 44
0.0
173
     0
291
     1
 45
0.0
  0
VISUALSTYLE
  5
33
102
{ACAD_REACTORS
330
2A
102
}
330
2A
100
AcDbVisualStyle
  2
Realistic
 70
     8
 71
     2
 72
     2
 73
     0
 90
        0
 40
-0.6
 41
-30.0
 62
     5
 63
     7
 74
     1
 91
        0
 64
     7
 65
   257
 75
     1
175
     1
 42
1.0
 92
        8
 66
     8
 43
1.0
 76
     1
 77
     6
 78
     2
 67
     7
 79
     5
170
     0
171
     0
290
     1
174
     0
 93
       13
 44
0.0
173
     0
291
     1
 45
0.0
  0
VISUALSTYLE
  5
37
102
{ACAD_REACTORS
330
2A
102
}
330
2A
100
AcDbVisualStyle
  2
Thicken
 70
    13
 71
     2
 72
     2
 73
     0
 90
        0
 40
-0.6
 41
-30.0
 62
     5
 63
     7
 74
     1
 91
        4
 64
     7
 65
   257
 75
     1
175
     1
 42
1.0
 92
       12
 66
     7
 43
1.0
 76
     1
 77
     6
 78
     2
 67
     7
 79
     5
170
     0
171
     0
290
     1
174
     0
 93
        1
 44
0.0
173
     0
291
     1
 45
0.0
  0
DICTIONARYVAR
  5
233
102
{ACAD_REACTORS
330
59
102
}
330
59
100
DictionaryVariables
280
     0
  1
1:1
  0
DICTIONARYVAR
  5
98
102
{ACAD_REACTORS
330
59
102
}
330
59
100
DictionaryVariables
280
     0
  1
Standard
  0
DICTIONARYVAR
  5
207
102
{ACAD_REACTORS
330
59
102
}
330
59
100
DictionaryVariables
280
     0
  1
2
  0
DICTIONARYVAR
  5
208
102
{ACAD_REACTORS
330
59
102
}
330
59
100
DictionaryVariables
280
     0
  1
1
  0
ENDSEC
  0
EOF
