  0
SECTION
  2
HEADER
  9
$ACADVER
  1
AC1021
  9
$ACADMAINTVER
 70
    25
  9
$DWGCODEPAGE
  3
ANSI_1252
  9
$LASTSAVEDBY
  1
Josep Sancho
  9
$INSBASE
 10
0.0
 20
0.0
 30
0.0
  9
$EXTMIN
 10
265.2397497845
 20
74.9971091133
 30
0.0
  9
$EXTMAX
 10
3074.1485614599
 20
4379.9971091133
 30
0.0999999997
  9
$LIMMIN
 10
0.0
 20
0.0
  9
$LIMMAX
 10
3150.0
 20
4455.0
  9
$ORTHOMODE
 70
     0
  9
$REGENMODE
 70
     1
  9
$FILLMODE
 70
     1
  9
$QTEXTMODE
 70
     0
  9
$MIRRTEXT
 70
     1
  9
$LTSCALE
 40
15.0
  9
$ATTMODE
 70
     1
  9
$TEXTSIZE
 40
52.5
  9
$TRACEWID
 40
1.0
  9
$TEXTSTYLE
  7
Standard
  9
$CLAYER
  8
0
  9
$CELTYPE
  6
ByLayer
  9
$CECOLOR
 62
   256
  9
$CELTSCALE
 40
1.0
  9
$DISPSILH
 70
     0
  9
$DIMSCALE
 40
1.0
  9
$DIMASZ
 40
49.53
  9
$DIMEXO
 40
15.0
  9
$DIMDLI
 40
3.75
  9
$DIMRND
 40
0.0
  9
$DIMDLE
 40
0.0
  9
$DIMEXE
 40
15.0
  9
$DIMTP
 40
0.0
  9
$DIMTM
 40
0.0
  9
$DIMTXT
 40
52.5
  9
$DIMCEN
 40
2.5
  9
$DIMTSZ
 40
0.0
  9
$DIMTOL
 70
     0
  9
$DIMLIM
 70
     0
  9
$DIMTIH
 70
     1
  9
$DIMTOH
 70
     1
  9
$DIMSE1
 70
     0
  9
$DIMSE2
 70
     0
  9
$DIMTAD
 70
     1
  9
$DIMZIN
 70
     0
  9
$DIMBLK
  1

  9
$DIMASO
 70
     1
  9
$DIMSHO
 70
     1
  9
$DIMPOST
  1

  9
$DIMAPOST
  1

  9
$DIMALT
 70
     0
  9
$DIMALTD
 70
     3
  9
$DIMALTF
 40
0.0393700787
  9
$DIMLFAC
 40
1.0
  9
$DIMTOFL
 70
     1
  9
$DIMTVP
 40
0.0
  9
$DIMTIX
 70
     0
  9
$DIMSOXD
 70
     0
  9
$DIMSAH
 70
     0
  9
$DIMBLK1
  1

  9
$DIMBLK2
  1

  9
$DIMSTYLE
  2
ISO-25
  9
$DIMCLRD
 70
     0
  9
$DIMCLRE
 70
     0
  9
$DIMCLRT
 70
     0
  9
$DIMTFAC
 40
1.0
  9
$DIMGAP
 40
22.86
  9
$DIMJUST
 70
     0
  9
$DIMSD1
 70
     0
  9
$DIMSD2
 70
     0
  9
$DIMTOLJ
 70
     0
  9
$DIMTZIN
 70
     0
  9
$DIMALTZ
 70
     0
  9
$DIMALTTZ
 70
     0
  9
$DIMUPT
 70
     0
  9
$DIMDEC
 70
     3
  9
$DIMTDEC
 70
     3
  9
$DIMALTU
 70
     2
  9
$DIMALTTD
 70
     3
  9
$DIMTXSTY
  7
Standard
  9
$DIMAUNIT
 70
     0
  9
$DIMADEC
 70
     2
  9
$DIMALTRND
 40
0.0
  9
$DIMAZIN
 70
     0
  9
$DIMDSEP
 70
    44
  9
$DIMATFIT
 70
     3
  9
$DIMFRAC
 70
     0
  9
$DIMLDRBLK
  1

  9
$DIMLUNIT
 70
     2
  9
$DIMLWD
 70
    -2
  9
$DIMLWE
 70
    -2
  9
$DIMTMOVE
 70
     0
  9
$DIMFXL
 40
1.0
  9
$DIMFXLON
 70
     0
  9
$DIMJOGANG
 40
0.7853981633974483
  9
$DIMTFILL
 70
     0
  9
$DIMTFILLCLR
 70
     0
  9
$DIMARCSYM
 70
     0
  9
$DIMLTYPE
  6

  9
$DIMLTEX1
  6

  9
$DIMLTEX2
  6

  9
$LUNITS
 70
     2
  9
$LUPREC
 70
     2
  9
$SKETCHINC
 40
1.0
  9
$FILLETRAD
 40
10.0
  9
$AUNITS
 70
     0
  9
$AUPREC
 70
     2
  9
$MENU
  1
.
  9
$ELEVATION
 40
0.0
  9
$PELEVATION
 40
0.0
  9
$THICKNESS
 40
0.0
  9
$LIMCHECK
 70
     0
  9
$CHAMFERA
 40
10.0
  9
$CHAMFERB
 40
10.0
  9
$CHAMFERC
 40
20.0
  9
$CHAMFERD
 40
0.0
  9
$SKPOLY
 70
     0
  9
$TDCREATE
 40
2453353.800459155
  9
$TDUCREATE
 40
2453353.717125822
  9
$TDUPDATE
 40
2457512.754974039
  9
$TDUUPDATE
 40
2457512.671640706
  9
$TDINDWG
 40
0.0431481597
  9
$TDUSRTIMER
 40
0.0431481597
  9
$USRTIMER
 70
     1
  9
$ANGBASE
 50
0.0
  9
$ANGDIR
 70
     0
  9
$PDMODE
 70
     0
  9
$PDSIZE
 40
-1.0
  9
$PLINEWID
 40
0.0
  9
$SPLFRAME
 70
     0
  9
$SPLINETYPE
 70
     6
  9
$SPLINESEGS
 70
     8
  9
$HANDSEED
  5
2A9
  9
$SURFTAB1
 70
     6
  9
$SURFTAB2
 70
     6
  9
$SURFTYPE
 70
     6
  9
$SURFU
 70
     6
  9
$SURFV
 70
     6
  9
$UCSBASE
  2

  9
$UCSNAME
  2

  9
$UCSORG
 10
0.0
 20
0.0
 30
0.0
  9
$UCSXDIR
 10
1.0
 20
0.0
 30
0.0
  9
$UCSYDIR
 10
0.0
 20
1.0
 30
0.0
  9
$UCSORTHOREF
  2

  9
$UCSORTHOVIEW
 70
     0
  9
$UCSORGTOP
 10
0.0
 20
0.0
 30
0.0
  9
$UCSORGBOTTOM
 10
0.0
 20
0.0
 30
0.0
  9
$UCSORGLEFT
 10
0.0
 20
0.0
 30
0.0
  9
$UCSORGRIGHT
 10
0.0
 20
0.0
 30
0.0
  9
$UCSORGFRONT
 10
0.0
 20
0.0
 30
0.0
  9
$UCSORGBACK
 10
0.0
 20
0.0
 30
0.0
  9
$PUCSBASE
  2

  9
$PUCSNAME
  2

  9
$PUCSORG
 10
0.0
 20
0.0
 30
0.0
  9
$PUCSXDIR
 10
1.0
 20
0.0
 30
0.0
  9
$PUCSYDIR
 10
0.0
 20
1.0
 30
0.0
  9
$PUCSORTHOREF
  2

  9
$PUCSORTHOVIEW
 70
     0
  9
$PUCSORGTOP
 10
0.0
 20
0.0
 30
0.0
  9
$PUCSORGBOTTOM
 10
0.0
 20
0.0
 30
0.0
  9
$PUCSORGLEFT
 10
0.0
 20
0.0
 30
0.0
  9
$PUCSORGRIGHT
 10
0.0
 20
0.0
 30
0.0
  9
$PUCSORGFRONT
 10
0.0
 20
0.0
 30
0.0
  9
$PUCSORGBACK
 10
0.0
 20
0.0
 30
0.0
  9
$USERI1
 70
     0
  9
$USERI2
 70
     0
  9
$USERI3
 70
     0
  9
$USERI4
 70
     0
  9
$USERI5
 70
     0
  9
$USERR1
 40
0.0
  9
$USERR2
 40
0.0
  9
$USERR3
 40
0.0
  9
$USERR4
 40
0.0
  9
$USERR5
 40
0.0
  9
$WORLDVIEW
 70
     1
  9
$SHADEDGE
 70
     3
  9
$SHADEDIF
 70
    70
  9
$TILEMODE
 70
     1
  9
$MAXACTVP
 70
    64
  9
$PINSBASE
 10
0.0
 20
0.0
 30
0.0
  9
$PLIMCHECK
 70
     0
  9
$PEXTMIN
 10
1.000000000000000E+20
 20
1.000000000000000E+20
 30
1.000000000000000E+20
  9
$PEXTMAX
 10
-1.000000000000000E+20
 20
-1.000000000000000E+20
 30
-1.000000000000000E+20
  9
$PLIMMIN
 10
0.0
 20
0.0
  9
$PLIMMAX
 10
420.0
 20
297.0
  9
$UNITMODE
 70
     0
  9
$VISRETAIN
 70
     1
  9
$PLINEGEN
 70
     0
  9
$PSLTSCALE
 70
     1
  9
$TREEDEPTH
 70
  3020
  9
$CMLSTYLE
  2
Standard
  9
$CMLJUST
 70
     0
  9
$CMLSCALE
 40
20.0
  9
$PROXYGRAPHICS
 70
     1
  9
$MEASUREMENT
 70
     1
  9
$CELWEIGHT
370
    -1
  9
$ENDCAPS
280
     0
  9
$JOINSTYLE
280
     0
  9
$LWDISPLAY
290
     1
  9
$INSUNITS
 70
     4
  9
$HYPERLINKBASE
  1

  9
$STYLESHEET
  1

  9
$XEDIT
290
     0
  9
$CEPSNTYPE
380
     0
  9
$PSTYLEMODE
290
     1
  9
$FINGERPRINTGUID
  2
{FE85B011-DB31-4EF0-AB58-59E658F92930}
  9
$VERSIONGUID
  2
{FAEB1C32-E019-11D5-929B-00C0DF256EC4}
  9
$EXTNAMES
290
     1
  9
$PSVPSCALE
 40
0.0
  9
$OLESTARTUP
290
     0
  9
$SORTENTS
280
   127
  9
$INDEXCTL
280
     0
  9
$HIDETEXT
280
     1
  9
$XCLIPFRAME
290
     0
  9
$HALOGAP
280
     0
  9
$OBSCOLOR
 70
   257
  9
$OBSLTYPE
280
     0
  9
$INTERSECTIONDISPLAY
280
     0
  9
$INTERSECTIONCOLOR
 70
   257
  9
$DIMASSOC
280
     2
  9
$PROJECTNAME
  1

  9
$CAMERADISPLAY
290
     0
  9
$LENSLENGTH
 40
50.0
  9
$CAMERAHEIGHT
 40
0.0
  9
$STEPSPERSEC
 40
2.0
  9
$STEPSIZE
 40
6.0
  9
$3DDWFPREC
 40
2.0
  9
$PSOLWIDTH
 40
0.25
  9
$PSOLHEIGHT
 40
4.0
  9
$LOFTANG1
 40
1.570796326794897
  9
$LOFTANG2
 40
1.570796326794897
  9
$LOFTMAG1
 40
0.0
  9
$LOFTMAG2
 40
0.0
  9
$LOFTPARAM
 70
     7
  9
$LOFTNORMALS
280
     1
  9
$LATITUDE
 40
37.795
  9
$LONGITUDE
 40
-122.394
  9
$NORTHDIRECTION
 40
0.0
  9
$TIMEZONE
 70
 -8000
  9
$LIGHTGLYPHDISPLAY
280
     1
  9
$TILEMODELIGHTSYNCH
280
     1
  9
$SOLIDHIST
280
     1
  9
$SHOWHIST
280
     1
  9
$DWFFRAME
280
     2
  9
$DGNFRAME
280
     2
  9
$REALWORLDSCALE
290
     1
  9
$INTERFERECOLOR
 62
   256
  9
$CSHADOW
280
     0
  9
$SHADOWPLANELOCATION
 40
0.0
  0
ENDSEC
  0
SECTION
  2
CLASSES
  0
CLASS
  1
ACDBDICTIONARYWDFLT
  2
AcDbDictionaryWithDefault
  3
ObjectDBX Classes
 90
        0
 91
        4
280
     0
281
     0
  0
CLASS
  1
ACDBPLACEHOLDER
  2
AcDbPlaceHolder
  3
ObjectDBX Classes
 90
        0
 91
        1
280
     0
281
     0
  0
CLASS
  1
LAYOUT
  2
AcDbLayout
  3
ObjectDBX Classes
 90
        0
 91
        1
280
     0
281
     0
  0
CLASS
  1
DICTIONARYVAR
  2
AcDbDictionaryVar
  3
ObjectDBX Classes
 90
        0
 91
        4
280
     0
281
     0
  0
CLASS
  1
TABLESTYLE
  2
AcDbTableStyle
  3
ObjectDBX Classes
 90
     4095
 91
        4
280
     0
281
     0
  0
CLASS
  1
SCALE
  2
AcDbScale
  3
ObjectDBX Classes
 90
     1153
 91
        4
280
     0
281
     0
  0
ENDSEC
  0
SECTION
  2
TABLES
  0
TABLE
  2
VPORT
  5
8
330
0
100
AcDbSymbolTable
 70
     2
  0
VPORT
  5
97
330
8
100
AcDbSymbolTableRecord
100
AcDbViewportTableRecord
  2
*Active
 70
     0
 10
0.0
 20
0.0
 11
1.0
 21
1.0
 12
1377.643344263071
 22
2553.143122534289
 13
0.0
 23
0.0
 14
10.0
 24
10.0
 15
10.0
 25
10.0
 16
0.0
 26
0.0
 36
1.0
 17
0.0
 27
0.0
 37
0.0
 40
3557.841541673965
 41
0.7070707071000001
 42
50.0
 43
0.0
 44
0.0
 50
0.0
 51
0.0
 71
    16
 72
  2000
 73
     1
 74
     3
 75
     0
 76
     0
 77
     0
 78
     0
281
     0
 65
     0
110
0.0
120
0.0
130
0.0
111
1.0
121
0.0
131
0.0
112
0.0
122
1.0
132
0.0
 79
     0
146
0.0
 60
     3
 61
     5
292
     1
282
     1
141
0.0
142
0.0
 63
   256
  0
ENDTAB
  0
TABLE
  2
LTYPE
  5
5
330
0
100
AcDbSymbolTable
 70
     6
  0
LTYPE
  5
14
330
5
100
AcDbSymbolTableRecord
100
AcDbLinetypeTableRecord
  2
ByBlock
 70
     0
  3

 72
    65
 73
     0
 40
0.0
  0
LTYPE
  5
15
330
5
100
AcDbSymbolTableRecord
100
AcDbLinetypeTableRecord
  2
ByLayer
 70
     0
  3

 72
    65
 73
     0
 40
0.0
  0
LTYPE
  5
16
330
5
100
AcDbSymbolTableRecord
100
AcDbLinetypeTableRecord
  2
Continuous
 70
     0
  3
Solid line
 72
    65
 73
     0
 40
0.0
  0
LTYPE
  5
270
330
5
100
AcDbSymbolTableRecord
100
AcDbLinetypeTableRecord
  2
HIDDEN
 70
     0
  3
Hidden __ __ __ __ __ __ __ __ __ __ __ __ __ __
 72
    65
 73
     2
 40
1.905
 49
1.27
 74
     4
 75
     0
340
0
 46
1.0
 50
0.0
 44
0.0
 45
0.0
 49
-0.635
 74
     4
 75
     0
340
0
 46
1.0
 50
0.0
 44
0.0
 45
0.0
  0
LTYPE
  5
271
330
5
100
AcDbSymbolTableRecord
100
AcDbLinetypeTableRecord
  2
PHANTOM
 70
     0
  3
Phantom ______  __  __  ______  __  __  ______
 72
    65
 73
     6
 40
12.7
 49
6.35
 74
     4
 75
     0
340
0
 46
1.0
 50
0.0
 44
0.0
 45
0.0
 49
-1.27
 74
     4
 75
     0
340
0
 46
1.0
 50
0.0
 44
0.0
 45
0.0
 49
1.27
 74
     4
 75
     0
340
0
 46
1.0
 50
0.0
 44
0.0
 45
0.0
 49
-1.27
 74
     4
 75
     0
340
0
 46
1.0
 50
0.0
 44
0.0
 45
0.0
 49
1.27
 74
     4
 75
     0
340
0
 46
1.0
 50
0.0
 44
0.0
 45
0.0
 49
-1.27
 74
     4
 75
     0
340
0
 46
1.0
 50
0.0
 44
0.0
 45
0.0
  0
LTYPE
  5
272
330
5
100
AcDbSymbolTableRecord
100
AcDbLinetypeTableRecord
  2
CENTER
 70
     0
  3
Center ____ _ ____ _ ____ _ ____ _ ____ _ ____
 72
    65
 73
     4
 40
10.16
 49
6.35
 74
     4
 75
     0
340
0
 46
1.0
 50
0.0
 44
0.0
 45
0.0
 49
-1.27
 74
     4
 75
     0
340
0
 46
1.0
 50
0.0
 44
0.0
 45
0.0
 49
1.27
 74
     4
 75
     0
340
0
 46
1.0
 50
0.0
 44
0.0
 45
0.0
 49
-1.27
 74
     4
 75
     0
340
0
 46
1.0
 50
0.0
 44
0.0
 45
0.0
  0
LTYPE
  5
273
330
5
100
AcDbSymbolTableRecord
100
AcDbLinetypeTableRecord
  2
CENTERX2
 70
     0
  3
Center (2x) ________  __  ________  __  _____
 72
    65
 73
     4
 40
20.32
 49
12.7
 74
     4
 75
     0
340
0
 46
1.0
 50
0.0
 44
0.0
 45
0.0
 49
-2.54
 74
     4
 75
     0
340
0
 46
1.0
 50
0.0
 44
0.0
 45
0.0
 49
2.54
 74
     4
 75
     0
340
0
 46
1.0
 50
0.0
 44
0.0
 45
0.0
 49
-2.54
 74
     4
 75
     0
340
0
 46
1.0
 50
0.0
 44
0.0
 45
0.0
  0
LTYPE
  5
274
330
5
100
AcDbSymbolTableRecord
100
AcDbLinetypeTableRecord
  2
DOT2
 70
     0
  3
Dot (.5x) ........................................
 72
    65
 73
     2
 40
0.635
 49
0.0
 74
     4
 75
     0
340
0
 46
1.0
 50
0.0
 44
0.0
 45
0.0
 49
-0.635
 74
     4
 75
     0
340
0
 46
1.0
 50
0.0
 44
0.0
 45
0.0
  0
ENDTAB
  0
TABLE
  2
LAYER
  5
2
330
0
100
AcDbSymbolTable
 70
     1
  0
LAYER
  5
10
330
2
100
AcDbSymbolTableRecord
100
AcDbLayerTableRecord
  2
0
 70
     0
 62
     7
  6
Continuous
370
    -3
390
F
347
0
  0
ENDTAB
  0
TABLE
  2
STYLE
  5
3
330
0
100
AcDbSymbolTable
 70
     4
  0
STYLE
  5
11
330
3
100
AcDbSymbolTableRecord
100
AcDbTextStyleTableRecord
  2
Standard
 70
     0
 40
0.0
 41
1.0
 50
0.0
 71
     0
 42
52.5
  3
txt
  4

  0
STYLE
  5
65
330
3
100
AcDbSymbolTableRecord
100
AcDbTextStyleTableRecord
  2
SLDTEXTSTYLE0
 70
     0
 40
0.0
 41
0.75
 50
0.0
 71
     0
 42
0.2
  3
TXT
  4

  0
STYLE
  5
69
330
3
100
AcDbSymbolTableRecord
100
AcDbTextStyleTableRecord
  2
SLDTEXTSTYLE1
 70
     0
 40
0.0
 41
0.6944444444
 50
0.0
 71
     0
 42
0.2
  3
TXT
  4

  0
STYLE
  5
78
330
3
100
AcDbSymbolTableRecord
100
AcDbTextStyleTableRecord
  2
SLDTEXTSTYLE2
 70
     0
 40
0.0
 41
0.605
 50
0.0
 71
     0
 42
0.2
  3
TXT
  4

  0
ENDTAB
  0
TABLE
  2
VIEW
  5
6
330
0
100
AcDbSymbolTable
 70
     0
  0
ENDTAB
  0
TABLE
  2
UCS
  5
7
330
0
100
AcDbSymbolTable
 70
     0
  0
ENDTAB
  0
TABLE
  2
APPID
  5
9
330
0
100
AcDbSymbolTable
 70
     1
  0
APPID
  5
12
330
9
100
AcDbSymbolTableRecord
100
AcDbRegAppTableRecord
  2
ACAD
 70
     0
  0
ENDTAB
  0
TABLE
  2
DIMSTYLE
  5
A
330
0
100
AcDbSymbolTable
 70
     4
100
AcDbDimStyleTable
  0
DIMSTYLE
105
27
330
A
100
AcDbSymbolTableRecord
100
AcDbDimStyleTableRecord
  2
Standard
 70
     0
278
     0
340
11
  0
DIMSTYLE
105
275
330
A
100
AcDbSymbolTableRecord
100
AcDbDimStyleTableRecord
  2
ISO-25
 70
     0
 41
2.5
 42
0.625
 43
3.75
 44
1.25
 73
     0
 74
     0
 77
     1
 78
     8
140
2.5
141
2.5
143
0.0393700787
147
0.625
171
     3
172
     1
271
     2
272
     2
274
     3
278
    44
283
     0
284
     8
340
11
  0
DIMSTYLE
105
217
102
{ACAD_REACTORS
330
216
330
224
330
23C
102
}
330
A
100
AcDbSymbolTableRecord
100
AcDbDimStyleTableRecord
  2
SLDDIMSTYLE0
 70
     0
 41
49.53
 44
0.0
 45
0.000000001
 73
     0
 74
     0
 77
     1
 78
    12
 79
     3
140
52.5
147
13.125
172
     1
173
     1
271
     3
272
     3
276
     2
284
    12
289
     0
340
65
  0
DIMSTYLE
105
232
102
{ACAD_REACTORS
330
231
102
}
330
A
100
AcDbSymbolTableRecord
100
AcDbDimStyleTableRecord
  2
SLDDIMSTYLE1
 70
     0
 41
49.53
 44
0.0
 45
0.000000001
 73
     0
 74
     0
 77
     1
 78
    12
 79
     3
140
52.5
147
13.125
173
     1
271
     0
272
     0
276
     2
284
    12
340
65
  0
ENDTAB
  0
TABLE
  2
BLOCK_RECORD
  5
1
330
0
100
AcDbSymbolTable
 70
     5
  0
BLOCK_RECORD
  5
1F
102
{ACAD_XDICTIONARY
360
2A6
102
}
330
1
100
AcDbSymbolTableRecord
100
AcDbBlockTableRecord
  2
*Model_Space
340
22
 70
     0
280
     1
281
     0
  0
BLOCK_RECORD
  5
73
330
1
100
AcDbSymbolTableRecord
100
AcDbBlockTableRecord
  2
*Paper_Space
340
74
 70
     0
280
     1
281
     0
  0
BLOCK_RECORD
  5
23
330
1
100
AcDbSymbolTableRecord
100
AcDbBlockTableRecord
  2
*Paper_Space0
340
26
 70
     0
280
     1
281
     0
  0
BLOCK_RECORD
  5
218
330
1
100
AcDbSymbolTableRecord
100
AcDbBlockTableRecord
  2
_D
340
0
 70
     0
280
     1
281
     0
  0
BLOCK_RECORD
  5
225
330
1
100
AcDbSymbolTableRecord
100
AcDbBlockTableRecord
  2
_D_1
340
0
 70
     0
280
     1
281
     0
  0
BLOCK_RECORD
  5
233
330
1
100
AcDbSymbolTableRecord
100
AcDbBlockTableRecord
  2
_D_2
340
0
 70
     0
280
     1
281
     0
  0
BLOCK_RECORD
  5
23D
330
1
100
AcDbSymbolTableRecord
100
AcDbBlockTableRecord
  2
_D_3
340
0
 70
     0
280
     1
281
     0
  0
ENDTAB
  0
ENDSEC
  0
SECTION
  2
BLOCKS
  0
BLOCK
  5
20
330
1F
100
AcDbEntity
  8
0
100
AcDbBlockBegin
  2
*Model_Space
 70
     0
 10
0.0
 20
0.0
 30
0.0
  3
*Model_Space
  1

  0
ENDBLK
  5
21
330
1F
100
AcDbEntity
  8
0
100
AcDbBlockEnd
  0
BLOCK
  5
75
330
73
100
AcDbEntity
 67
     1
  8
0
100
AcDbBlockBegin
  2
*Paper_Space
 70
     0
 10
0.0
 20
0.0
 30
0.0
  3
*Paper_Space
  1

  0
ENDBLK
  5
76
330
73
100
AcDbEntity
 67
     1
  8
0
100
AcDbBlockEnd
  0
BLOCK
  5
276
330
23
100
AcDbEntity
  8
0
100
AcDbBlockBegin
  2
*Paper_Space0
 70
     0
 10
0.0
 20
0.0
 30
0.0
  3
*Paper_Space0
  1

  0
ENDBLK
  5
277
330
23
100
AcDbEntity
  8
0
100
AcDbBlockEnd
  0
BLOCK
  5
278
330
218
100
AcDbEntity
  8
0
100
AcDbBlockBegin
  2
_D
 70
     0
 10
0.0
 20
0.0
 30
0.0
  3
_D
  1

  0
SOLID
  5
21B
330
218
100
AcDbEntity
  8
0
  6
Continuous
 62
     7
370
     0
100
AcDbTrace
 10
1542.9772532042
 20
1109.5810144891
 30
0.0
 11
1493.4472532042
 21
1117.2010144891
 31
0.0
 12
1493.4472532042
 22
1101.9610144891
 32
0.0
 13
1493.4472532042
 23
1101.9610144891
 33
0.0
  0
SOLID
  5
21C
330
218
100
AcDbEntity
  8
0
  6
Continuous
 62
     7
370
     0
100
AcDbTrace
 10
1792.9769557264
 20
1109.5810144891
 30
0.0
 11
1842.5069557264
 21
1101.9610144891
 31
0.0
 12
1842.5069557264
 22
1117.2010144891
 32
0.0
 13
1842.5069557264
 23
1117.2010144891
 33
0.0
  0
LINE
  5
21D
330
218
100
AcDbEntity
  8
0
  6
Continuous
 62
     7
370
     0
100
AcDbLine
 10
1542.9772532042
 20
1253.5810144891
 30
0.0
 11
1542.9772532042
 21
1094.5810144891
 31
0.0
  0
LINE
  5
21E
330
218
100
AcDbEntity
  8
0
  6
Continuous
 62
     7
370
     0
100
AcDbLine
 10
1792.9769557264
 20
1253.5810144891
 30
0.0
 11
1792.9769557264
 21
1094.5810144891
 31
0.0
  0
LINE
  5
21F
330
218
100
AcDbEntity
  8
0
  6
Continuous
 62
     7
370
     0
100
AcDbLine
 10
1542.9772532042
 20
1109.5810144891
 30
0.0
 11
1447.7272532042
 21
1109.5810144891
 31
0.0
  0
LINE
  5
220
330
218
100
AcDbEntity
  8
0
  6
Continuous
 62
     7
370
     0
100
AcDbLine
 10
1542.9772532042
 20
1109.5810144891
 30
0.0
 11
1792.9769557264
 21
1109.5810144891
 31
0.0
  0
LINE
  5
221
330
218
100
AcDbEntity
  8
0
  6
Continuous
 62
     7
370
     0
100
AcDbLine
 10
1792.9769557264
 20
1109.5810144891
 30
0.0
 11
1888.2269557264
 21
1109.5810144891
 31
0.0
  0
MTEXT
  5
222
330
218
100
AcDbEntity
  8
0
  6
Continuous
 62
     7
370
     0
100
AcDbMText
 10
1552.6635576805
 20
1177.2570708272
 30
0.0999999997
 40
52.5
 41
0.0
 46
0.0
 71
     1
 72
     1
  1
%%c
  7
SLDTEXTSTYLE0
 73
     1
 44
1.0
  0
MTEXT
  5
223
330
218
100
AcDbEntity
  8
0
  6
Continuous
 62
     7
370
     0
100
AcDbMText
 10
1631.8401186561
 20
1178.0591534771
 30
0.0999999997
 40
52.5
 41
0.0
 46
0.0
 71
     1
 72
     1
  1
250
  7
SLDTEXTSTYLE0
 73
     1
 44
1.0
  0
ENDBLK
  5
279
330
218
100
AcDbEntity
  8
0
100
AcDbBlockEnd
  0
BLOCK
  5
27A
330
225
100
AcDbEntity
  8
0
100
AcDbBlockBegin
  2
_D_1
 70
     0
 10
0.0
 20
0.0
 30
0.0
  3
_D_1
  1

  0
SOLID
  5
228
330
225
100
AcDbEntity
  8
0
  6
Continuous
 62
     7
370
     0
100
AcDbTrace
 10
1492.9769557264
 20
940.7774576677
 30
0.0
 11
1443.4469557264
 21
948.3974576677
 31
0.0
 12
1443.4469557264
 22
933.1574576677
 32
0.0
 13
1443.4469557264
 23
933.1574576677
 33
0.0
  0
SOLID
  5
229
330
225
100
AcDbEntity
  8
0
  6
Continuous
 62
     7
370
     0
100
AcDbTrace
 10
1842.9769557264
 20
940.7774576677
 30
0.0
 11
1892.5069557264
 21
933.1574576677
 31
0.0
 12
1892.5069557264
 22
948.3974576677
 32
0.0
 13
1892.5069557264
 23
948.3974576677
 33
0.0
  0
LINE
  5
22A
330
225
100
AcDbEntity
  8
0
  6
Continuous
 62
     7
370
     0
100
AcDbLine
 10
1492.9769557264
 20
1521.5810144891
 30
0.0
 11
1492.9769557264
 21
925.7774576677
 31
0.0
  0
LINE
  5
22B
330
225
100
AcDbEntity
  8
0
  6
Continuous
 62
     7
370
     0
100
AcDbLine
 10
1842.9769557264
 20
1521.5810144891
 30
0.0
 11
1842.9769557264
 21
925.7774576677
 31
0.0
  0
LINE
  5
22C
330
225
100
AcDbEntity
  8
0
  6
Continuous
 62
     7
370
     0
100
AcDbLine
 10
1492.9769557264
 20
940.7774576677
 30
0.0
 11
1397.7269557264
 21
940.7774576677
 31
0.0
  0
LINE
  5
22D
330
225
100
AcDbEntity
  8
0
  6
Continuous
 62
     7
370
     0
100
AcDbLine
 10
1492.9769557264
 20
940.7774576677
 30
0.0
 11
1842.9769557264
 21
940.7774576677
 31
0.0
  0
LINE
  5
22E
330
225
100
AcDbEntity
  8
0
  6
Continuous
 62
     7
370
     0
100
AcDbLine
 10
1842.9769557264
 20
940.7774576677
 30
0.0
 11
1938.2269557264
 21
940.7774576677
 31
0.0
  0
MTEXT
  5
22F
330
225
100
AcDbEntity
  8
0
  6
Continuous
 62
     7
370
     0
100
AcDbMText
 10
1552.6635576805
 20
1008.4535140057
 30
0.0999999997
 40
52.5
 41
0.0
 46
0.0
 71
     1
 72
     1
  1
%%c
  7
SLDTEXTSTYLE0
 73
     1
 44
1.0
  0
MTEXT
  5
230
330
225
100
AcDbEntity
  8
0
  6
Continuous
 62
     7
370
     0
100
AcDbMText
 10
1631.8401186561
 20
1009.2555966556
 30
0.0999999997
 40
52.5
 41
0.0
 46
0.0
 71
     1
 72
     1
  1
350
  7
SLDTEXTSTYLE0
 73
     1
 44
1.0
  0
ENDBLK
  5
27B
330
225
100
AcDbEntity
  8
0
100
AcDbBlockEnd
  0
BLOCK
  5
27C
330
233
100
AcDbEntity
  8
0
100
AcDbBlockBegin
  2
_D_2
 70
     0
 10
0.0
 20
0.0
 30
0.0
  3
_D_2
  1

  0
SOLID
  5
236
330
233
100
AcDbEntity
  8
0
  6
Continuous
 62
     7
370
     0
100
AcDbTrace
 10
1980.6021865298
 20
1538.5810144891
 30
0.0
 11
1988.2221865298
 21
1588.1110144891
 31
0.0
 12
1972.9821865298
 22
1588.1110144891
 32
0.0
 13
1972.9821865298
 23
1588.1110144891
 33
0.0
  0
SOLID
  5
237
330
233
100
AcDbEntity
  8
0
  6
Continuous
 62
     7
370
     0
100
AcDbTrace
 10
1980.6021865298
 20
3988.5810144891
 30
0.0
 11
1972.9821865298
 21
3939.0510144891
 31
0.0
 12
1988.2221865298
 22
3939.0510144891
 32
0.0
 13
1988.2221865298
 23
3939.0510144891
 33
0.0
  0
LINE
  5
238
330
233
100
AcDbEntity
  8
0
  6
Continuous
 62
     7
370
     0
100
AcDbLine
 10
1835.8971546817
 20
1538.5810144891
 30
0.0
 11
1995.6021865298
 21
1538.5810144891
 31
0.0
  0
LINE
  5
239
330
233
100
AcDbEntity
  8
0
  6
Continuous
 62
     7
370
     0
100
AcDbLine
 10
1712.9769557264
 20
3988.5810144891
 30
0.0
 11
1995.6021865298
 21
3988.5810144891
 31
0.0
  0
LINE
  5
23A
330
233
100
AcDbEntity
  8
0
  6
Continuous
 62
     7
370
     0
100
AcDbLine
 10
1980.6021865298
 20
1538.5810144891
 30
0.0
 11
1980.6021865298
 21
3988.5810144891
 31
0.0
  0
MTEXT
  5
23B
330
233
100
AcDbEntity
  8
0
  6
Continuous
 62
     7
370
     0
100
AcDbMText
 10
1912.9261328111
 20
2348.8550679826
 30
0.0999999997
 40
52.5
 41
0.0
 46
0.0
 71
     1
 72
     1
  1
2450
  7
SLDTEXTSTYLE0
 11
-7.044195017643634E-15
 21
1.0
 31
0.0
 73
     1
 44
1.0
  0
ENDBLK
  5
27D
330
233
100
AcDbEntity
  8
0
100
AcDbBlockEnd
  0
BLOCK
  5
27E
330
23D
100
AcDbEntity
  8
0
100
AcDbBlockBegin
  2
_D_3
 70
     0
 10
0.0
 20
0.0
 30
0.0
  3
_D_3
  1

  0
SOLID
  5
240
330
23D
100
AcDbEntity
  8
0
  6
Continuous
 62
     7
370
     0
100
AcDbTrace
 10
1980.4472884536
 20
1268.5810144891
 30
0.0
 11
1972.8272884536
 21
1219.0510144891
 31
0.0
 12
1988.0672884536
 22
1219.0510144891
 32
0.0
 13
1988.0672884536
 23
1219.0510144891
 33
0.0
  0
SOLID
  5
241
330
23D
100
AcDbEntity
  8
0
  6
Continuous
 62
     7
370
     0
100
AcDbTrace
 10
1980.4472884536
 20
1538.5810144891
 30
0.0
 11
1988.0672884536
 21
1588.1110144891
 31
0.0
 12
1972.8272884536
 22
1588.1110144891
 32
0.0
 13
1972.8272884536
 23
1588.1110144891
 33
0.0
  0
LINE
  5
242
330
23D
100
AcDbEntity
  8
0
  6
Continuous
 62
     7
370
     0
100
AcDbLine
 10
1807.9769557264
 20
1268.5810144891
 30
0.0
 11
1995.4472884536
 21
1268.5810144891
 31
0.0
  0
LINE
  5
243
330
23D
100
AcDbEntity
  8
0
  6
Continuous
 62
     7
370
     0
100
AcDbLine
 10
1857.9769557264
 20
1538.5810144891
 30
0.0
 11
1995.4472884536
 21
1538.5810144891
 31
0.0
  0
LINE
  5
244
330
23D
100
AcDbEntity
  8
0
  6
Continuous
 62
     7
370
     0
100
AcDbLine
 10
1980.4472884536
 20
1268.5810144891
 30
0.0
 11
1980.4472884536
 21
1173.3310144891
 31
0.0
  0
LINE
  5
245
330
23D
100
AcDbEntity
  8
0
  6
Continuous
 62
     7
370
     0
100
AcDbLine
 10
1980.4472884536
 20
1268.5810144891
 30
0.0
 11
1980.4472884536
 21
1538.5810144891
 31
0.0
  0
LINE
  5
246
330
23D
100
AcDbEntity
  8
0
  6
Continuous
 62
     7
370
     0
100
AcDbLine
 10
1980.4472884536
 20
1538.5810144891
 30
0.0
 11
1980.4472884536
 21
1633.8310144891
 31
0.0
  0
MTEXT
  5
247
330
23D
100
AcDbEntity
  8
0
  6
Continuous
 62
     7
370
     0
100
AcDbMText
 10
1912.7712347349
 20
1340.9463830137
 30
0.0999999997
 40
52.5
 41
0.0
 46
0.0
 71
     1
 72
     1
  1
270
  7
SLDTEXTSTYLE0
 11
-7.044195017643634E-15
 21
1.0
 31
0.0
 73
     1
 44
1.0
  0
ENDBLK
  5
27F
330
23D
100
AcDbEntity
  8
0
100
AcDbBlockEnd
  0
ENDSEC
  0
SECTION
  2
ENTITIES
  0
LINE
  5
80
330
1F
100
AcDbEntity
  8
0
  6
Continuous
 62
     7
370
    15
100
AcDbLine
 10
1832.5085740831
 20
2711.6963613977
 30
0.0
 11
1704.9769562032
 21
2909.0809572687
 31
0.0
  0
LINE
  5
81
330
1F
100
AcDbEntity
  8
0
  6
Continuous
 62
     7
370
    15
100
AcDbLine
 10
1630.9769552495
 20
2909.0809572687
 30
0.0
 11
1503.4453373697
 21
2711.6963613977
 31
0.0
  0
LINE
  5
82
330
1F
100
AcDbEntity
  8
0
  6
Continuous
 62
     7
370
    15
100
AcDbLine
 10
1503.4453373697
 20
2711.6963613977
 30
0.0
 11
1523.6413281705
 21
2698.6475933542
 31
0.0
  0
LINE
  5
83
330
1F
100
AcDbEntity
  8
0
  6
Continuous
 62
     7
370
    15
100
AcDbLine
 10
1812.3125832822
 20
2698.6475933542
 30
0.0
 11
1832.5085740831
 21
2711.6963613977
 31
0.0
  0
LINE
  5
84
330
1F
100
AcDbEntity
  8
0
  6
Continuous
 62
     7
370
    15
100
AcDbLine
 10
1508.7717276361
 20
3496.8069542398
 30
0.0
 11
1630.9769552495
 21
3296.081041192
 31
0.0
  0
LINE
  5
85
330
1F
100
AcDbEntity
  8
0
  6
Continuous
 62
     7
370
    15
100
AcDbLine
 10
1704.9769562032
 20
3296.081041192
 30
0.0
 11
1827.1821838167
 21
3496.8069542398
 31
0.0
  0
LINE
  5
86
330
1F
100
AcDbEntity
  8
0
  6
Continuous
 62
     7
370
    15
100
AcDbLine
 10
1827.1821838167
 20
3496.8069542398
 30
0.0
 11
1807.5366568115
 21
3508.767460679
 31
0.0
  0
LINE
  5
87
330
1F
100
AcDbEntity
  8
0
  6
Continuous
 62
     7
370
    15
100
AcDbLine
 10
1528.4172546413
 20
3508.767460679
 30
0.0
 11
1508.7717276361
 21
3496.8069542398
 31
0.0
  0
LINE
  5
88
330
1F
100
AcDbEntity
  8
0
  6
Continuous
 62
     7
370
    15
100
AcDbLine
 10
1511.2477790859
 20
2146.2936151971
 30
0.0
 11
1630.9769552495
 21
1944.081013297
 31
0.0
  0
LINE
  5
89
330
1F
100
AcDbEntity
  8
0
  6
Continuous
 62
     7
370
    15
100
AcDbLine
 10
1704.9769562032
 20
1944.081013297
 30
0.0
 11
1824.7061323669
 21
2146.2936151971
 31
0.0
  0
LINE
  5
8A
330
1F
100
AcDbEntity
  8
0
  6
Continuous
 62
     7
370
    15
100
AcDbLine
 10
1824.7061323669
 20
2146.2936151971
 30
0.0
 11
1804.9151104238
 21
2158.0117691507
 31
0.0
  0
LINE
  5
8B
330
1F
100
AcDbEntity
  8
0
  6
Continuous
 62
     7
370
    15
100
AcDbLine
 10
1531.038801029
 20
2158.0117691507
 30
0.0
 11
1511.2477790859
 21
2146.2936151971
 31
0.0
  0
LINE
  5
8C
330
1F
100
AcDbEntity
  8
0
  6
Continuous
 62
     7
370
    15
100
AcDbLine
 10
1822.1680473831
 20
2174.9297131052
 30
0.0
 11
1704.9769562032
 21
2298.0810154428
 31
0.0
  0
LINE
  5
8D
330
1F
100
AcDbEntity
  8
0
  6
Continuous
 62
     7
370
    15
100
AcDbLine
 10
1630.9769552495
 20
2298.0810154428
 30
0.0
 11
1513.7858640697
 21
2174.9297131052
 31
0.0
  0
LINE
  5
8E
330
1F
100
AcDbEntity
  8
0
  6
Continuous
 62
     7
370
    15
100
AcDbLine
 10
1513.7858640697
 20
2174.9297131052
 30
0.0
 11
1531.038801029
 21
2158.5117329111
 31
0.0
  0
LINE
  5
8F
330
1F
100
AcDbEntity
  8
0
  6
Continuous
 62
     7
370
    15
100
AcDbLine
 10
1804.9151104238
 20
2158.5117329111
 30
0.0
 11
1822.1680473831
 21
2174.9297131052
 31
0.0
  0
LINE
  5
90
330
1F
100
AcDbEntity
  8
0
  6
Continuous
 62
     7
370
    15
100
AcDbLine
 10
1515.0421660688
 20
2676.8156040658
 30
0.0
 11
1630.9769552495
 21
2630.0810326089
 31
0.0
  0
LINE
  5
91
330
1F
100
AcDbEntity
  8
0
  6
Continuous
 62
     7
370
    15
100
AcDbLine
 10
1704.9769562032
 20
2630.0810326089
 30
0.0
 11
1820.911745384
 21
2676.8156040658
 31
0.0
  0
LINE
  5
280
330
1F
100
AcDbEntity
  8
0
  6
Continuous
 62
     7
370
    15
100
AcDbLine
 10
1820.911745384
 20
2676.8156040658
 30
0.0
 11
1812.3125832822
 21
2698.1476295938
 31
0.0
  0
LINE
  5
281
330
1F
100
AcDbEntity
  8
0
  6
Continuous
 62
     7
370
    15
100
AcDbLine
 10
1523.6413281705
 20
2698.1476295938
 30
0.0
 11
1515.0421660688
 21
2676.8156040658
 31
0.0
  0
LINE
  5
94
330
1F
100
AcDbEntity
  8
0
  6
Continuous
 62
     7
370
    15
100
AcDbLine
 10
1818.2463895824
 20
3532.2129477014
 30
0.0
 11
1704.9769562032
 21
3585.0810755243
 31
0.0
  0
LINE
  5
95
330
1F
100
AcDbEntity
  8
0
  6
Continuous
 62
     7
370
    15
100
AcDbLine
 10
1630.9769552495
 20
3585.0810755243
 30
0.0
 11
1517.7075218704
 21
3532.2129477014
 31
0.0
  0
LINE
  5
96
330
1F
100
AcDbEntity
  8
0
  6
Continuous
 62
     7
370
    15
100
AcDbLine
 10
1517.7075218704
 20
3532.2129477014
 30
0.0
 11
1528.4172546413
 21
3509.2674244394
 31
0.0
  0
LINE
  5
282
330
1F
100
AcDbEntity
  8
0
  6
Continuous
 62
     7
370
    15
100
AcDbLine
 10
1807.5366568115
 20
3509.2674244394
 30
0.0
 11
1818.2463895824
 21
3532.2129477014
 31
0.0
  0
LINE
  5
283
330
1F
100
AcDbEntity
  8
0
  6
Continuous
 62
     7
370
    15
100
AcDbLine
 10
1812.3125832822
 20
2698.1476295938
 30
0.0
 11
1812.3125832822
 21
2698.6475933542
 31
0.0
  0
LINE
  5
284
330
1F
100
AcDbEntity
  8
0
  6
Continuous
 62
     7
370
    15
100
AcDbLine
 10
1523.6413281705
 20
2698.6475933542
 30
0.0
 11
1523.6413281705
 21
2698.1476295938
 31
0.0
  0
LINE
  5
285
330
1F
100
AcDbEntity
  8
0
  6
Continuous
 62
     7
370
    15
100
AcDbLine
 10
1807.5366568115
 20
3508.767460679
 30
0.0
 11
1807.5366568115
 21
3509.2674244394
 31
0.0
  0
LINE
  5
286
330
1F
100
AcDbEntity
  8
0
  6
Continuous
 62
     7
370
    15
100
AcDbLine
 10
1528.4172546413
 20
3509.2674244394
 30
0.0
 11
1528.4172546413
 21
3508.767460679
 31
0.0
  0
LINE
  5
287
330
1F
100
AcDbEntity
  8
0
  6
Continuous
 62
     7
370
    15
100
AcDbLine
 10
1804.9151104238
 20
2158.0117691507
 30
0.0
 11
1804.9151104238
 21
2158.5117329111
 31
0.0
  0
LINE
  5
288
330
1F
100
AcDbEntity
  8
0
  6
Continuous
 62
     7
370
    15
100
AcDbLine
 10
1531.038801029
 20
2158.5117329111
 30
0.0
 11
1531.038801029
 21
2158.0117691507
 31
0.0
  0
LINE
  5
289
330
1F
100
AcDbEntity
  8
0
  6
Continuous
 62
     7
370
    15
100
AcDbLine
 10
1533.6449098136
 20
2451.702152585
 30
0.0
 11
1553.1612213995
 21
2438.0733717432
 31
0.0
  0
LINE
  5
28A
330
1F
100
AcDbEntity
  8
0
  6
Continuous
 62
     7
370
    15
100
AcDbLine
 10
1782.7926900532
 20
2438.0733717432
 30
0.0
 11
1802.3090016391
 21
2451.702152585
 31
0.0
  0
LINE
  5
28B
330
1F
100
AcDbEntity
  8
0
  6
Continuous
 62
     7
370
    15
100
AcDbLine
 10
1802.3090016391
 20
2451.702152585
 30
0.0
 11
1704.9769562032
 21
2591.0809982767
 31
0.0
  0
LINE
  5
28C
330
1F
100
AcDbEntity
  8
0
  6
Continuous
 62
     7
370
    15
100
AcDbLine
 10
1630.9769552495
 20
2591.0809982767
 30
0.0
 11
1533.6449098136
 21
2451.702152585
 31
0.0
  0
LINE
  5
28D
330
1F
100
AcDbEntity
  8
0
  6
Continuous
 62
     7
370
    15
100
AcDbLine
 10
1534.5361184623
 20
3736.7818106164
 30
0.0
 11
1555.9268843677
 21
3727.1554220666
 31
0.0
  0
LINE
  5
28E
330
1F
100
AcDbEntity
  8
0
  6
Continuous
 62
     7
370
    15
100
AcDbLine
 10
1780.0270270851
 20
3727.1554220666
 30
0.0
 11
1801.4177929904
 21
3736.7818106164
 31
0.0
  0
LINE
  5
28F
330
1F
100
AcDbEntity
  8
0
  6
Continuous
 62
     7
370
    15
100
AcDbLine
 10
1801.4177929904
 20
3736.7818106164
 30
0.0
 11
1704.9769562032
 21
3951.0810125818
 31
0.0
  0
LINE
  5
290
330
1F
100
AcDbEntity
  8
0
  6
Continuous
 62
     7
370
    15
100
AcDbLine
 10
1630.9769552495
 20
3951.0810125818
 30
0.0
 11
1534.5361184623
 21
3736.7818106164
 31
0.0
  0
LINE
  5
291
330
1F
100
AcDbEntity
  8
0
  6
Continuous
 62
     7
370
    15
100
AcDbLine
 10
1536.2469654825
 20
3115.9207571496
 30
0.0
 11
1555.81616874
 21
3102.7881849756
 31
0.0
  0
LINE
  5
292
330
1F
100
AcDbEntity
  8
0
  6
Continuous
 62
     7
370
    15
100
AcDbLine
 10
1780.1377427127
 20
3102.7881849756
 30
0.0
 11
1799.7069459703
 21
3115.9207571496
 31
0.0
  0
LINE
  5
293
330
1F
100
AcDbEntity
  8
0
  6
Continuous
 62
     7
370
    15
100
AcDbLine
 10
1799.7069459703
 20
3115.9207571496
 30
0.0
 11
1704.9769562032
 21
3257.0810068597
 31
0.0
  0
LINE
  5
294
330
1F
100
AcDbEntity
  8
0
  6
Continuous
 62
     7
370
    15
100
AcDbLine
 10
1630.9769552495
 20
3257.0810068597
 30
0.0
 11
1536.2469654825
 21
3115.9207571496
 31
0.0
  0
LINE
  5
295
330
1F
100
AcDbEntity
  8
0
  6
Continuous
 62
     7
370
    15
100
AcDbLine
 10
1799.7069459703
 20
1763.9207143535
 30
0.0
 11
1704.9769562032
 21
1905.0810087671
 31
0.0
  0
LINE
  5
296
330
1F
100
AcDbEntity
  8
0
  6
Continuous
 62
     7
370
    15
100
AcDbLine
 10
1630.9769552495
 20
1905.0810087671
 30
0.0
 11
1536.2469654825
 21
1763.9207143535
 31
0.0
  0
LINE
  5
297
330
1F
100
AcDbEntity
  8
0
  6
Continuous
 62
     7
370
    15
100
AcDbLine
 10
1536.2469654825
 20
1763.9207143535
 30
0.0
 11
1555.81616874
 21
1750.7882017841
 31
0.0
  0
LINE
  5
298
330
1F
100
AcDbEntity
  8
0
  6
Continuous
 62
     7
370
    15
100
AcDbLine
 10
1780.1377427127
 20
1750.7882017841
 30
0.0
 11
1799.7069459703
 21
1763.9207143535
 31
0.0
  0
LINE
  5
299
330
1F
100
AcDbEntity
  8
0
  6
Continuous
 62
     7
370
    15
100
AcDbLine
 10
1799.2749911096
 20
3089.5302046289
 30
0.0
 11
1780.1377427127
 21
3102.2882212152
 31
0.0
  0
LINE
  5
29A
330
1F
100
AcDbEntity
  8
0
  6
Continuous
 62
     7
370
    15
100
AcDbLine
 10
1555.81616874
 20
3102.2882212152
 30
0.0
 11
1536.6789203431
 21
3089.5302046289
 31
0.0
  0
LINE
  5
29B
330
1F
100
AcDbEntity
  8
0
  6
Continuous
 62
     7
370
    15
100
AcDbLine
 10
1536.6789203431
 20
3089.5302046289
 30
0.0
 11
1630.9769552495
 21
2948.0809916009
 31
0.0
  0
LINE
  5
29C
330
1F
100
AcDbEntity
  8
0
  6
Continuous
 62
     7
370
    15
100
AcDbLine
 10
1704.9769562032
 20
2948.0809916009
 30
0.0
 11
1799.2749911096
 21
3089.5302046289
 31
0.0
  0
LINE
  5
29D
330
1F
100
AcDbEntity
  8
0
  6
Continuous
 62
     7
370
    15
100
AcDbLine
 10
1536.6789203431
 20
1737.5302363386
 30
0.0
 11
1630.9769552495
 21
1596.08101586
 31
0.0
  0
LINE
  5
29E
330
1F
100
AcDbEntity
  8
0
  6
Continuous
 62
     7
370
    15
100
AcDbLine
 10
1704.9769562032
 20
1596.08101586
 30
0.0
 11
1799.2749911096
 21
1737.5302363386
 31
0.0
  0
LINE
  5
29F
330
1F
100
AcDbEntity
  8
0
  6
Continuous
 62
     7
370
    15
100
AcDbLine
 10
1799.2749911096
 20
1737.5302363386
 30
0.0
 11
1780.1377427127
 21
1750.2881933202
 31
0.0
  0
LINE
  5
2A0
330
1F
100
AcDbEntity
  8
0
  6
Continuous
 62
     7
370
    15
100
AcDbLine
 10
1555.81616874
 20
1750.2881933202
 30
0.0
 11
1536.6789203431
 21
1737.5302363386
 31
0.0
  0
LINE
  5
2A1
330
1F
100
AcDbEntity
  8
0
  6
Continuous
 62
     7
370
    15
100
AcDbLine
 10
1798.1295090463
 20
2420.4333175172
 30
0.0
 11
1782.7926900532
 21
2437.5733483781
 31
0.0
  0
LINE
  5
2A2
330
1F
100
AcDbEntity
  8
0
  6
Continuous
 62
     7
370
    15
100
AcDbLine
 10
1553.1612213995
 20
2437.5733483781
 30
0.0
 11
1537.8244024064
 21
2420.4333175172
 31
0.0
  0
LINE
  5
2A3
330
1F
100
AcDbEntity
  8
0
  6
Continuous
 62
     7
370
    15
100
AcDbLine
 10
1537.8244024064
 20
2420.4333175172
 30
0.0
 11
1630.9769552495
 21
2337.0809901704
 31
0.0
  0
LINE
  5
2A4
330
1F
100
AcDbEntity
  8
0
  6
Continuous
 62
     7
370
    15
100
AcDbLine
 10
1704.9769562032
 20
2337.0809901704
 30
0.0
 11
1798.1295090463
 21
2420.4333175172
 31
0.0
  0
LINE
  5
2A5
330
1F
100
AcDbEntity
  8
0
  6
Continuous
 62
     7
370
    15
100
AcDbLine
 10
1795.8249550607
 20
3709.9392164697
 30
0.0
 11
1780.0270270851
 21
3726.6552198877
 31
0.0
  0
LINE
  5
BB
330
1F
100
AcDbEntity
  8
0
  6
Continuous
 62
     7
370
    15
100
AcDbLine
 10
1555.9268843677
 20
3726.6552198877
 30
0.0
 11
1540.128956392
 21
3709.9392164697
 31
0.0
  0
LINE
  5
BC
330
1F
100
AcDbEntity
  8
0
  6
Continuous
 62
     7
370
    15
100
AcDbLine
 10
1540.128956392
 20
3709.9392164697
 30
0.0
 11
1630.9769552495
 21
3624.0811098566
 31
0.0
  0
LINE
  5
BD
330
1F
100
AcDbEntity
  8
0
  6
Continuous
 62
     7
370
    15
100
AcDbLine
 10
1704.9769562032
 20
3624.0811098566
 30
0.0
 11
1795.8249550607
 21
3709.9392164697
 31
0.0
  0
LINE
  5
BE
330
1F
100
AcDbEntity
  8
0
  6
Continuous
 62
     7
370
    15
100
AcDbLine
 10
1782.7926900532
 20
2437.5733483781
 30
0.0
 11
1782.7926900532
 21
2438.0733717432
 31
0.0
  0
LINE
  5
BF
330
1F
100
AcDbEntity
  8
0
  6
Continuous
 62
     7
370
    15
100
AcDbLine
 10
1553.1612213995
 20
2438.0733717432
 30
0.0
 11
1553.1612213995
 21
2437.5733483781
 31
0.0
  0
LINE
  5
C0
330
1F
100
AcDbEntity
  8
0
  6
Continuous
 62
     7
370
    15
100
AcDbLine
 10
1780.1377427127
 20
3102.2882212152
 30
0.0
 11
1780.1377427127
 21
3102.7881849756
 31
0.0
  0
LINE
  5
C1
330
1F
100
AcDbEntity
  8
0
  6
Continuous
 62
     7
370
    15
100
AcDbLine
 10
1555.81616874
 20
3102.7881849756
 30
0.0
 11
1555.81616874
 21
3102.2882212152
 31
0.0
  0
LINE
  5
C2
330
1F
100
AcDbEntity
  8
0
  6
Continuous
 62
     7
370
    15
100
AcDbLine
 10
1780.1377427127
 20
1750.2881933202
 30
0.0
 11
1780.1377427127
 21
1750.7882017841
 31
0.0
  0
LINE
  5
C3
330
1F
100
AcDbEntity
  8
0
  6
Continuous
 62
     7
370
    15
100
AcDbLine
 10
1555.81616874
 20
1750.7882017841
 30
0.0
 11
1555.81616874
 21
1750.2881933202
 31
0.0
  0
LINE
  5
C4
330
1F
100
AcDbEntity
  8
0
  6
Continuous
 62
     7
370
    15
100
AcDbLine
 10
1780.0270270851
 20
3726.6552198877
 30
0.0
 11
1780.0270270851
 21
3727.1554220666
 31
0.0
  0
LINE
  5
C5
330
1F
100
AcDbEntity
  8
0
  6
Continuous
 62
     7
370
    15
100
AcDbLine
 10
1555.9268843677
 20
3727.1554220666
 30
0.0
 11
1555.9268843677
 21
3726.6552198877
 31
0.0
  0
LINE
  5
C6
330
1F
100
AcDbEntity
  8
0
  6
Continuous
 62
     7
370
    15
100
AcDbLine
 10
1728.0062463429
 20
2937.0810736169
 30
0.0
 11
1704.9769562032
 21
2943.0809963693
 31
0.0
  0
LINE
  5
C7
330
1F
100
AcDbEntity
  8
0
  6
Continuous
 62
     7
370
    15
100
AcDbLine
 10
1630.9769552495
 20
2943.0809963693
 30
0.0
 11
1607.9476651099
 21
2937.0810736169
 31
0.0
  0
LINE
  5
C8
330
1F
100
AcDbEntity
  8
0
  6
Continuous
 62
     7
370
    15
100
AcDbLine
 10
1728.0062463429
 20
2920.080994462
 30
0.0
 11
1728.0062463429
 21
2937.0810736169
 31
0.0
  0
LINE
  5
C9
330
1F
100
AcDbEntity
  8
0
  6
Continuous
 62
     7
370
    15
100
AcDbLine
 10
1607.9476651099
 20
2937.0810736169
 30
0.0
 11
1607.9476651099
 21
2920.080994462
 31
0.0
  0
LINE
  5
CA
330
1F
100
AcDbEntity
  8
0
  6
Continuous
 62
     7
370
    15
100
AcDbLine
 10
1607.9476651099
 20
2920.080994462
 30
0.0
 11
1630.9769552495
 21
2914.0810717096
 31
0.0
  0
LINE
  5
CB
330
1F
100
AcDbEntity
  8
0
  6
Continuous
 62
     7
370
    15
100
AcDbLine
 10
1704.9769562032
 20
2914.0810717096
 30
0.0
 11
1728.0062463429
 21
2920.080994462
 31
0.0
  0
LINE
  5
CC
330
1F
100
AcDbEntity
  8
0
  6
Continuous
 62
     7
370
    15
100
AcDbLine
 10
1723.4769564416
 20
3962.0809305658
 30
0.0
 11
1723.4769564416
 21
3988.5809172143
 31
0.0
  0
LINE
  5
CD
330
1F
100
AcDbEntity
  8
0
  6
Continuous
 62
     7
370
    15
100
AcDbLine
 10
1612.4769550111
 20
3988.5809172143
 30
0.0
 11
1612.4769550111
 21
3962.0809305658
 31
0.0
  0
LINE
  5
CE
330
1F
100
AcDbEntity
  8
0
  6
Continuous
 62
     7
370
    15
100
AcDbLine
 10
1612.4769550111
 20
3962.0809305658
 30
0.0
 11
1630.9769552495
 21
3956.0811270227
 31
0.0
  0
LINE
  5
CF
330
1F
100
AcDbEntity
  8
0
  6
Continuous
 62
     7
370
    15
100
AcDbLine
 10
1704.9769562032
 20
3956.0811270227
 30
0.0
 11
1723.4769564416
 21
3962.0809305658
 31
0.0
  0
LINE
  5
D0
330
1F
100
AcDbEntity
  8
0
  6
Continuous
 62
     7
370
    15
100
AcDbLine
 10
1723.4769564416
 20
3596.0809935083
 30
0.0
 11
1723.4769564416
 21
3613.080953454
 31
0.0
  0
LINE
  5
D1
330
1F
100
AcDbEntity
  8
0
  6
Continuous
 62
     7
370
    15
100
AcDbLine
 10
1612.4769550111
 20
3613.080953454
 30
0.0
 11
1612.4769550111
 21
3596.0809935083
 31
0.0
  0
LINE
  5
D2
330
1F
100
AcDbEntity
  8
0
  6
Continuous
 62
     7
370
    15
100
AcDbLine
 10
1612.4769550111
 20
3596.0809935083
 30
0.0
 11
1630.9769552495
 21
3590.0809515466
 31
0.0
  0
LINE
  5
D3
330
1F
100
AcDbEntity
  8
0
  6
Continuous
 62
     7
370
    15
100
AcDbLine
 10
1704.9769562032
 20
3590.0809515466
 30
0.0
 11
1723.4769564416
 21
3596.0809935083
 31
0.0
  0
LINE
  5
D4
330
1F
100
AcDbEntity
  8
0
  6
Continuous
 62
     7
370
    15
100
AcDbLine
 10
1723.4769564416
 20
3613.080953454
 30
0.0
 11
1704.9769562032
 21
3619.0809954156
 31
0.0
  0
LINE
  5
D5
330
1F
100
AcDbEntity
  8
0
  6
Continuous
 62
     7
370
    15
100
AcDbLine
 10
1630.9769552495
 20
3619.0809954156
 30
0.0
 11
1612.4769550111
 21
3613.080953454
 31
0.0
  0
LINE
  5
D6
330
1F
100
AcDbEntity
  8
0
  6
Continuous
 62
     7
370
    15
100
AcDbLine
 10
1612.4769550111
 20
3268.081044053
 30
0.0
 11
1630.9769552495
 21
3262.0810020914
 31
0.0
  0
LINE
  5
D7
330
1F
100
AcDbEntity
  8
0
  6
Continuous
 62
     7
370
    15
100
AcDbLine
 10
1704.9769562032
 20
3262.0810020914
 30
0.0
 11
1723.4769564416
 21
3268.081044053
 31
0.0
  0
LINE
  5
D8
330
1F
100
AcDbEntity
  8
0
  6
Continuous
 62
     7
370
    15
100
AcDbLine
 10
1723.4769564416
 20
3285.0810039987
 30
0.0
 11
1704.9769562032
 21
3291.0810459604
 31
0.0
  0
LINE
  5
D9
330
1F
100
AcDbEntity
  8
0
  6
Continuous
 62
     7
370
    15
100
AcDbLine
 10
1630.9769552495
 20
3291.0810459604
 30
0.0
 11
1612.4769550111
 21
3285.0810039987
 31
0.0
  0
LINE
  5
DA
330
1F
100
AcDbEntity
  8
0
  6
Continuous
 62
     7
370
    15
100
AcDbLine
 10
1612.4769550111
 20
1916.0810161581
 30
0.0
 11
1630.9769552495
 21
1910.0810039987
 31
0.0
  0
LINE
  5
DB
330
1F
100
AcDbEntity
  8
0
  6
Continuous
 62
     7
370
    15
100
AcDbLine
 10
1704.9769562032
 20
1910.0810039987
 30
0.0
 11
1723.4769564416
 21
1916.0810161581
 31
0.0
  0
LINE
  5
DC
330
1F
100
AcDbEntity
  8
0
  6
Continuous
 62
     7
370
    15
100
AcDbLine
 10
1723.4769564416
 20
3268.081044053
 30
0.0
 11
1723.4769564416
 21
3285.0810039987
 31
0.0
  0
LINE
  5
DD
330
1F
100
AcDbEntity
  8
0
  6
Continuous
 62
     7
370
    15
100
AcDbLine
 10
1612.4769550111
 20
3285.0810039987
 30
0.0
 11
1612.4769550111
 21
3268.081044053
 31
0.0
  0
LINE
  5
DE
330
1F
100
AcDbEntity
  8
0
  6
Continuous
 62
     7
370
    15
100
AcDbLine
 10
1723.4769564416
 20
1916.0810161581
 30
0.0
 11
1723.4769564416
 21
1933.0810059061
 31
0.0
  0
LINE
  5
DF
330
1F
100
AcDbEntity
  8
0
  6
Continuous
 62
     7
370
    15
100
AcDbLine
 10
1612.4769550111
 20
1933.0810059061
 30
0.0
 11
1612.4769550111
 21
1916.0810161581
 31
0.0
  0
LINE
  5
E0
330
1F
100
AcDbEntity
  8
0
  6
Continuous
 62
     7
370
    15
100
AcDbLine
 10
1723.4769564416
 20
1933.0810059061
 30
0.0
 11
1704.9769562032
 21
1939.0810180654
 31
0.0
  0
LINE
  5
E1
330
1F
100
AcDbEntity
  8
0
  6
Continuous
 62
     7
370
    15
100
AcDbLine
 10
1630.9769552495
 20
1939.0810180654
 30
0.0
 11
1612.4769550111
 21
1933.0810059061
 31
0.0
  0
LINE
  5
E2
330
1F
100
AcDbEntity
  8
0
  6
Continuous
 62
     7
370
    15
100
AcDbLine
 10
1723.4769564416
 20
1585.0810159196
 30
0.0
 11
1704.9769562032
 21
1591.0810131778
 31
0.0
  0
LINE
  5
E3
330
1F
100
AcDbEntity
  8
0
  6
Continuous
 62
     7
370
    15
100
AcDbLine
 10
1630.9769552495
 20
1591.0810131778
 30
0.0
 11
1612.4769550111
 21
1585.0810159196
 31
0.0
  0
LINE
  5
E4
330
1F
100
AcDbEntity
  8
0
  6
Continuous
 62
     7
370
    15
100
AcDbLine
 10
1723.4769564416
 20
1549.5810147573
 30
0.0
 11
1723.4769564416
 21
1585.0810159196
 31
0.0
  0
LINE
  5
E5
330
1F
100
AcDbEntity
  8
0
  6
Continuous
 62
     7
370
    15
100
AcDbLine
 10
1612.4769550111
 20
1585.0810159196
 30
0.0
 11
1612.4769550111
 21
1549.5810147573
 31
0.0
  0
LINE
  5
E6
330
1F
100
AcDbEntity
  8
0
  6
Continuous
 62
     7
370
    15
100
AcDbLine
 10
1612.4769550111
 20
2602.08103547
 30
0.0
 11
1630.9769552495
 21
2596.0809935083
 31
0.0
  0
LINE
  5
E7
330
1F
100
AcDbEntity
  8
0
  6
Continuous
 62
     7
370
    15
100
AcDbLine
 10
1704.9769562032
 20
2596.0809935083
 30
0.0
 11
1723.4769564416
 21
2602.08103547
 31
0.0
  0
LINE
  5
E8
330
1F
100
AcDbEntity
  8
0
  6
Continuous
 62
     7
370
    15
100
AcDbLine
 10
1723.4769564416
 20
2619.0809954156
 30
0.0
 11
1704.9769562032
 21
2625.0810373773
 31
0.0
  0
LINE
  5
E9
330
1F
100
AcDbEntity
  8
0
  6
Continuous
 62
     7
370
    15
100
AcDbLine
 10
1630.9769552495
 20
2625.0810373773
 30
0.0
 11
1612.4769550111
 21
2619.0809954156
 31
0.0
  0
LINE
  5
EA
330
1F
100
AcDbEntity
  8
0
  6
Continuous
 62
     7
370
    15
100
AcDbLine
 10
1723.4769564416
 20
2602.08103547
 30
0.0
 11
1723.4769564416
 21
2619.0809954156
 31
0.0
  0
LINE
  5
EB
330
1F
100
AcDbEntity
  8
0
  6
Continuous
 62
     7
370
    15
100
AcDbLine
 10
1612.4769550111
 20
2619.0809954156
 30
0.0
 11
1612.4769550111
 21
2602.08103547
 31
0.0
  0
LINE
  5
EC
330
1F
100
AcDbEntity
  8
0
  6
Continuous
 62
     7
370
    15
100
AcDbLine
 10
1612.4769550111
 20
2309.0809930315
 30
0.0
 11
1630.9769552495
 21
2303.0810106744
 31
0.0
  0
LINE
  5
ED
330
1F
100
AcDbEntity
  8
0
  6
Continuous
 62
     7
370
    15
100
AcDbLine
 10
1704.9769562032
 20
2303.0810106744
 30
0.0
 11
1723.4769564416
 21
2309.0809930315
 31
0.0
  0
LINE
  5
EE
330
1F
100
AcDbEntity
  8
0
  6
Continuous
 62
     7
370
    15
100
AcDbLine
 10
1723.4769564416
 20
2309.0809930315
 30
0.0
 11
1723.4769564416
 21
2326.0810125818
 31
0.0
  0
LINE
  5
EF
330
1F
100
AcDbEntity
  8
0
  6
Continuous
 62
     7
370
    15
100
AcDbLine
 10
1612.4769550111
 20
2326.0810125818
 30
0.0
 11
1612.4769550111
 21
2309.0809930315
 31
0.0
  0
LINE
  5
F0
330
1F
100
AcDbEntity
  8
0
  6
Continuous
 62
     7
370
    15
100
AcDbLine
 10
1723.4769564416
 20
2326.0810125818
 30
0.0
 11
1704.9769562032
 21
2332.0809949388
 31
0.0
  0
LINE
  5
F1
330
1F
100
AcDbEntity
  8
0
  6
Continuous
 62
     7
370
    15
100
AcDbLine
 10
1630.9769552495
 20
2332.0809949388
 30
0.0
 11
1612.4769550111
 21
2326.0810125818
 31
0.0
  0
LINE
  5
F2
330
1F
100
AcDbEntity
  8
0
  6
Continuous
 62
     7
370
    15
100
AcDbLine
 10
1704.9769562032
 20
3951.0810125818
 30
0.0
 11
1704.9769562032
 21
3956.0811270227
 31
0.0
  0
LINE
  5
F3
330
1F
100
AcDbEntity
  8
0
  6
Continuous
 62
     7
370
    15
100
AcDbLine
 10
1630.9769552495
 20
3956.0811270227
 30
0.0
 11
1630.9769552495
 21
3951.0810125818
 31
0.0
  0
LINE
  5
F4
330
1F
100
AcDbEntity
  8
0
  6
Continuous
 62
     7
370
    15
100
AcDbLine
 10
1704.9769562032
 20
3619.0809954156
 30
0.0
 11
1704.9769562032
 21
3624.0811098566
 31
0.0
  0
LINE
  5
F5
330
1F
100
AcDbEntity
  8
0
  6
Continuous
 62
     7
370
    15
100
AcDbLine
 10
1630.9769552495
 20
3624.0811098566
 30
0.0
 11
1630.9769552495
 21
3619.0809954156
 31
0.0
  0
LINE
  5
F6
330
1F
100
AcDbEntity
  8
0
  6
Continuous
 62
     7
370
    15
100
AcDbLine
 10
1704.9769562032
 20
3585.0810755243
 30
0.0
 11
1704.9769562032
 21
3590.0809515466
 31
0.0
  0
LINE
  5
F7
330
1F
100
AcDbEntity
  8
0
  6
Continuous
 62
     7
370
    15
100
AcDbLine
 10
1630.9769552495
 20
3590.0809515466
 30
0.0
 11
1630.9769552495
 21
3585.0810755243
 31
0.0
  0
LINE
  5
F8
330
1F
100
AcDbEntity
  8
0
  6
Continuous
 62
     7
370
    15
100
AcDbLine
 10
1704.9769562032
 20
3291.0810459604
 30
0.0
 11
1704.9769562032
 21
3296.081041192
 31
0.0
  0
LINE
  5
F9
330
1F
100
AcDbEntity
  8
0
  6
Continuous
 62
     7
370
    15
100
AcDbLine
 10
1630.9769552495
 20
3296.081041192
 30
0.0
 11
1630.9769552495
 21
3291.0810459604
 31
0.0
  0
LINE
  5
FA
330
1F
100
AcDbEntity
  8
0
  6
Continuous
 62
     7
370
    15
100
AcDbLine
 10
1704.9769562032
 20
3257.0810068597
 30
0.0
 11
1704.9769562032
 21
3262.0810020914
 31
0.0
  0
LINE
  5
FB
330
1F
100
AcDbEntity
  8
0
  6
Continuous
 62
     7
370
    15
100
AcDbLine
 10
1630.9769552495
 20
3262.0810020914
 30
0.0
 11
1630.9769552495
 21
3257.0810068597
 31
0.0
  0
LINE
  5
FC
330
1F
100
AcDbEntity
  8
0
  6
Continuous
 62
     7
370
    15
100
AcDbLine
 10
1704.9769562032
 20
2909.0809572687
 30
0.0
 11
1704.9769562032
 21
2914.0810717096
 31
0.0
  0
LINE
  5
FD
330
1F
100
AcDbEntity
  8
0
  6
Continuous
 62
     7
370
    15
100
AcDbLine
 10
1630.9769552495
 20
2914.0810717096
 30
0.0
 11
1630.9769552495
 21
2909.0809572687
 31
0.0
  0
LINE
  5
FE
330
1F
100
AcDbEntity
  8
0
  6
Continuous
 62
     7
370
    15
100
AcDbLine
 10
1704.9769562032
 20
2943.0809963693
 30
0.0
 11
1704.9769562032
 21
2948.0809916009
 31
0.0
  0
LINE
  5
FF
330
1F
100
AcDbEntity
  8
0
  6
Continuous
 62
     7
370
    15
100
AcDbLine
 10
1630.9769552495
 20
2948.0809916009
 30
0.0
 11
1630.9769552495
 21
2943.0809963693
 31
0.0
  0
LINE
  5
100
330
1F
100
AcDbEntity
  8
0
  6
Continuous
 62
     7
370
    15
100
AcDbLine
 10
1704.9769562032
 20
2625.0810373773
 30
0.0
 11
1704.9769562032
 21
2630.0810326089
 31
0.0
  0
LINE
  5
101
330
1F
100
AcDbEntity
  8
0
  6
Continuous
 62
     7
370
    15
100
AcDbLine
 10
1630.9769552495
 20
2630.0810326089
 30
0.0
 11
1630.9769552495
 21
2625.0810373773
 31
0.0
  0
LINE
  5
102
330
1F
100
AcDbEntity
  8
0
  6
Continuous
 62
     7
370
    15
100
AcDbLine
 10
1704.9769562032
 20
2591.0809982767
 30
0.0
 11
1704.9769562032
 21
2596.0809935083
 31
0.0
  0
LINE
  5
103
330
1F
100
AcDbEntity
  8
0
  6
Continuous
 62
     7
370
    15
100
AcDbLine
 10
1630.9769552495
 20
2596.0809935083
 30
0.0
 11
1630.9769552495
 21
2591.0809982767
 31
0.0
  0
LINE
  5
104
330
1F
100
AcDbEntity
  8
0
  6
Continuous
 62
     7
370
    15
100
AcDbLine
 10
1704.9769562032
 20
2332.0809949388
 30
0.0
 11
1704.9769562032
 21
2337.0809901704
 31
0.0
  0
LINE
  5
105
330
1F
100
AcDbEntity
  8
0
  6
Continuous
 62
     7
370
    15
100
AcDbLine
 10
1630.9769552495
 20
2337.0809901704
 30
0.0
 11
1630.9769552495
 21
2332.0809949388
 31
0.0
  0
LINE
  5
106
330
1F
100
AcDbEntity
  8
0
  6
Continuous
 62
     7
370
    15
100
AcDbLine
 10
1704.9769562032
 20
2298.0810154428
 30
0.0
 11
1704.9769562032
 21
2303.0810106744
 31
0.0
  0
LINE
  5
107
330
1F
100
AcDbEntity
  8
0
  6
Continuous
 62
     7
370
    15
100
AcDbLine
 10
1630.9769552495
 20
2303.0810106744
 30
0.0
 11
1630.9769552495
 21
2298.0810154428
 31
0.0
  0
LINE
  5
108
330
1F
100
AcDbEntity
  8
0
  6
Continuous
 62
     7
370
    15
100
AcDbLine
 10
1704.9769562032
 20
1939.0810180654
 30
0.0
 11
1704.9769562032
 21
1944.081013297
 31
0.0
  0
LINE
  5
109
330
1F
100
AcDbEntity
  8
0
  6
Continuous
 62
     7
370
    15
100
AcDbLine
 10
1630.9769552495
 20
1944.081013297
 30
0.0
 11
1630.9769552495
 21
1939.0810180654
 31
0.0
  0
LINE
  5
10A
330
1F
100
AcDbEntity
  8
0
  6
Continuous
 62
     7
370
    15
100
AcDbLine
 10
1704.9769562032
 20
1905.0810087671
 30
0.0
 11
1704.9769562032
 21
1910.0810039987
 31
0.0
  0
LINE
  5
10B
330
1F
100
AcDbEntity
  8
0
  6
Continuous
 62
     7
370
    15
100
AcDbLine
 10
1630.9769552495
 20
1910.0810039987
 30
0.0
 11
1630.9769552495
 21
1905.0810087671
 31
0.0
  0
LINE
  5
10C
330
1F
100
AcDbEntity
  8
0
  6
Continuous
 62
     7
370
    15
100
AcDbLine
 10
1704.9769562032
 20
1591.0810131778
 30
0.0
 11
1704.9769562032
 21
1596.08101586
 31
0.0
  0
LINE
  5
10D
330
1F
100
AcDbEntity
  8
0
  6
Continuous
 62
     7
370
    15
100
AcDbLine
 10
1630.9769552495
 20
1596.08101586
 30
0.0
 11
1630.9769552495
 21
1591.0810131778
 31
0.0
  0
LINE
  5
10E
330
1F
100
AcDbEntity
  8
0
  6
Continuous
 62
     7
370
    15
100
AcDbLine
 10
1692.6901590373
 20
1538.5810145841
 30
0.0
 11
1692.6901590373
 21
1541.0810142954
 31
0.0
  0
LINE
  5
10F
330
1F
100
AcDbEntity
  8
0
  6
Continuous
 62
     7
370
    15
100
AcDbLine
 10
1685.6901597526
 20
1541.0810142954
 30
0.0
 11
1685.6901597526
 21
1538.5810145841
 31
0.0
  0
LINE
  5
110
330
1F
100
AcDbEntity
  8
0
  6
Continuous
 62
     7
370
    15
100
AcDbLine
 10
1692.6901590373
 20
1541.0810142954
 30
0.0
 11
1692.1901598867
 21
1541.5810143774
 31
0.0
  0
LINE
  5
111
330
1F
100
AcDbEntity
  8
0
  6
Continuous
 62
     7
370
    15
100
AcDbLine
 10
1686.1901589032
 20
1541.5810143774
 30
0.0
 11
1685.6901597526
 21
1541.0810142954
 31
0.0
  0
LINE
  5
112
330
1F
100
AcDbEntity
  8
0
  6
Continuous
 62
     7
370
    15
100
AcDbLine
 10
1650.2637517001
 20
1538.5810145841
 30
0.0
 11
1650.2637517001
 21
1541.0810142954
 31
0.0
  0
LINE
  5
113
330
1F
100
AcDbEntity
  8
0
  6
Continuous
 62
     7
370
    15
100
AcDbLine
 10
1643.2637524154
 20
1541.0810142954
 30
0.0
 11
1643.2637524154
 21
1538.5810145841
 31
0.0
  0
LINE
  5
114
330
1F
100
AcDbEntity
  8
0
  6
Continuous
 62
     7
370
    15
100
AcDbLine
 10
1650.2637517001
 20
1541.0810142954
 30
0.0
 11
1649.7637525495
 21
1541.5810143774
 31
0.0
  0
LINE
  5
115
330
1F
100
AcDbEntity
  8
0
  6
Continuous
 62
     7
370
    15
100
AcDbLine
 10
1643.763751566
 20
1541.5810143774
 30
0.0
 11
1643.2637524154
 21
1541.0810142954
 31
0.0
  0
LINE
  5
116
330
1F
100
AcDbEntity
  8
0
  6
Continuous
 62
     7
370
    15
100
AcDbLine
 10
1675.9419206824
 20
1546.9732519438
 30
0.0
 11
1672.1218743656
 21
1546.9732519438
 31
0.0
  0
LINE
  5
117
330
1F
100
AcDbEntity
  8
0
  6
Continuous
 62
     7
370
    15
100
AcDbLine
 10
1662.1606297154
 20
1546.9732510125
 30
0.0
 11
1660.0113416385
 21
1546.9732510125
 31
0.0
  0
LINE
  5
118
330
1F
100
AcDbEntity
  8
0
  6
Continuous
 62
     7
370
    15
100
AcDbLine
 10
1660.0769542452
 20
1546.9860371401
 30
0.0
 11
1660.0769542452
 21
1546.4310173144
 31
0.0
  0
LINE
  5
119
330
1F
100
AcDbEntity
  8
0
  6
Continuous
 62
     7
370
    15
100
AcDbLine
 10
1675.8769572075
 20
1546.4310173144
 30
0.0
 11
1675.8769572075
 21
1546.9860371401
 31
0.0
  0
ARC
  5
11A
330
1F
100
AcDbEntity
  8
0
  6
Continuous
 62
     7
370
    15
100
AcDbCircle
 10
1660.9769557264
 20
1548.5310181131
 30
0.0
 40
0.4999999999997726
100
AcDbArc
 50
180.0
 51
270.0
  0
ARC
  5
11B
330
1F
100
AcDbEntity
  8
0
  6
Continuous
 62
     7
370
    15
100
AcDbCircle
 10
1674.9769557264
 20
1548.5310181131
 30
0.0
 40
0.5
100
AcDbArc
 50
270.0
 51
0.0
  0
LINE
  5
11C
330
1F
100
AcDbEntity
  8
0
  6
Continuous
 62
     7
370
    15
100
AcDbLine
 10
1675.4769555587
 20
1548.5310184037
 30
0.0
 11
1675.4769555587
 21
1549.5810147573
 31
0.0
  0
LINE
  5
11D
330
1F
100
AcDbEntity
  8
0
  6
Continuous
 62
     7
370
    15
100
AcDbLine
 10
1660.476955894
 20
1549.5810147573
 30
0.0
 11
1660.476955894
 21
1548.5310184037
 31
0.0
  0
LINE
  5
11E
330
1F
100
AcDbEntity
  8
0
  6
Continuous
 62
     7
370
    15
100
AcDbLine
 10
1674.2269558195
 20
1547.5310182397
 30
0.0
 11
1674.2269558195
 21
1548.0310183217
 31
0.0
  0
LINE
  5
11F
330
1F
100
AcDbEntity
  8
0
  6
Continuous
 62
     7
370
    15
100
AcDbLine
 10
1661.7269556332
 20
1548.0310183217
 30
0.0
 11
1661.7269556332
 21
1547.5310182397
 31
0.0
  0
ARC
  5
120
330
1F
100
AcDbEntity
  8
0
  6
Continuous
 62
     7
370
    15
100
AcDbCircle
 10
1673.7269557264
 20
1547.5310181131
 30
0.0
 40
0.5
100
AcDbArc
 50
270.0
 51
0.0
  0
ARC
  5
121
330
1F
100
AcDbEntity
  8
0
  6
Continuous
 62
     7
370
    15
100
AcDbCircle
 10
1662.2269557264
 20
1547.5310181131
 30
0.0
 40
0.5000000000002274
100
AcDbArc
 50
180.0
 51
270.0
  0
LINE
  5
122
330
1F
100
AcDbEntity
  8
0
  6
Continuous
 62
     7
370
    15
100
AcDbLine
 10
1669.1019556779
 20
1540.1310180047
 30
0.0
 11
1669.1019556779
 21
1547.0310181578
 31
0.0
  0
LINE
  5
123
330
1F
100
AcDbEntity
  8
0
  6
Continuous
 62
     7
370
    15
100
AcDbLine
 10
1666.8519557748
 20
1547.0310181578
 30
0.0
 11
1666.8519557748
 21
1540.1310180047
 31
0.0
  0
ARC
  5
124
330
1F
100
AcDbEntity
  8
0
  6
Continuous
 62
     7
370
    15
100
AcDbCircle
 10
1667.3519557264
 20
1540.1310181131
 30
0.0
 40
0.5
100
AcDbArc
 50
180.0
 51
270.0
  0
ARC
  5
125
330
1F
100
AcDbEntity
  8
0
  6
Continuous
 62
     7
370
    15
100
AcDbCircle
 10
1668.6019557264
 20
1540.1310181131
 30
0.0
 40
0.5
100
AcDbArc
 50
270.0
 51
0.0
  0
LINE
  5
126
330
1F
100
AcDbEntity
  8
0
  6
Continuous
 62
     7
370
    15
100
AcDbLine
 10
1683.7655388113
 20
1538.5810145841
 30
0.0
 11
1683.7655388113
 21
1549.5810147573
 31
0.0
  0
LINE
  5
127
330
1F
100
AcDbEntity
  8
0
  6
Continuous
 62
     7
370
    15
100
AcDbLine
 10
1679.7655381557
 20
1549.5810147573
 30
0.0
 11
1679.7655381557
 21
1538.5810145841
 31
0.0
  0
LINE
  5
128
330
1F
100
AcDbEntity
  8
0
  6
Continuous
 62
     7
370
    15
100
AcDbLine
 10
1656.1883732971
 20
1538.5810145841
 30
0.0
 11
1656.1883732971
 21
1549.5810147573
 31
0.0
  0
LINE
  5
129
330
1F
100
AcDbEntity
  8
0
  6
Continuous
 62
     7
370
    15
100
AcDbLine
 10
1652.1883726414
 20
1549.5810147573
 30
0.0
 11
1652.1883726414
 21
1538.5810145841
 31
0.0
  0
LINE
  5
12A
330
1F
100
AcDbEntity
  8
0
  6
Continuous
 62
     7
370
    15
100
AcDbLine
 10
1782.9769578125
 20
1259.5810044755
 30
0.0
 11
1782.9769578125
 21
1261.5810085287
 31
0.0
  0
LINE
  5
12B
330
1F
100
AcDbEntity
  8
0
  6
Continuous
 62
     7
370
    15
100
AcDbLine
 10
1787.9769530442
 20
1261.5810085287
 30
0.0
 11
1787.9769530442
 21
1268.5810078134
 31
0.0
  0
LINE
  5
12C
330
1F
100
AcDbEntity
  8
0
  6
Continuous
 62
     7
370
    15
100
AcDbLine
 10
1842.9769527461
 20
1536.5810144891
 30
0.0
 11
1842.9769527461
 21
1538.5810145841
 31
0.0
  0
LINE
  5
12D
330
1F
100
AcDbEntity
  8
0
  6
Continuous
 62
     7
370
    15
100
AcDbLine
 10
1492.9769587066
 20
1538.5810145841
 30
0.0
 11
1492.9769587066
 21
1536.5810144891
 31
0.0
  0
LINE
  5
12E
330
1F
100
AcDbEntity
  8
0
  6
Continuous
 62
     7
370
    15
100
AcDbLine
 10
1792.9769557264
 20
1268.5810078134
 30
0.0
 11
1792.9769557264
 21
1536.5810144891
 31
0.0
  0
LINE
  5
12F
330
1F
100
AcDbEntity
  8
0
  6
Continuous
 62
     7
370
    15
100
AcDbLine
 10
1831.9624614265
 20
2711.6963613977
 30
0.0
 11
1503.4453373697
 21
2711.6963613977
 31
0.0
  0
LINE
  5
130
330
1F
100
AcDbEntity
  8
0
  6
Continuous
 62
     7
370
    15
100
AcDbLine
 10
1832.5085740831
 20
2711.6963613977
 30
0.0
 11
1831.9624614265
 21
2711.6963613977
 31
0.0
  0
LINE
  5
131
330
1F
100
AcDbEntity
  8
0
  6
Continuous
 62
     7
370
    15
100
AcDbLine
 10
1704.9769562032
 20
2909.0809572687
 30
0.0
 11
1630.9769552495
 21
2909.0809572687
 31
0.0
  0
LINE
  5
132
330
1F
100
AcDbEntity
  8
0
  6
Continuous
 62
     7
370
    15
100
AcDbLine
 10
1811.8335109498
 20
2698.6475933542
 30
0.0
 11
1523.6413281705
 21
2698.6475933542
 31
0.0
  0
LINE
  5
133
330
1F
100
AcDbEntity
  8
0
  6
Continuous
 62
     7
370
    15
100
AcDbLine
 10
1812.3125832822
 20
2698.6475933542
 30
0.0
 11
1811.8335109498
 21
2698.6475933542
 31
0.0
  0
LINE
  5
134
330
1F
100
AcDbEntity
  8
0
  6
Continuous
 62
     7
370
    15
100
AcDbLine
 10
1704.9769562032
 20
3296.081041192
 30
0.0
 11
1630.9769552495
 21
3296.081041192
 31
0.0
  0
LINE
  5
135
330
1F
100
AcDbEntity
  8
0
  6
Continuous
 62
     7
370
    15
100
AcDbLine
 10
1826.6537588384
 20
3496.8069542398
 30
0.0
 11
1508.7717276361
 21
3496.8069542398
 31
0.0
  0
LINE
  5
136
330
1F
100
AcDbEntity
  8
0
  6
Continuous
 62
     7
370
    15
100
AcDbLine
 10
1827.1821838167
 20
3496.8069542398
 30
0.0
 11
1826.6537588384
 21
3496.8069542398
 31
0.0
  0
LINE
  5
137
330
1F
100
AcDbEntity
  8
0
  6
Continuous
 62
     7
370
    15
100
AcDbLine
 10
1807.0734393146
 20
3508.767460679
 30
0.0
 11
1528.4172546413
 21
3508.767460679
 31
0.0
  0
LINE
  5
138
330
1F
100
AcDbEntity
  8
0
  6
Continuous
 62
     7
370
    15
100
AcDbLine
 10
1807.5366568115
 20
3508.767460679
 30
0.0
 11
1807.0734393146
 21
3508.767460679
 31
0.0
  0
LINE
  5
139
330
1F
100
AcDbEntity
  8
0
  6
Continuous
 62
     7
370
    15
100
AcDbLine
 10
1704.9769562032
 20
1944.081013297
 30
0.0
 11
1630.9769552495
 21
1944.081013297
 31
0.0
  0
LINE
  5
13A
330
1F
100
AcDbEntity
  8
0
  6
Continuous
 62
     7
370
    15
100
AcDbLine
 10
1824.1859328296
 20
2146.2936151971
 30
0.0
 11
1511.2477790859
 21
2146.2936151971
 31
0.0
  0
LINE
  5
13B
330
1F
100
AcDbEntity
  8
0
  6
Continuous
 62
     7
370
    15
100
AcDbLine
 10
1824.7061323669
 20
2146.2936151971
 30
0.0
 11
1824.1859328296
 21
2146.2936151971
 31
0.0
  0
LINE
  5
13C
330
1F
100
AcDbEntity
  8
0
  6
Continuous
 62
     7
370
    15
100
AcDbLine
 10
1804.4605952051
 20
2158.0117691507
 30
0.0
 11
1531.038801029
 21
2158.0117691507
 31
0.0
  0
LINE
  5
13D
330
1F
100
AcDbEntity
  8
0
  6
Continuous
 62
     7
370
    15
100
AcDbLine
 10
1804.9151104238
 20
2158.0117691507
 30
0.0
 11
1804.4605952051
 21
2158.0117691507
 31
0.0
  0
LINE
  5
13E
330
1F
100
AcDbEntity
  8
0
  6
Continuous
 62
     7
370
    15
100
AcDbLine
 10
1821.6562670019
 20
2174.9297131052
 30
0.0
 11
1513.7858640697
 21
2174.9297131052
 31
0.0
  0
LINE
  5
13F
330
1F
100
AcDbEntity
  8
0
  6
Continuous
 62
     7
370
    15
100
AcDbLine
 10
1822.1680473831
 20
2174.9297131052
 30
0.0
 11
1821.6562670019
 21
2174.9297131052
 31
0.0
  0
LINE
  5
140
330
1F
100
AcDbEntity
  8
0
  6
Continuous
 62
     7
370
    15
100
AcDbLine
 10
1704.9769562032
 20
2298.0810154428
 30
0.0
 11
1630.9769552495
 21
2298.0810154428
 31
0.0
  0
LINE
  5
141
330
1F
100
AcDbEntity
  8
0
  6
Continuous
 62
     7
370
    15
100
AcDbLine
 10
1804.4605952051
 20
2158.5117329111
 30
0.0
 11
1531.038801029
 21
2158.5117329111
 31
0.0
  0
LINE
  5
142
330
1F
100
AcDbEntity
  8
0
  6
Continuous
 62
     7
370
    15
100
AcDbLine
 10
1804.9151104238
 20
2158.5117329111
 30
0.0
 11
1804.4605952051
 21
2158.5117329111
 31
0.0
  0
LINE
  5
143
330
1F
100
AcDbEntity
  8
0
  6
Continuous
 62
     7
370
    15
100
AcDbLine
 10
1704.9769562032
 20
2630.0810326089
 30
0.0
 11
1630.9769552495
 21
2630.0810326089
 31
0.0
  0
LINE
  5
144
330
1F
100
AcDbEntity
  8
0
  6
Continuous
 62
     7
370
    15
100
AcDbLine
 10
1820.4041373279
 20
2676.8156040658
 30
0.0
 11
1515.0421660688
 21
2676.8156040658
 31
0.0
  0
LINE
  5
145
330
1F
100
AcDbEntity
  8
0
  6
Continuous
 62
     7
370
    15
100
AcDbLine
 10
1820.911745384
 20
2676.8156040658
 30
0.0
 11
1820.4041373279
 21
2676.8156040658
 31
0.0
  0
LINE
  5
146
330
1F
100
AcDbEntity
  8
0
  6
Continuous
 62
     7
370
    15
100
AcDbLine
 10
1811.8335109498
 20
2698.1476295938
 30
0.0
 11
1523.6413281705
 21
2698.1476295938
 31
0.0
  0
LINE
  5
147
330
1F
100
AcDbEntity
  8
0
  6
Continuous
 62
     7
370
    15
100
AcDbLine
 10
1812.3125832822
 20
2698.1476295938
 30
0.0
 11
1811.8335109498
 21
2698.1476295938
 31
0.0
  0
LINE
  5
148
330
1F
100
AcDbEntity
  8
0
  6
Continuous
 62
     7
370
    15
100
AcDbLine
 10
1817.7476328161
 20
3532.2129477014
 30
0.0
 11
1517.7075218704
 21
3532.2129477014
 31
0.0
  0
LINE
  5
149
330
1F
100
AcDbEntity
  8
0
  6
Continuous
 62
     7
370
    15
100
AcDbLine
 10
1818.2463895824
 20
3532.2129477014
 30
0.0
 11
1817.7476328161
 21
3532.2129477014
 31
0.0
  0
LINE
  5
14A
330
1F
100
AcDbEntity
  8
0
  6
Continuous
 62
     7
370
    15
100
AcDbLine
 10
1704.9769562032
 20
3585.0810755243
 30
0.0
 11
1630.9769552495
 21
3585.0810755243
 31
0.0
  0
LINE
  5
14B
330
1F
100
AcDbEntity
  8
0
  6
Continuous
 62
     7
370
    15
100
AcDbLine
 10
1807.0734393146
 20
3509.2674244394
 30
0.0
 11
1528.4172546413
 21
3509.2674244394
 31
0.0
  0
LINE
  5
14C
330
1F
100
AcDbEntity
  8
0
  6
Continuous
 62
     7
370
    15
100
AcDbLine
 10
1807.5366568115
 20
3509.2674244394
 30
0.0
 11
1807.0734393146
 21
3509.2674244394
 31
0.0
  0
LINE
  5
14D
330
1F
100
AcDbEntity
  8
0
  6
Continuous
 62
     7
370
    15
100
AcDbLine
 10
1782.4116003063
 20
2438.0733717432
 30
0.0
 11
1553.1612213995
 21
2438.0733717432
 31
0.0
  0
LINE
  5
14E
330
1F
100
AcDbEntity
  8
0
  6
Continuous
 62
     7
370
    15
100
AcDbLine
 10
1782.7926900532
 20
2438.0733717432
 30
0.0
 11
1782.4116003063
 21
2438.0733717432
 31
0.0
  0
LINE
  5
14F
330
1F
100
AcDbEntity
  8
0
  6
Continuous
 62
     7
370
    15
100
AcDbLine
 10
1801.8631290939
 20
2451.702152585
 30
0.0
 11
1533.6449098136
 21
2451.702152585
 31
0.0
  0
LINE
  5
150
330
1F
100
AcDbEntity
  8
0
  6
Continuous
 62
     7
370
    15
100
AcDbLine
 10
1802.3090016391
 20
2451.702152585
 30
0.0
 11
1801.8631290939
 21
2451.702152585
 31
0.0
  0
LINE
  5
151
330
1F
100
AcDbEntity
  8
0
  6
Continuous
 62
     7
370
    15
100
AcDbLine
 10
1704.9769562032
 20
2591.0809982767
 30
0.0
 11
1630.9769552495
 21
2591.0809982767
 31
0.0
  0
LINE
  5
152
330
1F
100
AcDbEntity
  8
0
  6
Continuous
 62
     7
370
    15
100
AcDbLine
 10
1779.655123904
 20
3727.1554220666
 30
0.0
 11
1555.9268843677
 21
3727.1554220666
 31
0.0
  0
LINE
  5
153
330
1F
100
AcDbEntity
  8
0
  6
Continuous
 62
     7
370
    15
100
AcDbLine
 10
1780.0270270851
 20
3727.1554220666
 30
0.0
 11
1779.655123904
 21
3727.1554220666
 31
0.0
  0
LINE
  5
154
330
1F
100
AcDbEntity
  8
0
  6
Continuous
 62
     7
370
    15
100
AcDbLine
 10
1800.9748857763
 20
3736.7818106164
 30
0.0
 11
1534.5361184623
 21
3736.7818106164
 31
0.0
  0
LINE
  5
155
330
1F
100
AcDbEntity
  8
0
  6
Continuous
 62
     7
370
    15
100
AcDbLine
 10
1801.4177929904
 20
3736.7818106164
 30
0.0
 11
1800.9748857763
 21
3736.7818106164
 31
0.0
  0
LINE
  5
156
330
1F
100
AcDbEntity
  8
0
  6
Continuous
 62
     7
370
    15
100
AcDbLine
 10
1704.9769562032
 20
3951.0810125818
 30
0.0
 11
1630.9769552495
 21
3951.0810125818
 31
0.0
  0
LINE
  5
157
330
1F
100
AcDbEntity
  8
0
  6
Continuous
 62
     7
370
    15
100
AcDbLine
 10
1779.7654670026
 20
3102.7881849756
 30
0.0
 11
1555.81616874
 21
3102.7881849756
 31
0.0
  0
LINE
  5
158
330
1F
100
AcDbEntity
  8
0
  6
Continuous
 62
     7
370
    15
100
AcDbLine
 10
1780.1377427127
 20
3102.7881849756
 30
0.0
 11
1779.7654670026
 21
3102.7881849756
 31
0.0
  0
LINE
  5
159
330
1F
100
AcDbEntity
  8
0
  6
Continuous
 62
     7
370
    15
100
AcDbLine
 10
1799.2697160985
 20
3115.9207571496
 30
0.0
 11
1536.2469654825
 21
3115.9207571496
 31
0.0
  0
LINE
  5
15A
330
1F
100
AcDbEntity
  8
0
  6
Continuous
 62
     7
370
    15
100
AcDbLine
 10
1799.7069459703
 20
3115.9207571496
 30
0.0
 11
1799.2697160985
 21
3115.9207571496
 31
0.0
  0
LINE
  5
15B
330
1F
100
AcDbEntity
  8
0
  6
Continuous
 62
     7
370
    15
100
AcDbLine
 10
1704.9769562032
 20
3257.0810068597
 30
0.0
 11
1630.9769552495
 21
3257.0810068597
 31
0.0
  0
LINE
  5
15C
330
1F
100
AcDbEntity
  8
0
  6
Continuous
 62
     7
370
    15
100
AcDbLine
 10
1799.2697160985
 20
1763.9207143535
 30
0.0
 11
1536.2469654825
 21
1763.9207143535
 31
0.0
  0
LINE
  5
15D
330
1F
100
AcDbEntity
  8
0
  6
Continuous
 62
     7
370
    15
100
AcDbLine
 10
1799.7069459703
 20
1763.9207143535
 30
0.0
 11
1799.2697160985
 21
1763.9207143535
 31
0.0
  0
LINE
  5
15E
330
1F
100
AcDbEntity
  8
0
  6
Continuous
 62
     7
370
    15
100
AcDbLine
 10
1704.9769562032
 20
1905.0810087671
 30
0.0
 11
1630.9769552495
 21
1905.0810087671
 31
0.0
  0
LINE
  5
15F
330
1F
100
AcDbEntity
  8
0
  6
Continuous
 62
     7
370
    15
100
AcDbLine
 10
1779.7654670026
 20
1750.7882017841
 30
0.0
 11
1555.81616874
 21
1750.7882017841
 31
0.0
  0
LINE
  5
160
330
1F
100
AcDbEntity
  8
0
  6
Continuous
 62
     7
370
    15
100
AcDbLine
 10
1780.1377427127
 20
1750.7882017841
 30
0.0
 11
1779.7654670026
 21
1750.7882017841
 31
0.0
  0
LINE
  5
161
330
1F
100
AcDbEntity
  8
0
  6
Continuous
 62
     7
370
    15
100
AcDbLine
 10
1798.8391917493
 20
3089.5302046289
 30
0.0
 11
1536.6789203431
 21
3089.5302046289
 31
0.0
  0
LINE
  5
162
330
1F
100
AcDbEntity
  8
0
  6
Continuous
 62
     7
370
    15
100
AcDbLine
 10
1799.2749911096
 20
3089.5302046289
 30
0.0
 11
1798.8391917493
 21
3089.5302046289
 31
0.0
  0
LINE
  5
163
330
1F
100
AcDbEntity
  8
0
  6
Continuous
 62
     7
370
    15
100
AcDbLine
 10
1779.7654670026
 20
3102.2882212152
 30
0.0
 11
1555.81616874
 21
3102.2882212152
 31
0.0
  0
LINE
  5
164
330
1F
100
AcDbEntity
  8
0
  6
Continuous
 62
     7
370
    15
100
AcDbLine
 10
1780.1377427127
 20
3102.2882212152
 30
0.0
 11
1779.7654670026
 21
3102.2882212152
 31
0.0
  0
LINE
  5
165
330
1F
100
AcDbEntity
  8
0
  6
Continuous
 62
     7
370
    15
100
AcDbLine
 10
1704.9769562032
 20
2948.0809916009
 30
0.0
 11
1630.9769552495
 21
2948.0809916009
 31
0.0
  0
LINE
  5
166
330
1F
100
AcDbEntity
  8
0
  6
Continuous
 62
     7
370
    15
100
AcDbLine
 10
1704.9769562032
 20
1596.08101586
 30
0.0
 11
1630.9769552495
 21
1596.08101586
 31
0.0
  0
LINE
  5
167
330
1F
100
AcDbEntity
  8
0
  6
Continuous
 62
     7
370
    15
100
AcDbLine
 10
1798.8391917493
 20
1737.5302363386
 30
0.0
 11
1536.6789203431
 21
1737.5302363386
 31
0.0
  0
LINE
  5
168
330
1F
100
AcDbEntity
  8
0
  6
Continuous
 62
     7
370
    15
100
AcDbLine
 10
1799.2749911096
 20
1737.5302363386
 30
0.0
 11
1798.8391917493
 21
1737.5302363386
 31
0.0
  0
LINE
  5
169
330
1F
100
AcDbEntity
  8
0
  6
Continuous
 62
     7
370
    15
100
AcDbLine
 10
1779.7654670026
 20
1750.2881933202
 30
0.0
 11
1555.81616874
 21
1750.2881933202
 31
0.0
  0
LINE
  5
16A
330
1F
100
AcDbEntity
  8
0
  6
Continuous
 62
     7
370
    15
100
AcDbLine
 10
1780.1377427127
 20
1750.2881933202
 30
0.0
 11
1779.7654670026
 21
1750.2881933202
 31
0.0
  0
LINE
  5
16B
330
1F
100
AcDbEntity
  8
0
  6
Continuous
 62
     7
370
    15
100
AcDbLine
 10
1797.6975094821
 20
2420.4333175172
 30
0.0
 11
1537.8244024064
 21
2420.4333175172
 31
0.0
  0
LINE
  5
16C
330
1F
100
AcDbEntity
  8
0
  6
Continuous
 62
     7
370
    15
100
AcDbLine
 10
1798.1295090463
 20
2420.4333175172
 30
0.0
 11
1797.6975094821
 21
2420.4333175172
 31
0.0
  0
LINE
  5
16D
330
1F
100
AcDbEntity
  8
0
  6
Continuous
 62
     7
370
    15
100
AcDbLine
 10
1782.4116003063
 20
2437.5733483781
 30
0.0
 11
1553.1612213995
 21
2437.5733483781
 31
0.0
  0
LINE
  5
16E
330
1F
100
AcDbEntity
  8
0
  6
Continuous
 62
     7
370
    15
100
AcDbLine
 10
1782.7926900532
 20
2437.5733483781
 30
0.0
 11
1782.4116003063
 21
2437.5733483781
 31
0.0
  0
LINE
  5
16F
330
1F
100
AcDbEntity
  8
0
  6
Continuous
 62
     7
370
    15
100
AcDbLine
 10
1704.9769562032
 20
2337.0809901704
 30
0.0
 11
1630.9769552495
 21
2337.0809901704
 31
0.0
  0
LINE
  5
170
330
1F
100
AcDbEntity
  8
0
  6
Continuous
 62
     7
370
    15
100
AcDbLine
 10
1795.4005997922
 20
3709.9392164697
 30
0.0
 11
1540.128956392
 21
3709.9392164697
 31
0.0
  0
LINE
  5
171
330
1F
100
AcDbEntity
  8
0
  6
Continuous
 62
     7
370
    15
100
AcDbLine
 10
1795.8249550607
 20
3709.9392164697
 30
0.0
 11
1795.4005997922
 21
3709.9392164697
 31
0.0
  0
LINE
  5
172
330
1F
100
AcDbEntity
  8
0
  6
Continuous
 62
     7
370
    15
100
AcDbLine
 10
1779.655123904
 20
3726.6552198877
 30
0.0
 11
1555.9268843677
 21
3726.6552198877
 31
0.0
  0
LINE
  5
173
330
1F
100
AcDbEntity
  8
0
  6
Continuous
 62
     7
370
    15
100
AcDbLine
 10
1780.0270270851
 20
3726.6552198877
 30
0.0
 11
1779.655123904
 21
3726.6552198877
 31
0.0
  0
LINE
  5
174
330
1F
100
AcDbEntity
  8
0
  6
Continuous
 62
     7
370
    15
100
AcDbLine
 10
1704.9769562032
 20
3624.0811098566
 30
0.0
 11
1630.9769552495
 21
3624.0811098566
 31
0.0
  0
LINE
  5
175
330
1F
100
AcDbEntity
  8
0
  6
Continuous
 62
     7
370
    15
100
AcDbLine
 10
1727.8069991913
 20
2937.0810736169
 30
0.0
 11
1607.9476651099
 21
2937.0810736169
 31
0.0
  0
LINE
  5
176
330
1F
100
AcDbEntity
  8
0
  6
Continuous
 62
     7
370
    15
100
AcDbLine
 10
1728.0062463429
 20
2937.0810736169
 30
0.0
 11
1727.8069991913
 21
2937.0810736169
 31
0.0
  0
LINE
  5
177
330
1F
100
AcDbEntity
  8
0
  6
Continuous
 62
     7
370
    15
100
AcDbLine
 10
1704.9769562032
 20
2943.0809963693
 30
0.0
 11
1630.9769552495
 21
2943.0809963693
 31
0.0
  0
LINE
  5
178
330
1F
100
AcDbEntity
  8
0
  6
Continuous
 62
     7
370
    15
100
AcDbLine
 10
1727.8069991913
 20
2920.080994462
 30
0.0
 11
1607.9476651099
 21
2920.080994462
 31
0.0
  0
LINE
  5
179
330
1F
100
AcDbEntity
  8
0
  6
Continuous
 62
     7
370
    15
100
AcDbLine
 10
1728.0062463429
 20
2920.080994462
 30
0.0
 11
1727.8069991913
 21
2920.080994462
 31
0.0
  0
LINE
  5
17A
330
1F
100
AcDbEntity
  8
0
  6
Continuous
 62
     7
370
    15
100
AcDbLine
 10
1704.9769562032
 20
2914.0810717096
 30
0.0
 11
1630.9769552495
 21
2914.0810717096
 31
0.0
  0
LINE
  5
17B
330
1F
100
AcDbEntity
  8
0
  6
Continuous
 62
     7
370
    15
100
AcDbLine
 10
1723.2927445617
 20
3962.0809305658
 30
0.0
 11
1612.4769550111
 21
3962.0809305658
 31
0.0
  0
LINE
  5
17C
330
1F
100
AcDbEntity
  8
0
  6
Continuous
 62
     7
370
    15
100
AcDbLine
 10
1723.4769564416
 20
3962.0809305658
 30
0.0
 11
1723.2927445617
 21
3962.0809305658
 31
0.0
  0
LINE
  5
17D
330
1F
100
AcDbEntity
  8
0
  6
Continuous
 62
     7
370
    15
100
AcDbLine
 10
1723.2927445617
 20
3988.5809172143
 30
0.0
 11
1612.4769550111
 21
3988.5809172143
 31
0.0
  0
LINE
  5
17E
330
1F
100
AcDbEntity
  8
0
  6
Continuous
 62
     7
370
    15
100
AcDbLine
 10
1723.4769564416
 20
3988.5809172143
 30
0.0
 11
1723.2927445617
 21
3988.5809172143
 31
0.0
  0
LINE
  5
17F
330
1F
100
AcDbEntity
  8
0
  6
Continuous
 62
     7
370
    15
100
AcDbLine
 10
1704.9769562032
 20
3956.0811270227
 30
0.0
 11
1630.9769552495
 21
3956.0811270227
 31
0.0
  0
LINE
  5
180
330
1F
100
AcDbEntity
  8
0
  6
Continuous
 62
     7
370
    15
100
AcDbLine
 10
1723.2927445617
 20
3596.0809935083
 30
0.0
 11
1612.4769550111
 21
3596.0809935083
 31
0.0
  0
LINE
  5
181
330
1F
100
AcDbEntity
  8
0
  6
Continuous
 62
     7
370
    15
100
AcDbLine
 10
1723.4769564416
 20
3596.0809935083
 30
0.0
 11
1723.2927445617
 21
3596.0809935083
 31
0.0
  0
LINE
  5
182
330
1F
100
AcDbEntity
  8
0
  6
Continuous
 62
     7
370
    15
100
AcDbLine
 10
1723.2927445617
 20
3613.080953454
 30
0.0
 11
1612.4769550111
 21
3613.080953454
 31
0.0
  0
LINE
  5
183
330
1F
100
AcDbEntity
  8
0
  6
Continuous
 62
     7
370
    15
100
AcDbLine
 10
1723.4769564416
 20
3613.080953454
 30
0.0
 11
1723.2927445617
 21
3613.080953454
 31
0.0
  0
LINE
  5
184
330
1F
100
AcDbEntity
  8
0
  6
Continuous
 62
     7
370
    15
100
AcDbLine
 10
1704.9769562032
 20
3590.0809515466
 30
0.0
 11
1630.9769552495
 21
3590.0809515466
 31
0.0
  0
LINE
  5
185
330
1F
100
AcDbEntity
  8
0
  6
Continuous
 62
     7
370
    15
100
AcDbLine
 10
1704.9769562032
 20
3619.0809954156
 30
0.0
 11
1630.9769552495
 21
3619.0809954156
 31
0.0
  0
LINE
  5
186
330
1F
100
AcDbEntity
  8
0
  6
Continuous
 62
     7
370
    15
100
AcDbLine
 10
1704.9769562032
 20
3262.0810020914
 30
0.0
 11
1630.9769552495
 21
3262.0810020914
 31
0.0
  0
LINE
  5
187
330
1F
100
AcDbEntity
  8
0
  6
Continuous
 62
     7
370
    15
100
AcDbLine
 10
1723.2927445617
 20
3268.081044053
 30
0.0
 11
1612.4769550111
 21
3268.081044053
 31
0.0
  0
LINE
  5
188
330
1F
100
AcDbEntity
  8
0
  6
Continuous
 62
     7
370
    15
100
AcDbLine
 10
1723.4769564416
 20
3268.081044053
 30
0.0
 11
1723.2927445617
 21
3268.081044053
 31
0.0
  0
LINE
  5
189
330
1F
100
AcDbEntity
  8
0
  6
Continuous
 62
     7
370
    15
100
AcDbLine
 10
1723.2927445617
 20
3285.0810039987
 30
0.0
 11
1612.4769550111
 21
3285.0810039987
 31
0.0
  0
LINE
  5
18A
330
1F
100
AcDbEntity
  8
0
  6
Continuous
 62
     7
370
    15
100
AcDbLine
 10
1723.4769564416
 20
3285.0810039987
 30
0.0
 11
1723.2927445617
 21
3285.0810039987
 31
0.0
  0
LINE
  5
18B
330
1F
100
AcDbEntity
  8
0
  6
Continuous
 62
     7
370
    15
100
AcDbLine
 10
1704.9769562032
 20
3291.0810459604
 30
0.0
 11
1630.9769552495
 21
3291.0810459604
 31
0.0
  0
LINE
  5
18C
330
1F
100
AcDbEntity
  8
0
  6
Continuous
 62
     7
370
    15
100
AcDbLine
 10
1704.9769562032
 20
1910.0810039987
 30
0.0
 11
1630.9769552495
 21
1910.0810039987
 31
0.0
  0
LINE
  5
18D
330
1F
100
AcDbEntity
  8
0
  6
Continuous
 62
     7
370
    15
100
AcDbLine
 10
1723.2927445617
 20
1916.0810161581
 30
0.0
 11
1612.4769550111
 21
1916.0810161581
 31
0.0
  0
LINE
  5
18E
330
1F
100
AcDbEntity
  8
0
  6
Continuous
 62
     7
370
    15
100
AcDbLine
 10
1723.4769564416
 20
1916.0810161581
 30
0.0
 11
1723.2927445617
 21
1916.0810161581
 31
0.0
  0
LINE
  5
18F
330
1F
100
AcDbEntity
  8
0
  6
Continuous
 62
     7
370
    15
100
AcDbLine
 10
1723.2927445617
 20
1933.0810059061
 30
0.0
 11
1612.4769550111
 21
1933.0810059061
 31
0.0
  0
LINE
  5
190
330
1F
100
AcDbEntity
  8
0
  6
Continuous
 62
     7
370
    15
100
AcDbLine
 10
1723.4769564416
 20
1933.0810059061
 30
0.0
 11
1723.2927445617
 21
1933.0810059061
 31
0.0
  0
LINE
  5
191
330
1F
100
AcDbEntity
  8
0
  6
Continuous
 62
     7
370
    15
100
AcDbLine
 10
1704.9769562032
 20
1939.0810180654
 30
0.0
 11
1630.9769552495
 21
1939.0810180654
 31
0.0
  0
LINE
  5
192
330
1F
100
AcDbEntity
  8
0
  6
Continuous
 62
     7
370
    15
100
AcDbLine
 10
1723.2927445617
 20
1585.0810159196
 30
0.0
 11
1612.4769550111
 21
1585.0810159196
 31
0.0
  0
LINE
  5
193
330
1F
100
AcDbEntity
  8
0
  6
Continuous
 62
     7
370
    15
100
AcDbLine
 10
1723.4769564416
 20
1585.0810159196
 30
0.0
 11
1723.2927445617
 21
1585.0810159196
 31
0.0
  0
LINE
  5
194
330
1F
100
AcDbEntity
  8
0
  6
Continuous
 62
     7
370
    15
100
AcDbLine
 10
1704.9769562032
 20
1591.0810131778
 30
0.0
 11
1630.9769552495
 21
1591.0810131778
 31
0.0
  0
LINE
  5
195
330
1F
100
AcDbEntity
  8
0
  6
Continuous
 62
     7
370
    15
100
AcDbLine
 10
1723.2927445617
 20
1549.5810147573
 30
0.0
 11
1612.4769550111
 21
1549.5810147573
 31
0.0
  0
LINE
  5
196
330
1F
100
AcDbEntity
  8
0
  6
Continuous
 62
     7
370
    15
100
AcDbLine
 10
1723.4769564416
 20
1549.5810147573
 30
0.0
 11
1723.2927445617
 21
1549.5810147573
 31
0.0
  0
LINE
  5
197
330
1F
100
AcDbEntity
  8
0
  6
Continuous
 62
     7
370
    15
100
AcDbLine
 10
1704.9769562032
 20
2596.0809935083
 30
0.0
 11
1630.9769552495
 21
2596.0809935083
 31
0.0
  0
LINE
  5
198
330
1F
100
AcDbEntity
  8
0
  6
Continuous
 62
     7
370
    15
100
AcDbLine
 10
1723.2927445617
 20
2602.08103547
 30
0.0
 11
1612.4769550111
 21
2602.08103547
 31
0.0
  0
LINE
  5
199
330
1F
100
AcDbEntity
  8
0
  6
Continuous
 62
     7
370
    15
100
AcDbLine
 10
1723.4769564416
 20
2602.08103547
 30
0.0
 11
1723.2927445617
 21
2602.08103547
 31
0.0
  0
LINE
  5
19A
330
1F
100
AcDbEntity
  8
0
  6
Continuous
 62
     7
370
    15
100
AcDbLine
 10
1723.2927445617
 20
2619.0809954156
 30
0.0
 11
1612.4769550111
 21
2619.0809954156
 31
0.0
  0
LINE
  5
19B
330
1F
100
AcDbEntity
  8
0
  6
Continuous
 62
     7
370
    15
100
AcDbLine
 10
1723.4769564416
 20
2619.0809954156
 30
0.0
 11
1723.2927445617
 21
2619.0809954156
 31
0.0
  0
LINE
  5
19C
330
1F
100
AcDbEntity
  8
0
  6
Continuous
 62
     7
370
    15
100
AcDbLine
 10
1704.9769562032
 20
2625.0810373773
 30
0.0
 11
1630.9769552495
 21
2625.0810373773
 31
0.0
  0
LINE
  5
19D
330
1F
100
AcDbEntity
  8
0
  6
Continuous
 62
     7
370
    15
100
AcDbLine
 10
1704.9769562032
 20
2303.0810106744
 30
0.0
 11
1630.9769552495
 21
2303.0810106744
 31
0.0
  0
LINE
  5
19E
330
1F
100
AcDbEntity
  8
0
  6
Continuous
 62
     7
370
    15
100
AcDbLine
 10
1723.2927445617
 20
2309.0809930315
 30
0.0
 11
1612.4769550111
 21
2309.0809930315
 31
0.0
  0
LINE
  5
19F
330
1F
100
AcDbEntity
  8
0
  6
Continuous
 62
     7
370
    15
100
AcDbLine
 10
1723.4769564416
 20
2309.0809930315
 30
0.0
 11
1723.2927445617
 21
2309.0809930315
 31
0.0
  0
LINE
  5
1A0
330
1F
100
AcDbEntity
  8
0
  6
Continuous
 62
     7
370
    15
100
AcDbLine
 10
1723.2927445617
 20
2326.0810125818
 30
0.0
 11
1612.4769550111
 21
2326.0810125818
 31
0.0
  0
LINE
  5
1A1
330
1F
100
AcDbEntity
  8
0
  6
Continuous
 62
     7
370
    15
100
AcDbLine
 10
1723.4769564416
 20
2326.0810125818
 30
0.0
 11
1723.2927445617
 21
2326.0810125818
 31
0.0
  0
LINE
  5
1A2
330
1F
100
AcDbEntity
  8
0
  6
Continuous
 62
     7
370
    15
100
AcDbLine
 10
1704.9769562032
 20
2332.0809949388
 30
0.0
 11
1630.9769552495
 21
2332.0809949388
 31
0.0
  0
LINE
  5
1A3
330
1F
100
AcDbEntity
  8
0
  6
Continuous
 62
     7
370
    15
100
AcDbLine
 10
1692.6901590373
 20
1541.0810142954
 30
0.0
 11
1685.6901597526
 21
1541.0810142954
 31
0.0
  0
LINE
  5
1A4
330
1F
100
AcDbEntity
  8
0
  6
Continuous
 62
     7
370
    15
100
AcDbLine
 10
1686.1901589032
 20
1541.5810143774
 30
0.0
 11
1692.1901598867
 21
1541.5810143774
 31
0.0
  0
LINE
  5
1A5
330
1F
100
AcDbEntity
  8
0
  6
Continuous
 62
     7
370
    15
100
AcDbLine
 10
1650.2637517001
 20
1541.0810142954
 30
0.0
 11
1643.2637524154
 21
1541.0810142954
 31
0.0
  0
LINE
  5
1A6
330
1F
100
AcDbEntity
  8
0
  6
Continuous
 62
     7
370
    15
100
AcDbLine
 10
1643.763751566
 20
1541.5810143774
 30
0.0
 11
1649.7637525495
 21
1541.5810143774
 31
0.0
  0
LINE
  5
1A7
330
1F
100
AcDbEntity
  8
0
  6
Continuous
 62
     7
370
    15
100
AcDbLine
 10
1670.1145750299
 20
1538.9310181805
 30
0.0
 11
1668.5251316117
 21
1538.9310181805
 31
0.0
  0
LINE
  5
1A8
330
1F
100
AcDbEntity
  8
0
  6
Continuous
 62
     7
370
    15
100
AcDbLine
 10
1670.1145745643
 20
1545.9687935387
 30
0.0
 11
1670.1145747971
 21
1538.9310181805
 31
0.0
  0
SPLINE
  5
1A9
330
1F
100
AcDbEntity
  8
0
  6
Continuous
 62
     7
370
    15
100
AcDbSpline
210
0.0
220
0.0
230
1.0
 70
     8
 71
     3
 72
     9
 73
     5
 74
     0
 42
0.00000001
 43
0.00000001
 40
0.0
 40
0.0
 40
0.0
 40
0.0
 40
0.5870927458733617
 40
1.0
 40
1.0
 40
1.0
 40
1.0
 10
1674.776109244304
 20
1546.431018245709
 30
0.0
 10
1673.965709655646
 20
1546.307689786933
 30
0.0
 10
1672.585349236693
 20
1546.097623388322
 30
0.0
 10
1670.836632916684
 20
1546.006442045338
 30
0.0
 10
1670.114575262742
 20
1545.968792607379
 30
0.0
  0
SPLINE
  5
1AA
330
1F
100
AcDbEntity
  8
0
  6
Continuous
 62
     7
370
    15
100
AcDbSpline
210
0.0
220
0.0
230
1.0
 70
    24
 71
     3
 72
    10
 73
     6
 74
     0
 42
0.00000001
 43
0.00000001
 40
0.0
 40
0.0
 40
0.0
 40
0.0
 40
0.4433550355604044
 40
0.8867101852574908
 40
1.0
 40
1.0
 40
1.0
 40
1.0
 10
1674.776109244304
 20
1546.431018245709
 30
0.0
 10
1675.445750421358
 20
1546.431018245709
 30
0.0
 10
1676.785032947858
 20
1546.431018245709
 30
0.0
 10
1677.411057472093
 20
1546.431018245709
 30
0.0
 10
1677.465165551145
 20
1546.431018245709
 30
0.0
 10
1677.476177766548
 20
1546.431018245709
 30
0.0
  0
LINE
  5
1AB
330
1F
100
AcDbEntity
  8
0
  6
Continuous
 62
     7
370
    15
100
AcDbLine
 10
1677.4761768352
 20
1546.4310182457
 30
0.0
 11
1677.4761777665
 21
1542.1310087865
 31
0.0
  0
LINE
  5
1AC
330
1F
100
AcDbEntity
  8
0
  6
Continuous
 62
     7
370
    15
100
AcDbLine
 10
1677.3577880409
 20
1538.5810145841
 30
0.0
 11
1677.3577871095
 21
1542.1310087865
 31
0.0
  0
SPLINE
  5
1AD
330
1F
100
AcDbEntity
  8
0
  6
Continuous
 62
     7
370
    15
100
AcDbSpline
210
0.0
220
0.0
230
1.0
 70
     8
 71
     3
 72
    12
 73
     8
 74
     0
 42
0.00000001
 43
0.00000001
 40
0.0
 40
0.0
 40
0.0
 40
0.0
 40
0.2869982648334274
 40
0.5168230725190778
 40
0.7097584290433115
 40
0.9035601877307017
 40
1.0
 40
1.0
 40
1.0
 40
1.0
 10
1673.976974870639
 20
1543.831012417865
 30
0.0
 10
1673.857721715226
 20
1543.817846451481
 30
0.0
 10
1673.642972046881
 20
1543.794137335318
 30
0.0
 10
1673.365813209374
 20
1543.613942619385
 30
0.0
 10
1673.176978786247
 20
1543.375984834642
 30
0.0
 10
1673.087587130477
 20
1543.134944850675
 30
0.0
 10
1673.07961331915
 20
1542.981878587456
 30
0.0
 10
1673.076963826643
 20
1542.931018603337
 30
0.0
  0
SPLINE
  5
1AE
330
1F
100
AcDbEntity
  8
0
  6
Continuous
 62
     7
370
    15
100
AcDbSpline
210
0.0
220
0.0
230
1.0
 70
     8
 71
     3
 72
    12
 73
     8
 74
     0
 42
0.00000001
 43
0.00000001
 40
0.0
 40
0.0
 40
0.0
 40
0.0
 40
0.2829904292621849
 40
0.5136240804062161
 40
0.7069838169703334
 40
0.9012186812300207
 40
1.0
 40
1.0
 40
1.0
 40
1.0
 10
1673.976959503816
 20
1542.031024788809
 30
0.0
 10
1673.859418207533
 20
1542.04384030456
 30
0.0
 10
1673.646082228747
 20
1542.06710030494
 30
0.0
 10
1673.369375824677
 20
1542.244846499836
 30
0.0
 10
1673.179054801606
 20
1542.482259609405
 30
0.0
 10
1673.087980172267
 20
1542.724373269771
 30
0.0
 10
1673.079741305172
 20
1542.878918478978
 30
0.0
 10
1673.076963826643
 20
1542.931018603337
 30
0.0
  0
SPLINE
  5
1AF
330
1F
100
AcDbEntity
  8
0
  6
Continuous
 62
     7
370
    15
100
AcDbSpline
210
0.0
220
0.0
230
1.0
 70
     8
 71
     3
 72
    12
 73
     8
 74
     0
 42
0.00000001
 43
0.00000001
 40
0.0
 40
0.0
 40
0.0
 40
0.0
 40
0.142545632764974
 40
0.2842378844385575
 40
0.4918388362460112
 40
0.772166284127682
 40
1.0
 40
1.0
 40
1.0
 40
1.0
 10
1674.876953784006
 20
1542.931018603337
 30
0.0
 10
1674.870546556996
 20
1542.851431197782
 30
0.0
 10
1674.857770461264
 20
1542.692732854353
 30
0.0
 10
1674.754664994079
 20
1542.454811528975
 30
0.0
 10
1674.565337860673
 20
1542.223848992513
 30
0.0
 10
1674.291465225625
 20
1542.061707166288
 30
0.0
 10
1674.074317527963
 20
1542.040522789768
 30
0.0
 10
1673.976959503816
 20
1542.031024788809
 30
0.0
  0
SPLINE
  5
1B0
330
1F
100
AcDbEntity
  8
0
  6
Continuous
 62
     7
370
    15
100
AcDbSpline
210
0.0
220
0.0
230
1.0
 70
     8
 71
     3
 72
    12
 73
     8
 74
     0
 42
0.00000001
 43
0.00000001
 40
0.0
 40
0.0
 40
0.0
 40
0.0
 40
0.267845260025499
 40
0.5747583973746532
 40
0.7549088282954436
 40
0.8994494464638697
 40
1.0
 40
1.0
 40
1.0
 40
1.0
 10
1673.976974870639
 20
1543.831012417865
 30
0.0
 10
1674.091237286196
 20
1543.818061011569
 30
0.0
 10
1674.336428419461
 20
1543.790269108419
 30
0.0
 10
1674.616894121059
 20
1543.594074646917
 30
0.0
 10
1674.790521003948
 20
1543.340535236222
 30
0.0
 10
1674.865962957879
 20
1543.1235419307
 30
0.0
 10
1674.873756445345
 20
1542.98702551952
 30
0.0
 10
1674.876953784006
 20
1542.931018603337
 30
0.0
  0
LINE
  5
1B1
330
1F
100
AcDbEntity
  8
0
  6
Continuous
 62
     7
370
    15
100
AcDbLine
 10
1658.5967092138
 20
1542.1310087865
 30
0.0
 11
1658.5967092138
 21
1538.5810145841
 31
0.0
  0
LINE
  5
1B2
330
1F
100
AcDbEntity
  8
0
  6
Continuous
 62
     7
370
    15
100
AcDbLine
 10
1658.555310994
 20
1546.4310182457
 30
0.0
 11
1658.555310994
 21
1542.1310087865
 31
0.0
  0
SPLINE
  5
1B3
330
1F
100
AcDbEntity
  8
0
  6
Continuous
 62
     7
370
    15
100
AcDbSpline
210
0.0
220
0.0
230
1.0
 70
    24
 71
     3
 72
     9
 73
     5
 74
     0
 42
0.00000001
 43
0.00000001
 40
0.0
 40
0.0
 40
0.0
 40
0.0
 40
0.5227349259595006
 40
1.0
 40
1.0
 40
1.0
 40
1.0
 10
1658.555310994016
 20
1546.431018245709
 30
0.0
 10
1658.786125266247
 20
1546.431018245709
 30
0.0
 10
1659.22767653969
 20
1546.431018245709
 30
0.0
 10
1660.548145763251
 20
1546.431018245709
 30
0.0
 10
1661.178359605001
 20
1546.431018245709
 30
0.0
  0
SPLINE
  5
1B4
330
1F
100
AcDbEntity
  8
0
  6
Continuous
 62
     7
370
    15
100
AcDbSpline
210
0.0
220
0.0
230
1.0
 70
     8
 71
     3
 72
     9
 73
     5
 74
     0
 42
0.00000001
 43
0.00000001
 40
0.0
 40
0.0
 40
0.0
 40
0.0
 40
0.5871484501992509
 40
1.0
 40
1.0
 40
1.0
 40
1.0
 10
1661.178359605001
 20
1546.431022902322
 30
0.0
 10
1661.988754833713
 20
1546.307694283994
 30
0.0
 10
1663.368976868595
 20
1546.097647543199
 30
0.0
 10
1665.117495839899
 20
1546.006461988161
 30
0.0
 10
1665.839374607058
 20
1545.968815890443
 30
0.0
  0
LINE
  5
1B5
330
1F
100
AcDbEntity
  8
0
  6
Continuous
 62
     7
370
    15
100
AcDbLine
 10
1665.8393746071
 20
1538.9310181805
 30
0.0
 11
1665.8393748399
 21
1545.9688158904
 31
0.0
  0
SPLINE
  5
1B6
330
1F
100
AcDbEntity
  8
0
  6
Continuous
 62
     7
370
    15
100
AcDbSpline
210
0.0
220
0.0
230
1.0
 70
     8
 71
     3
 72
    12
 73
     8
 74
     0
 42
0.00000001
 43
0.00000001
 40
0.0
 40
0.0
 40
0.0
 40
0.0
 40
0.1425320193105601
 40
0.2842103777091506
 40
0.4918050058176563
 40
0.7721457475738843
 40
1.0
 40
1.0
 40
1.0
 40
1.0
 10
1661.076966050642
 20
1542.931018603337
 30
0.0
 10
1661.083372721522
 20
1543.0106019831
 30
0.0
 10
1661.096147692082
 20
1543.169292097301
 30
0.0
 10
1661.199242944275
 20
1543.407205730816
 30
0.0
 10
1661.388562006329
 20
1543.638172753845
 30
0.0
 10
1661.662435454199
 20
1543.80032652197
 30
0.0
 10
1661.879592542613
 20
1543.821513173213
 30
0.0
 10
1661.976957071202
 20
1543.831012417865
 30
0.0
  0
SPLINE
  5
1B7
330
1F
100
AcDbEntity
  8
0
  6
Continuous
 62
     7
370
    15
100
AcDbSpline
210
0.0
220
0.0
230
1.0
 70
     8
 71
     3
 72
    12
 73
     8
 74
     0
 42
0.00000001
 43
0.00000001
 40
0.0
 40
0.0
 40
0.0
 40
0.0
 40
0.2678316171433785
 40
0.5747693280872584
 40
0.7549097184662953
 40
0.8994390931933428
 40
1.0
 40
1.0
 40
1.0
 40
1.0
 10
1661.97694542967
 20
1542.031024788809
 30
0.0
 10
1661.862691165275
 20
1542.043974509005
 30
0.0
 10
1661.617500371606
 20
1542.071764738015
 30
0.0
 10
1661.337036040228
 20
1542.26795010744
 30
0.0
 10
1661.163406023512
 20
1542.5214893131
 30
0.0
 10
1661.087959543968
 20
1542.738480772777
 30
0.0
 10
1661.080164406948
 20
1542.875003234408
 30
0.0
 10
1661.076966050642
 20
1542.931018603337
 30
0.0
  0
SPLINE
  5
1B8
330
1F
100
AcDbEntity
  8
0
  6
Continuous
 62
     7
370
    15
100
AcDbSpline
210
0.0
220
0.0
230
1.0
 70
     8
 71
     3
 72
    12
 73
     8
 74
     0
 42
0.00000001
 43
0.00000001
 40
0.0
 40
0.0
 40
0.0
 40
0.0
 40
0.2869890110157928
 40
0.5168206405181381
 40
0.7097532717665719
 40
0.9035527090972083
 40
1.0
 40
1.0
 40
1.0
 40
1.0
 10
1661.97694542967
 20
1542.031024788809
 30
0.0
 10
1662.096190767656
 20
1542.044189326289
 30
0.0
 10
1662.310932272004
 20
1542.067896522146
 30
0.0
 10
1662.588087259235
 20
1542.248080106245
 30
0.0
 10
1662.776927317179
 20
1542.486035165582
 30
0.0
 10
1662.866326656309
 20
1542.727079837734
 30
0.0
 10
1662.874301742527
 20
1542.880153214996
 30
0.0
 10
1662.876951817052
 20
1542.931018603337
 30
0.0
  0
SPLINE
  5
1B9
330
1F
100
AcDbEntity
  8
0
  6
Continuous
 62
     7
370
    15
100
AcDbSpline
210
0.0
220
0.0
230
1.0
 70
     8
 71
     3
 72
    13
 73
     9
 74
     0
 42
0.00000001
 43
0.00000001
 40
0.0
 40
0.0
 40
0.0
 40
0.0
 40
0.1680970124970909
 40
0.3358032715020093
 40
0.5127753529585934
 40
0.7139023270900351
 40
0.9530776521963582
 40
1.0
 40
1.0
 40
1.0
 40
1.0
 10
1662.876951817052
 20
1542.931018603337
 30
0.0
 10
1662.869062816154
 20
1543.020080854743
 30
0.0
 10
1662.853303152903
 20
1543.197998326002
 30
0.0
 10
1662.734875445409
 20
1543.43732179366
 30
0.0
 10
1662.558261021358
 20
1543.635625215118
 30
0.0
 10
1662.316869102642
 20
1543.780440259775
 30
0.0
 10
1662.113366152925
 20
1543.828194350525
 30
0.0
 10
1661.996177039907
 20
1543.830615353642
 30
0.0
 10
1661.976957071202
 20
1543.831012417865
 30
0.0
  0
LINE
  5
1BA
330
1F
100
AcDbEntity
  8
0
  6
Continuous
 62
     7
370
    15
100
AcDbLine
 10
1669.3769563749
 20
1546.3690825005
 30
0.0
 11
1669.3769560257
 21
1538.9310181805
 31
0.0
  0
LINE
  5
1BB
330
1F
100
AcDbEntity
  8
0
  6
Continuous
 62
     7
370
    15
100
AcDbLine
 10
1669.3769563749
 20
1546.3690825005
 30
0.0
 11
1670.1145745643
 21
1545.9687935387
 31
0.0
  0
LINE
  5
1BC
330
1F
100
AcDbEntity
  8
0
  6
Continuous
 62
     7
370
    15
100
AcDbLine
 10
1669.3769563749
 20
1546.3690825005
 30
0.0
 11
1669.3769562585
 21
1546.4310182457
 31
0.0
  0
LINE
  5
1BD
330
1F
100
AcDbEntity
  8
0
  6
Continuous
 62
     7
370
    15
100
AcDbLine
 10
1669.3769562585
 20
1546.4310182457
 30
0.0
 11
1674.7761092443
 21
1546.4310182457
 31
0.0
  0
LINE
  5
1BE
330
1F
100
AcDbEntity
  8
0
  6
Continuous
 62
     7
370
    15
100
AcDbLine
 10
1666.5769551942
 20
1546.3690834319
 30
0.0
 11
1666.5769551942
 21
1546.4310182457
 31
0.0
  0
LINE
  5
1BF
330
1F
100
AcDbEntity
  8
0
  6
Continuous
 62
     7
370
    15
100
AcDbLine
 10
1665.8393748399
 20
1545.9688158904
 30
0.0
 11
1666.5769551942
 21
1546.3690834319
 31
0.0
  0
LINE
  5
1C0
330
1F
100
AcDbEntity
  8
0
  6
Continuous
 62
     7
370
    15
100
AcDbLine
 10
1661.1783591393
 20
1546.4310182457
 30
0.0
 11
1666.5769551942
 21
1546.4310182457
 31
0.0
  0
LINE
  5
1C1
330
1F
100
AcDbEntity
  8
0
  6
Continuous
 62
     7
370
    15
100
AcDbLine
 10
1666.5769551942
 20
1546.3690834319
 30
0.0
 11
1666.5769557763
 21
1538.9310181805
 31
0.0
  0
SPLINE
  5
1C2
330
1F
100
AcDbEntity
  8
0
  6
Continuous
 62
     7
370
    15
100
AcDbSpline
210
0.0
220
0.0
230
1.0
 70
     8
 71
     3
 72
    12
 73
     8
 74
     0
 42
0.00000001
 43
0.00000001
 40
0.0
 40
0.0
 40
0.0
 40
0.0
 40
0.2150134599249177
 40
0.4299798735535531
 40
0.645041039833755
 40
0.858874943632265
 40
1.0
 40
1.0
 40
1.0
 40
1.0
 10
1673.976963229107
 20
1542.031024788809
 30
0.0
 10
1673.875666424502
 20
1542.041105876112
 30
0.0
 10
1673.673094979668
 20
1542.061265844912
 30
0.0
 10
1673.402948079784
 20
1542.216509130948
 30
0.0
 10
1673.199852498525
 20
1542.445203207675
 30
0.0
 10
1673.092525559178
 20
1542.698011857231
 30
0.0
 10
1673.081394797599
 20
1542.864733278508
 30
0.0
 10
1673.076969414579
 20
1542.931018603337
 30
0.0
  0
SPLINE
  5
1C3
330
1F
100
AcDbEntity
  8
0
  6
Continuous
 62
     7
370
    15
100
AcDbSpline
210
0.0
220
0.0
230
1.0
 70
     8
 71
     3
 72
    12
 73
     8
 74
     0
 42
0.00000001
 43
0.00000001
 40
0.0
 40
0.0
 40
0.0
 40
0.0
 40
0.2150137338646913
 40
0.4299806863836704
 40
0.6450418511680213
 40
0.8588761525428484
 40
1.0
 40
1.0
 40
1.0
 40
1.0
 10
1673.976961832123
 20
1543.831012417865
 30
0.0
 10
1673.875664996171
 20
1543.820931206744
 30
0.0
 10
1673.673093363801
 20
1543.800770977911
 30
0.0
 10
1673.402946959242
 20
1543.64552668071
 30
0.0
 10
1673.19985136653
 20
1543.416832501766
 30
0.0
 10
1673.092525291613
 20
1543.164024147362
 30
0.0
 10
1673.081394701596
 20
1542.997303288324
 30
0.0
 10
1673.076969414579
 20
1542.931018603337
 30
0.0
  0
SPLINE
  5
1C4
330
1F
100
AcDbEntity
  8
0
  6
Continuous
 62
     7
370
    15
100
AcDbSpline
210
0.0
220
0.0
230
1.0
 70
     8
 71
     3
 72
    12
 73
     8
 74
     0
 42
0.00000001
 43
0.00000001
 40
0.0
 40
0.0
 40
0.0
 40
0.0
 40
0.2150126883888239
 40
0.4299787560643484
 40
0.6450392625774829
 40
0.8588726359640685
 40
0.9999999999999999
 40
0.9999999999999999
 40
0.9999999999999999
 40
0.9999999999999999
 10
1661.97696731575
 20
1542.031024788809
 30
0.0
 10
1661.875670542997
 20
1542.041105405108
 30
0.0
 10
1661.67309896144
 20
1542.061264451949
 30
0.0
 10
1661.402951392175
 20
1542.216506674126
 30
0.0
 10
1661.199854788027
 20
1542.445199952089
 30
0.0
 10
1661.092526000542
 20
1542.698009266375
 30
0.0
 10
1661.081394884447
 20
1542.864732003387
 30
0.0
 10
1661.076969310271
 20
1542.931018603337
 30
0.0
  0
SPLINE
  5
1C5
330
1F
100
AcDbEntity
  8
0
  6
Continuous
 62
     7
370
    15
100
AcDbSpline
210
0.0
220
0.0
230
1.0
 70
     8
 71
     3
 72
    12
 73
     8
 74
     0
 42
0.00000001
 43
0.00000001
 40
0.0
 40
0.0
 40
0.0
 40
0.0
 40
0.2150133892244741
 40
0.42997973216839
 40
0.6450408277327161
 40
0.8588746612188956
 40
1.0
 40
1.0
 40
1.0
 40
1.0
 10
1661.076969310271
 20
1542.931018603337
 30
0.0
 10
1661.08705039757
 20
1543.032315407911
 30
0.0
 10
1661.107210366365
 20
1543.234886852682
 30
0.0
 10
1661.262453652448
 20
1543.505033753032
 30
0.0
 10
1661.49114772899
 20
1543.708129332524
 30
0.0
 10
1661.74395652499
 20
1543.815456339605
 30
0.0
 10
1661.910678108208
 20
1543.826587049272
 30
0.0
 10
1661.97696359046
 20
1543.831012417865
 30
0.0
  0
LINE
  5
1C6
330
1F
100
AcDbEntity
  8
0
  6
Continuous
 62
     7
370
    15
100
AcDbLine
 10
1666.5769553106
 20
1546.4310173144
 30
0.0
 11
1666.5769551942
 21
1546.4310182457
 31
0.0
  0
SPLINE
  5
1C7
330
1F
100
AcDbEntity
  8
0
  6
Continuous
 62
     7
370
    15
100
AcDbSpline
210
0.0
220
0.0
230
1.0
 70
     8
 71
     3
 72
     9
 73
     5
 74
     0
 42
0.00000001
 43
0.00000001
 40
0.0
 40
0.0
 40
0.0
 40
0.0
 40
0.5040994394224375
 40
1.0
 40
1.0
 40
1.0
 40
1.0
 10
1666.57695531063
 20
1546.431017314387
 30
0.0
 10
1666.576955629719
 20
1546.590156205149
 30
0.0
 10
1666.576956262709
 20
1546.905845686861
 30
0.0
 10
1666.576956793594
 20
1546.949433931125
 30
0.0
 10
1666.576957056859
 20
1546.97104936589
 30
0.0
  0
LINE
  5
1C8
330
1F
100
AcDbEntity
  8
0
  6
Continuous
 62
     7
370
    15
100
AcDbLine
 10
1666.5769591523
 20
1546.4310182457
 30
0.0
 11
1666.5769588031
 21
1538.9310181805
 31
0.0
  0
LINE
  5
1C9
330
1F
100
AcDbEntity
  8
0
  6
Continuous
 62
     7
370
    15
100
AcDbLine
 10
1669.3769526497
 20
1538.9310181805
 30
0.0
 11
1669.3769520676
 21
1546.4310182457
 31
0.0
  0
LINE
  5
1CA
330
1F
100
AcDbEntity
  8
0
  6
Continuous
 62
     7
370
    15
100
AcDbLine
 10
1669.3769524168
 20
1546.4310173144
 30
0.0
 11
1669.3769520676
 21
1546.4310182457
 31
0.0
  0
SPLINE
  5
1CB
330
1F
100
AcDbEntity
  8
0
  6
Continuous
 62
     7
370
    15
100
AcDbSpline
210
0.0
220
0.0
230
1.0
 70
     8
 71
     3
 72
     9
 73
     5
 74
     0
 42
0.00000001
 43
0.00000001
 40
0.0
 40
0.0
 40
0.0
 40
0.0
 40
0.0067516613445131
 40
1.0
 40
1.0
 40
1.0
 40
1.0
 10
1669.376954395885
 20
1546.971432139468
 30
0.0
 10
1669.37695439587
 20
1546.972036837439
 30
0.0
 10
1669.37695439376
 20
1547.061599678417
 30
0.0
 10
1669.376955329303
 20
1546.74523911974
 30
0.0
 10
1669.37695625853
 20
1546.431014520419
 30
0.0
  0
LWPOLYLINE
  5
1CC
330
1F
100
AcDbEntity
  8
0
  6
Continuous
 62
     7
370
    15
100
AcDbPolyline
 90
        5
 70
   128
 43
0.0
 10
1674.2444502484
 20
1546.4310182457
 10
1674.2444493171
 20
1546.5176377644
 10
1674.2444488514
 20
1546.5570541297
 10
1674.2444483858
 20
1546.5964695637
 10
1674.2444474544
 20
1546.6830909451
  0
SPLINE
  5
1CD
330
1F
100
AcDbEntity
  8
0
  6
Continuous
 62
     7
370
    15
100
AcDbSpline
210
0.0
220
0.0
230
1.0
 70
     8
 71
     3
 72
    11
 73
     7
 74
     0
 42
0.00000001
 43
0.00000001
 40
0.0
 40
0.0
 40
0.0
 40
0.0
 40
0.1968775517099176
 40
0.5894785972592931
 40
0.9886363853771111
 40
1.0
 40
1.0
 40
1.0
 40
1.0
 10
1672.372935648637
 20
1546.431008932483
 30
0.0
 10
1672.511602399646
 20
1546.446906520152
 30
0.0
 10
1672.926789815182
 20
1546.494506094597
 30
0.0
 10
1673.564985532709
 20
1546.579550114922
 30
0.0
 10
1674.023586520555
 20
1546.64826222849
 30
0.0
 10
1674.238498491014
 20
1546.682153728137
 30
0.0
 10
1674.24444745444
 20
1546.6830918764
 30
0.0
  0
SPLINE
  5
1CE
330
1F
100
AcDbEntity
  8
0
  6
Continuous
 62
     7
370
    15
100
AcDbSpline
210
0.0
220
0.0
230
1.0
 70
     8
 71
     3
 72
    10
 73
     6
 74
     0
 42
0.00000001
 43
0.00000001
 40
0.0
 40
0.0
 40
0.0
 40
0.0
 40
0.2127668026815235
 40
0.641535339543851
 40
1.0
 40
1.0
 40
1.0
 40
1.0
 10
1674.24444745444
 20
1546.6830918764
 30
0.0
 10
1674.452599057281
 20
1546.716984224902
 30
0.0
 10
1675.080218627264
 20
1546.819176573661
 30
0.0
 10
1675.767254120242
 20
1546.951586720838
 30
0.0
 10
1675.778816588538
 20
1546.953995970454
 30
0.0
 10
1675.784081529455
 20
1546.955093016219
 30
0.0
  0
SPLINE
  5
1CF
330
1F
100
AcDbEntity
  8
0
  6
Continuous
 62
     7
370
    15
100
AcDbSpline
210
0.0
220
0.0
230
1.0
 70
     8
 71
     3
 72
    12
 73
     8
 74
     0
 42
0.00000001
 43
0.00000001
 40
0.0
 40
0.0
 40
0.0
 40
0.0
 40
0.2154853012952538
 40
0.4279388541420754
 40
0.6417833791606569
 40
0.8558564619786927
 40
0.9999999999999999
 40
0.9999999999999999
 40
0.9999999999999999
 40
0.9999999999999999
 10
1672.121875296908
 20
1546.973251943779
 30
0.0
 10
1672.110598186088
 20
1546.972971232928
 30
0.0
 10
1672.088202626608
 20
1546.972413760659
 30
0.0
 10
1671.916980559724
 20
1546.968549311566
 30
0.0
 10
1671.666199153308
 20
1546.964329603609
 30
0.0
 10
1671.386899897936
 20
1546.961485688904
 30
0.0
 10
1671.201542202597
 20
1546.961176167157
 30
0.0
 10
1671.12695573047
 20
1546.961051618051
 30
0.0
  0
SPLINE
  5
1D0
330
1F
100
AcDbEntity
  8
0
  6
Continuous
 62
     7
370
    15
100
AcDbSpline
210
0.0
220
0.0
230
1.0
 70
     8
 71
     3
 72
    12
 73
     8
 74
     0
 42
0.00000001
 43
0.00000001
 40
0.0
 40
0.0
 40
0.0
 40
0.0
 40
0.2153585342897722
 40
0.4321053590329618
 40
0.6483852225690843
 40
0.8620450440728833
 40
1.0
 40
1.0
 40
1.0
 40
1.0
 10
1671.12695573047
 20
1546.961051618051
 30
0.0
 10
1671.015198887306
 20
1546.961330827817
 30
0.0
 10
1670.790964770006
 20
1546.961891047249
 30
0.0
 10
1670.491341638331
 20
1546.965773092921
 30
0.0
 10
1670.266261619192
 20
1546.970046628842
 30
0.0
 10
1670.148768390308
 20
1546.972847121499
 30
0.0
 10
1670.136751274563
 20
1546.973137869652
 30
0.0
 10
1670.132036396863
 20
1546.973251943779
 30
0.0
  0
SPLINE
  5
1D1
330
1F
100
AcDbEntity
  8
0
  6
Continuous
 62
     7
370
    15
100
AcDbSpline
210
0.0
220
0.0
230
1.0
 70
     8
 71
     3
 72
    11
 73
     7
 74
     0
 42
0.00000001
 43
0.00000001
 40
0.0
 40
0.0
 40
0.0
 40
0.0
 40
0.1078856390594456
 40
0.4686230899024216
 40
0.8314845729113592
 40
0.9999999999999999
 40
0.9999999999999999
 40
0.9999999999999999
 40
0.9999999999999999
 10
1660.169184051083
 20
1546.955218744767
 30
0.0
 10
1660.142680212949
 20
1546.960382375409
 30
0.0
 10
1660.027555432401
 20
1546.982811649292
 30
0.0
 10
1660.714012239335
 20
1546.848315397885
 30
0.0
 10
1661.879847904479
 20
1546.646011873735
 30
0.0
 10
1662.857648883652
 20
1546.519350586452
 30
0.0
 10
1663.167738664524
 20
1546.479182523978
 30
0.0
  0
SPLINE
  5
1D2
330
1F
100
AcDbEntity
  8
0
  6
Continuous
 62
     7
370
    15
100
AcDbSpline
210
0.0
220
0.0
230
1.0
 70
     8
 71
     3
 72
    10
 73
     6
 74
     0
 42
0.00000001
 43
0.00000001
 40
0.0
 40
0.0
 40
0.0
 40
0.0
 40
0.1904612141559587
 40
0.5950940401596357
 40
1.0
 40
1.0
 40
1.0
 40
1.0
 10
1663.167738664524
 20
1546.479182523978
 30
0.0
 10
1663.193426529003
 20
1546.476071364704
 30
0.0
 10
1663.273687988658
 20
1546.466350580607
 30
0.0
 10
1663.410700307925
 20
1546.450195160351
 30
0.0
 10
1663.524154254386
 20
1546.437411988246
 30
0.0
 10
1663.580900366979
 20
1546.431018245709
 30
0.0
  0
SPLINE
  5
1D3
330
1F
100
AcDbEntity
  8
0
  6
Continuous
 62
     7
370
    15
100
AcDbSpline
210
0.0
220
0.0
230
1.0
 70
     8
 71
     3
 72
    12
 73
     8
 74
     0
 42
0.00000001
 43
0.00000001
 40
0.0
 40
0.0
 40
0.0
 40
0.0
 40
0.2154832150677241
 40
0.4279361828065638
 40
0.6417799871889793
 40
0.855852573796344
 40
1.0
 40
1.0
 40
1.0
 40
1.0
 10
1665.821875288712
 20
1546.973251943779
 30
0.0
 10
1665.810598781063
 20
1546.972971230285
 30
0.0
 10
1665.788204342419
 20
1546.972413750848
 30
0.0
 10
1665.616984537271
 20
1546.968549313385
 30
0.0
 10
1665.366205064294
 20
1546.964329601453
 30
0.0
 10
1665.086904391175
 20
1546.961485666508
 30
0.0
 10
1664.901544417036
 20
1546.961176162285
 30
0.0
 10
1664.826955722274
 20
1546.961051618051
 30
0.0
  0
LINE
  5
1D4
330
1F
100
AcDbEntity
  8
0
  6
Continuous
 62
     7
370
    15
100
AcDbLine
 10
1664.8269557223
 20
1546.9610516181
 30
0.0
 11
1665.1055087164
 21
1546.9621869003
 31
0.0
  0
SPLINE
  5
1D5
330
1F
100
AcDbEntity
  8
0
  6
Continuous
 62
     7
370
    15
100
AcDbSpline
210
0.0
220
0.0
230
1.0
 70
     8
 71
     3
 72
    12
 73
     8
 74
     0
 42
0.00000001
 43
0.00000001
 40
0.0
 40
0.0
 40
0.0
 40
0.0
 40
0.2153574942594855
 40
0.4321038525294654
 40
0.6483831430868799
 40
0.8620424722049752
 40
1.0
 40
1.0
 40
1.0
 40
1.0
 10
1664.826955722274
 20
1546.961051618051
 30
0.0
 10
1664.715199124125
 20
1546.961330828845
 30
0.0
 10
1664.490965197313
 20
1546.961891051094
 30
0.0
 10
1664.191342145967
 20
1546.965773091603
 30
0.0
 10
1663.966261920203
 20
1546.970046629458
 30
0.0
 10
1663.84876742666
 20
1546.972847136756
 30
0.0
 10
1663.836750873011
 20
1546.973137872909
 30
0.0
 10
1663.832036155836
 20
1546.973251943779
 30
0.0
  0
LINE
  5
1D6
330
1F
100
AcDbEntity
  8
0
  6
Continuous
 62
     7
370
    15
100
AcDbLine
 10
1663.1677395958
 20
1546.4310182457
 30
0.0
 11
1663.1677386645
 21
1546.479182524
 31
0.0
  0
LINE
  5
1D7
330
1F
100
AcDbEntity
  8
0
  6
Continuous
 62
     7
370
    15
100
AcDbLine
 10
1677.3577871095
 20
1542.1310087865
 30
0.0
 11
1678.8143430199
 21
1542.1310087865
 31
0.0
  0
LINE
  5
1D8
330
1F
100
AcDbEntity
  8
0
  6
Continuous
 62
     7
370
    15
100
AcDbLine
 10
1678.8143430199
 20
1538.5810145841
 30
0.0
 11
1678.8143430199
 21
1542.1310087865
 31
0.0
  0
LINE
  5
1D9
330
1F
100
AcDbEntity
  8
0
  6
Continuous
 62
     7
370
    15
100
AcDbLine
 10
1657.1395684328
 20
1542.1310087865
 30
0.0
 11
1657.1395684328
 21
1538.5810145841
 31
0.0
  0
LINE
  5
1DA
330
1F
100
AcDbEntity
  8
0
  6
Continuous
 62
     7
370
    15
100
AcDbLine
 10
1657.1395684328
 20
1542.1310087865
 30
0.0
 11
1658.5967092138
 21
1542.1310087865
 31
0.0
  0
SPLINE
  5
1DB
330
1F
100
AcDbEntity
  8
0
  6
Continuous
 62
     7
370
    15
100
AcDbSpline
210
0.0
220
0.0
230
1.0
 70
    24
 71
     3
 72
    10
 73
     6
 74
     0
 42
0.00000001
 43
0.00000001
 40
0.0
 40
0.0
 40
0.0
 40
0.0
 40
0.2553667405342428
 40
0.5107314012144764
 40
1.0
 40
1.0
 40
1.0
 40
1.0
 10
1678.814343019949
 20
1542.131008786452
 30
0.0
 10
1678.850438863096
 20
1542.131008786452
 30
0.0
 10
1678.922630255405
 20
1542.131008786452
 30
0.0
 10
1679.057838868711
 20
1542.131008786452
 30
0.0
 10
1679.149280721938
 20
1542.131008786452
 30
0.0
 10
1679.209363489972
 20
1542.131008786452
 30
0.0
  0
SPLINE
  5
1DC
330
1F
100
AcDbEntity
  8
0
  6
Continuous
 62
     7
370
    15
100
AcDbSpline
210
0.0
220
0.0
230
1.0
 70
    24
 71
     3
 72
    10
 73
     6
 74
     0
 42
0.00000001
 43
0.00000001
 40
0.0
 40
0.0
 40
0.0
 40
0.0
 40
0.2528370932479979
 40
0.5056723781848742
 40
0.9999999999999999
 40
0.9999999999999999
 40
0.9999999999999999
 40
0.9999999999999999
 10
1656.744547962772
 20
1542.131008786452
 30
0.0
 10
1656.775109172032
 20
1542.131008786452
 30
0.0
 10
1656.836231371976
 20
1542.131008786452
 30
0.0
 10
1656.965410396183
 20
1542.131008786452
 30
0.0
 10
1657.07022345909
 20
1542.131008786452
 30
0.0
 10
1657.139568432795
 20
1542.131008786452
 30
0.0
  0
SPLINE
  5
1DD
330
1F
100
AcDbEntity
  8
0
  6
Continuous
 62
     7
370
    15
100
AcDbSpline
210
0.0
220
0.0
230
1.0
 70
    24
 71
     3
 72
    11
 73
     7
 74
     0
 42
0.00000001
 43
0.00000001
 40
0.0
 40
0.0
 40
0.0
 40
0.0
 40
0.1179525014414391
 40
0.5126102721162278
 40
0.9065367333319225
 40
1.0
 40
1.0
 40
1.0
 40
1.0
 10
1679.757257766651
 20
1542.131008786452
 30
0.0
 10
1679.762894937989
 20
1542.131008786452
 30
0.0
 10
1679.787393544616
 20
1542.131008786452
 30
0.0
 10
1679.63960949711
 20
1542.131008786452
 30
0.0
 10
1679.41039352703
 20
1542.131008786452
 30
0.0
 10
1679.241710614181
 20
1542.131008786452
 30
0.0
 10
1679.209363489972
 20
1542.131008786452
 30
0.0
  0
SPLINE
  5
1DE
330
1F
100
AcDbEntity
  8
0
  6
Continuous
 62
     7
370
    15
100
AcDbSpline
210
0.0
220
0.0
230
1.0
 70
    24
 71
     3
 72
    10
 73
     6
 74
     0
 42
0.00000001
 43
0.00000001
 40
0.0
 40
0.0
 40
0.0
 40
0.0
 40
0.3947722960011082
 40
0.7895030327941315
 40
1.0
 40
1.0
 40
1.0
 40
1.0
 10
1656.744547962772
 20
1542.131008786452
 30
0.0
 10
1656.618224071404
 20
1542.131008786452
 30
0.0
 10
1656.365589587273
 20
1542.131008786452
 30
0.0
 10
1656.185858841743
 20
1542.131008786452
 30
0.0
 10
1656.19662308666
 20
1542.131008786452
 30
0.0
 10
1656.200366869198
 20
1542.131008786452
 30
0.0
  0
LINE
  5
1DF
330
1F
100
AcDbEntity
  8
0
  6
Continuous
 62
     7
370
    15
100
AcDbLine
 10
1658.4783139002
 20
1542.1310087865
 30
0.0
 11
1658.4783139002
 21
1546.4310182457
 31
0.0
  0
SPLINE
  5
1E0
330
1F
100
AcDbEntity
  8
0
  6
Continuous
 62
     7
370
    15
100
AcDbSpline
210
0.0
220
0.0
230
1.0
 70
    24
 71
     3
 72
    10
 73
     6
 74
     0
 42
0.00000001
 43
0.00000001
 40
0.0
 40
0.0
 40
0.0
 40
0.0
 40
0.252968523093591
 40
0.5059370999313502
 40
1.0
 40
1.0
 40
1.0
 40
1.0
 10
1658.555310994016
 20
1546.431018245709
 30
0.0
 10
1658.54432369115
 20
1546.431018245709
 30
0.0
 10
1658.522349083083
 20
1546.431018245709
 30
0.0
 10
1658.491370962118
 20
1546.431018245709
 30
0.0
 10
1658.48351174008
 20
1546.431018245709
 30
0.0
 10
1658.47831390016
 20
1546.431018245709
 30
0.0
  0
LINE
  5
1E1
330
1F
100
AcDbEntity
  8
0
  6
Continuous
 62
     7
370
    15
100
AcDbLine
 10
1677.6006518226
 20
1542.1310087865
 30
0.0
 11
1677.6006518226
 21
1546.4310182457
 31
0.0
  0
LINE
  5
1E2
330
1F
100
AcDbEntity
  8
0
  6
Continuous
 62
     7
370
    15
100
AcDbLine
 10
1677.4761768352
 20
1546.4310182457
 30
0.0
 11
1677.6006518226
 21
1546.4310182457
 31
0.0
  0
LINE
  5
1E3
330
1F
100
AcDbEntity
  8
0
  6
Continuous
 62
     7
370
    15
100
AcDbLine
 10
1658.353417955
 20
1546.4310182457
 30
0.0
 11
1658.353417955
 21
1542.1310087865
 31
0.0
  0
LINE
  5
1E4
330
1F
100
AcDbEntity
  8
0
  6
Continuous
 62
     7
370
    15
100
AcDbLine
 10
1658.353417955
 20
1546.4310182457
 30
0.0
 11
1658.4783139002
 21
1546.4310182457
 31
0.0
  0
SPLINE
  5
1E5
330
1F
100
AcDbEntity
  8
0
  6
Continuous
 62
     7
370
    15
100
AcDbSpline
210
0.0
220
0.0
230
1.0
 70
    24
 71
     3
 72
    12
 73
     8
 74
     0
 42
0.00000001
 43
0.00000001
 40
0.0
 40
0.0
 40
0.0
 40
0.0
 40
0.0349898705099074
 40
0.1934741568570215
 40
0.4505792848289877
 40
0.6708519248244933
 40
1.0
 40
1.0
 40
1.0
 40
1.0
 10
1677.336308017002
 20
1546.531018075836
 30
0.0
 10
1677.335320228342
 20
1546.531018075836
 30
0.0
 10
1677.329858316785
 20
1546.531018075836
 30
0.0
 10
1677.179461586764
 20
1546.531018075836
 30
0.0
 10
1676.89359444712
 20
1546.531018075836
 30
0.0
 10
1676.435389694636
 20
1546.531018075836
 30
0.0
 10
1676.086169030526
 20
1546.531018075836
 30
0.0
 10
1675.876957207548
 20
1546.531018075836
 30
0.0
  0
LINE
  5
1E6
330
1F
100
AcDbEntity
  8
0
  6
Continuous
 62
     7
370
    15
100
AcDbLine
 10
1669.2640654106
 20
1546.5310180758
 30
0.0
 11
1669.0763538532
 21
1546.5310180758
 31
0.0
  0
LINE
  5
1E7
330
1F
100
AcDbEntity
  8
0
  6
Continuous
 62
     7
370
    15
100
AcDbLine
 10
1666.5769591523
 20
1546.4310182457
 30
0.0
 11
1666.8055563528
 21
1546.4310182457
 31
0.0
  0
LINE
  5
1E8
330
1F
100
AcDbEntity
  8
0
  6
Continuous
 62
     7
370
    15
100
AcDbLine
 10
1668.9870380392
 20
1546.4310182457
 30
0.0
 11
1669.3769520676
 21
1546.4310182457
 31
0.0
  0
LINE
  5
1E9
330
1F
100
AcDbEntity
  8
0
  6
Continuous
 62
     7
370
    15
100
AcDbLine
 10
1666.8055563528
 20
1546.5310180758
 30
0.0
 11
1666.5624760386
 21
1546.5310180758
 31
0.0
  0
LINE
  5
1EA
330
1F
100
AcDbEntity
  8
0
  6
Continuous
 62
     7
370
    15
100
AcDbLine
 10
1666.8055563528
 20
1546.4310182457
 30
0.0
 11
1666.8055563528
 21
1546.5310180758
 31
0.0
  0
LINE
  5
1EB
330
1F
100
AcDbEntity
  8
0
  6
Continuous
 62
     7
370
    15
100
AcDbLine
 10
1659.0593958568
 20
1546.5310180758
 30
0.0
 11
1659.3997076448
 21
1546.5310180758
 31
0.0
  0
LINE
  5
1EC
330
1F
100
AcDbEntity
  8
0
  6
Continuous
 62
     7
370
    15
100
AcDbLine
 10
1659.3997076448
 20
1546.5310180758
 30
0.0
 11
1659.9020742174
 21
1546.5310180758
 31
0.0
  0
LINE
  5
1ED
330
1F
100
AcDbEntity
  8
0
  6
Continuous
 62
     7
370
    15
100
AcDbLine
 10
1666.8519557748
 20
1546.5310180758
 30
0.0
 11
1666.8055563528
 21
1546.5310180758
 31
0.0
  0
LINE
  5
1EE
330
1F
100
AcDbEntity
  8
0
  6
Continuous
 62
     7
370
    15
100
AcDbLine
 10
1674.9769559424
 20
1548.0310183217
 30
0.0
 11
1660.9769555103
 21
1548.0310183217
 31
0.0
  0
LINE
  5
1EF
330
1F
100
AcDbEntity
  8
0
  6
Continuous
 62
     7
370
    15
100
AcDbLine
 10
1667.9769557264
 20
1547.0310181578
 30
0.0
 11
1662.2269557152
 21
1547.0310181578
 31
0.0
  0
LINE
  5
1F0
330
1F
100
AcDbEntity
  8
0
  6
Continuous
 62
     7
370
    15
100
AcDbLine
 10
1673.7269557375
 20
1547.0310181578
 30
0.0
 11
1667.9769557264
 21
1547.0310181578
 31
0.0
  0
LINE
  5
1F1
330
1F
100
AcDbEntity
  8
0
  6
Continuous
 62
     7
370
    15
100
AcDbLine
 10
1668.6019557124
 20
1539.6310181556
 30
0.0
 11
1667.3519557403
 21
1539.6310181556
 31
0.0
  0
LINE
  5
1F2
330
1F
100
AcDbEntity
  8
0
  6
Continuous
 62
     7
370
    15
100
AcDbLine
 10
1553.412566736
 20
1261.5810085287
 30
0.0
 11
1553.412566736
 21
1259.5810044755
 31
0.0
  0
LINE
  5
1F3
330
1F
100
AcDbEntity
  8
0
  6
Continuous
 62
     7
370
    15
100
AcDbLine
 10
1782.9769578125
 20
1259.5810044755
 30
0.0
 11
1553.412566736
 21
1259.5810044755
 31
0.0
  0
SPLINE
  5
1F4
330
1F
100
AcDbEntity
  8
0
  6
Continuous
 62
     7
370
    15
100
AcDbSpline
210
0.0
220
0.0
230
1.0
 70
     8
 71
     3
 72
    12
 73
     8
 74
     0
 42
0.00000001
 43
0.00000001
 40
0.0
 40
0.0
 40
0.0
 40
0.0
 40
0.1158097913359082
 40
0.3485270152608974
 40
0.5812455430763427
 40
0.8139634403903562
 40
1.0
 40
1.0
 40
1.0
 40
1.0
 10
1542.00574274324
 20
1441.45995864768
 30
0.0
 10
1542.011316779287
 20
1441.34851749831
 30
0.0
 10
1542.028091717951
 20
1441.013137814787
 30
0.0
 10
1542.221451736176
 20
1440.473527368857
 30
0.0
 10
1542.642535463413
 20
1439.941898973246
 30
0.0
 10
1543.178672661685
 20
1439.591799599609
 30
0.0
 10
1543.572161304529
 20
1439.510833390588
 30
0.0
 10
1543.746973231064
 20
1439.474863206339
 30
0.0
  0
LINE
  5
1F5
330
1F
100
AcDbEntity
  8
0
  6
Continuous
 62
     7
370
    15
100
AcDbLine
 10
1543.4206601527
 20
1439.4748632063
 30
0.0
 11
1543.7469732311
 21
1439.4748632063
 31
0.0
  0
SPLINE
  5
1F6
330
1F
100
AcDbEntity
  8
0
  6
Continuous
 62
     7
370
    15
100
AcDbSpline
210
0.0
220
0.0
230
1.0
 70
     8
 71
     3
 72
    12
 73
     8
 74
     0
 42
0.00000001
 43
0.00000001
 40
0.0
 40
0.0
 40
0.0
 40
0.0
 40
0.2327154100486982
 40
0.351747691615744
 40
0.584463160632262
 40
0.8171767060803357
 40
1.0
 40
1.0
 40
1.0
 40
1.0
 10
1543.420660152661
 20
1439.474863206339
 30
0.0
 10
1543.201715824295
 20
1439.523497563026
 30
0.0
 10
1542.870783024963
 20
1439.59700804819
 30
0.0
 10
1542.393017511271
 20
1439.896353284831
 30
0.0
 10
1541.998718043398
 20
1440.30514589089
 30
0.0
 10
1541.724055176269
 20
1440.883046977797
 30
0.0
 10
1541.693059394741
 20
1441.283688729413
 30
0.0
 10
1541.679422214257
 20
1441.45995864768
 30
0.0
  0
LINE
  5
1F7
330
1F
100
AcDbEntity
  8
0
  6
Continuous
 62
     7
370
    15
100
AcDbLine
 10
1542.0057427432
 20
1441.4599586477
 30
0.0
 11
1541.6794222143
 21
1441.4599586477
 31
0.0
  0
SPLINE
  5
1F8
330
1F
100
AcDbEntity
  8
0
  6
Continuous
 62
     7
370
    15
100
AcDbSpline
210
0.0
220
0.0
230
1.0
 70
     8
 71
     3
 72
    12
 73
     8
 74
     0
 42
0.00000001
 43
0.00000001
 40
0.0
 40
0.0
 40
0.0
 40
0.0
 40
0.1158088341690925
 40
0.3485278100653313
 40
0.5812458027896101
 40
0.8139641912929088
 40
1.0
 40
1.0
 40
1.0
 40
1.0
 10
1543.746973231064
 20
1453.687166069937
 30
0.0
 10
1543.637990397826
 20
1453.66799916902
 30
0.0
 10
1543.310005503794
 20
1453.610316194745
 30
0.0
 10
1542.802552801575
 20
1453.351004464896
 30
0.0
 10
1542.330722690661
 20
1452.864652288322
 30
0.0
 10
1542.051538917832
 20
1452.285255872298
 30
0.0
 10
1542.019829828497
 20
1451.881460726607
 30
0.0
 10
1542.00574274324
 20
1451.702070628595
 30
0.0
  0
LINE
  5
1F9
330
1F
100
AcDbEntity
  8
0
  6
Continuous
 62
     7
370
    15
100
AcDbLine
 10
1541.6794222143
 20
1451.7020706286
 30
0.0
 11
1542.0057427432
 21
1451.7020706286
 31
0.0
  0
SPLINE
  5
1FA
330
1F
100
AcDbEntity
  8
0
  6
Continuous
 62
     7
370
    15
100
AcDbSpline
210
0.0
220
0.0
230
1.0
 70
     8
 71
     3
 72
    12
 73
     8
 74
     0
 42
0.00000001
 43
0.00000001
 40
0.0
 40
0.0
 40
0.0
 40
0.0
 40
0.232714714100785
 40
0.3517459036748064
 40
0.5844612858505803
 40
0.8171776284825035
 40
1.0
 40
1.0
 40
1.0
 40
1.0
 10
1541.679422214256
 20
1451.702070628595
 30
0.0
 10
1541.700595158131
 20
1451.927185219152
 30
0.0
 10
1541.73259784565
 20
1452.267443614035
 30
0.0
 10
1541.968953277109
 20
1452.782215737949
 30
0.0
 10
1542.323177852455
 20
1453.226767936597
 30
0.0
 10
1542.85838410613
 20
1453.57218073347
 30
0.0
 10
1543.248863151257
 20
1453.652033618302
 30
0.0
 10
1543.420660152661
 20
1453.687166069937
 30
0.0
  0
LINE
  5
1FB
330
1F
100
AcDbEntity
  8
0
  6
Continuous
 62
     7
370
    15
100
AcDbLine
 10
1543.4206601527
 20
1453.6871660699
 30
0.0
 11
1543.7469732311
 21
1453.6871660699
 31
0.0
  0
LINE
  5
1FC
330
1F
100
AcDbEntity
  8
0
  6
Continuous
 62
     7
370
    15
100
AcDbLine
 10
1543.7469732311
 20
1439.4748632063
 30
0.0
 11
1544.2869168069
 21
1439.4079942455
 31
0.0
  0
LINE
  5
1FD
330
1F
100
AcDbEntity
  8
0
  6
Continuous
 62
     7
370
    15
100
AcDbLine
 10
1542.0057427432
 20
1451.7020706286
 30
0.0
 11
1542.0057427432
 21
1441.4599586477
 31
0.0
  0
LINE
  5
1FE
330
1F
100
AcDbEntity
  8
0
  6
Continuous
 62
     7
370
    15
100
AcDbLine
 10
1544.2869168069
 20
1453.7540350308
 30
0.0
 11
1543.7469732311
 21
1453.6871660699
 31
0.0
  0
LINE
  5
1FF
330
1F
100
AcDbEntity
  8
0
  6
Continuous
 62
     7
370
    15
100
AcDbLine
 10
1541.6794222143
 20
1441.4599586477
 30
0.0
 11
1541.6794222143
 21
1451.7020706286
 31
0.0
  0
LINE
  5
200
330
1F
100
AcDbEntity
  8
0
  6
Continuous
 62
     7
370
    15
100
AcDbLine
 10
1544.2869168069
 20
1439.3675822963
 30
0.0
 11
1543.4206601527
 21
1439.4748632063
 31
0.0
  0
LINE
  5
201
330
1F
100
AcDbEntity
  8
0
  6
Continuous
 62
     7
370
    15
100
AcDbLine
 10
1543.4206601527
 20
1453.6871660699
 30
0.0
 11
1544.2869168069
 21
1453.79444698
 31
0.0
  0
LINE
  5
202
330
1F
100
AcDbEntity
  8
0
  6
Continuous
 62
     7
370
    15
100
AcDbLine
 10
1541.6664284017
 20
1451.7020706286
 30
0.0
 11
1541.6664284017
 21
1441.4599586477
 31
0.0
  0
LINE
  5
203
330
1F
100
AcDbEntity
  8
0
  6
Continuous
 62
     7
370
    15
100
AcDbLine
 10
1548.2439201619
 20
1268.5810078134
 30
0.0
 11
1548.2439201619
 21
1261.5810085287
 31
0.0
  0
LINE
  5
204
330
1F
100
AcDbEntity
  8
0
  6
Continuous
 62
     7
370
    15
100
AcDbLine
 10
1787.9769530442
 20
1261.5810085287
 30
0.0
 11
1548.2439201619
 21
1261.5810085287
 31
0.0
  0
LINE
  5
205
330
1F
100
AcDbEntity
  8
0
  6
Continuous
 62
     7
370
    15
100
AcDbLine
 10
1492.9769587066
 20
1538.5810145841
 30
0.0
 11
1842.9769527461
 21
1538.5810145841
 31
0.0
  0
LINE
  5
206
330
1F
100
AcDbEntity
  8
0
  6
Continuous
 62
     7
370
    15
100
AcDbLine
 10
1492.9769587066
 20
1536.5810144891
 30
0.0
 11
1842.9769527461
 21
1536.5810144891
 31
0.0
  0
LINE
  5
207
330
1F
100
AcDbEntity
  8
0
  6
Continuous
 62
     7
370
    15
100
AcDbLine
 10
1544.2869168069
 20
1455.5810142507
 30
0.0
 11
1544.2869168069
 21
1437.5810150256
 31
0.0
  0
LINE
  5
208
330
1F
100
AcDbEntity
  8
0
  6
Continuous
 62
     7
370
    15
100
AcDbLine
 10
1543.8300695565
 20
1455.5810142507
 30
0.0
 11
1544.2869168069
 21
1455.5810142507
 31
0.0
  0
LINE
  5
209
330
1F
100
AcDbEntity
  8
0
  6
Continuous
 62
     7
370
    15
100
AcDbLine
 10
1543.8300695565
 20
1437.5810150256
 30
0.0
 11
1543.8300695565
 21
1439.4241620054
 31
0.0
  0
LINE
  5
20A
330
1F
100
AcDbEntity
  8
0
  6
Continuous
 62
     7
370
    15
100
AcDbLine
 10
1543.8300695565
 20
1453.7378672709
 30
0.0
 11
1543.8300695565
 21
1455.5810142507
 31
0.0
  0
LINE
  5
20B
330
1F
100
AcDbEntity
  8
0
  6
Continuous
 62
     7
370
    15
100
AcDbLine
 10
1544.2869168069
 20
1437.5810150256
 30
0.0
 11
1543.8300695565
 21
1437.5810150256
 31
0.0
  0
LINE
  5
20C
330
1F
100
AcDbEntity
  8
0
  6
Continuous
 62
     7
370
    15
100
AcDbLine
 10
1542.9772537496
 20
1536.5810144891
 30
0.0
 11
1542.9772537496
 21
1453.5708476057
 31
0.0
  0
LINE
  5
20D
330
1F
100
AcDbEntity
  8
0
  6
Continuous
 62
     7
370
    15
100
AcDbLine
 10
1542.9772537496
 20
1439.6087426891
 30
0.0
 11
1542.9772537496
 21
1268.5810078134
 31
0.0
  0
LINE
  5
20E
330
1F
100
AcDbEntity
  8
0
  6
Continuous
 62
     7
370
    15
100
AcDbLine
 10
1542.9772537496
 20
1268.5810078134
 30
0.0
 11
1792.9769557264
 21
1268.5810078134
 31
0.0
  0
LINE
  5
20F
330
1F
100
AcDbEntity
  8
0
  6
Continuous
 62
     8
370
    15
100
AcDbLine
 10
1668.5251316117
 20
1538.9310181805
 30
0.0
 11
1668.5251316117
 21
1538.5810145841
 31
0.0
  0
LINE
  5
210
330
1F
100
AcDbEntity
  8
0
  6
Continuous
 62
     8
370
    15
100
AcDbLine
 10
1679.2093625586
 20
1538.5810145841
 30
0.0
 11
1679.20936349
 21
1542.1310087865
 31
0.0
  0
LINE
  5
211
330
1F
100
AcDbEntity
  8
0
  6
Continuous
 62
     8
370
    15
100
AcDbLine
 10
1656.7445479628
 20
1542.1310087865
 30
0.0
 11
1656.7445479628
 21
1538.5810145841
 31
0.0
  0
LINE
  5
212
330
1F
100
AcDbEntity
  8
0
  6
Continuous
 62
     8
370
    15
100
AcDbLine
 10
1660.476955894
 20
1548.5310184037
 30
0.0
 11
1675.4769555587
 21
1548.5310184037
 31
0.0
  0
LINE
  5
213
330
1F
100
AcDbEntity
  8
0
  6
Continuous
 62
     8
370
    15
100
AcDbLine
 10
1667.9769557264
 20
1547.5310182397
 30
0.0
 11
1674.2269558195
 21
1547.5310182397
 31
0.0
  0
LINE
  5
214
330
1F
100
AcDbEntity
  8
0
  6
Continuous
 62
     8
370
    15
100
AcDbLine
 10
1661.7269556332
 20
1547.5310182397
 30
0.0
 11
1667.9769557264
 21
1547.5310182397
 31
0.0
  0
LINE
  5
215
330
1F
100
AcDbEntity
  8
0
  6
Continuous
 62
     8
370
    15
100
AcDbLine
 10
1666.8519557748
 20
1540.1310180047
 30
0.0
 11
1669.1019556779
 21
1540.1310180047
 31
0.0
  0
DIMENSION
  5
216
330
1F
100
AcDbEntity
  8
0
  6
Continuous
 62
     7
370
     0
100
AcDbDimension
  2
_D
 10
1792.9769557264
 20
1109.5810144891
 30
0.0
 11
1671.7674680819
 21
1109.5810144891
 31
0.0
 70
    32
  1
%%c<>
 71
     2
 42
-1.0
 73
     0
 74
     0
 75
     0
  3
SLDDIMSTYLE0
100
AcDbAlignedDimension
 13
1542.9772532042
 23
1268.5810144891
 33
0.0
 14
1792.9769557264
 24
1268.5810144891
 34
0.0
100
AcDbRotatedDimension
  0
DIMENSION
  5
224
330
1F
100
AcDbEntity
  8
0
  6
Continuous
 62
     7
370
     0
100
AcDbDimension
  2
_D_1
 10
1842.9769557264
 20
940.7774576677
 30
0.0
 11
1671.7674680819
 21
940.7774576677
 31
0.0
 70
    32
  1
%%c<>
 71
     2
 42
-1.0
 73
     0
 74
     0
 75
     0
  3
SLDDIMSTYLE0
100
AcDbAlignedDimension
 13
1492.9769557264
 23
1536.5810144891
 33
0.0
 14
1842.9769557264
 24
1536.5810144891
 34
0.0
100
AcDbRotatedDimension
  0
DIMENSION
  5
231
330
1F
100
AcDbEntity
  8
0
  6
Continuous
 62
     7
370
     0
100
AcDbDimension
  2
_D_2
 10
1980.6021865298
 20
3988.5810144891
 30
0.0
 11
1980.6021865298
 21
2447.766526609
 31
0.0
 70
    32
  1
<>
 71
     2
 42
-1.0
 73
     0
 74
     0
 75
     0
  3
SLDDIMSTYLE1
100
AcDbAlignedDimension
 13
1842.9769557264
 23
1538.5810144891
 33
0.0
 14
1697.9769557264
 24
3988.5810144891
 34
0.0
 50
90.0
100
AcDbRotatedDimension
  0
DIMENSION
  5
23C
330
1F
100
AcDbEntity
  8
0
  6
Continuous
 62
     7
370
     0
100
AcDbDimension
  2
_D_3
 10
1980.4472884536
 20
1538.5810144891
 30
0.0
 11
1980.4472884536
 21
1420.4620059424
 31
0.0
 70
    32
  1
<>
 71
     2
 42
-1.0
 73
     0
 74
     0
 75
     0
  3
SLDDIMSTYLE0
100
AcDbAlignedDimension
 13
1792.9769557264
 23
1268.5810144891
 33
0.0
 14
1842.9769557264
 24
1538.5810144891
 34
0.0
 50
90.0
100
AcDbRotatedDimension
  0
ENDSEC
  0
SECTION
  2
OBJECTS
  0
DICTIONARY
  5
C
330
0
100
AcDbDictionary
281
     1
  3
ACAD_COLOR
350
6C
  3
ACAD_GROUP
350
D
  3
ACAD_LAYOUT
350
1A
  3
ACAD_MATERIAL
350
6B
  3
ACAD_MLEADERSTYLE
350
2A7
  3
ACAD_MLINESTYLE
350
17
  3
ACAD_PLOTSETTINGS
350
19
  3
ACAD_PLOTSTYLENAME
350
E
  3
ACAD_SCALELIST
350
99
  3
ACAD_TABLESTYLE
350
92
  3
AcDbVariableDictionary
350
59
  0
DICTIONARY
  5
2A6
330
1F
100
AcDbDictionary
280
     1
281
     1
  0
DICTIONARY
  5
6C
102
{ACAD_REACTORS
330
C
102
}
330
C
100
AcDbDictionary
281
     1
  0
DICTIONARY
  5
D
102
{ACAD_REACTORS
330
C
102
}
330
C
100
AcDbDictionary
281
     1
  0
DICTIONARY
  5
1A
102
{ACAD_REACTORS
330
C
102
}
330
C
100
AcDbDictionary
281
     1
  3
Layout1
350
74
  3
Layout2
350
26
  3
Model
350
22
  0
DICTIONARY
  5
6B
102
{ACAD_REACTORS
330
C
102
}
330
C
100
AcDbDictionary
281
     1
  0
DICTIONARY
  5
2A7
102
{ACAD_REACTORS
330
C
102
}
330
C
100
AcDbDictionary
281
     1
  0
DICTIONARY
  5
17
102
{ACAD_REACTORS
330
C
102
}
330
C
100
AcDbDictionary
281
     1
  3
Standard
350
18
  0
DICTIONARY
  5
19
102
{ACAD_REACTORS
330
C
102
}
330
C
100
AcDbDictionary
281
     1
  0
ACDBDICTIONARYWDFLT
  5
E
102
{ACAD_REACTORS
330
C
102
}
330
C
100
AcDbDictionary
281
     1
  3
Normal
350
F
100
AcDbDictionaryWithDefault
340
F
  0
DICTIONARY
  5
99
102
{ACAD_REACTORS
330
C
102
}
330
C
100
AcDbDictionary
281
     1
  3
A0
350
249
  3
A1
350
24A
  3
A2
350
24B
  3
A3
350
24C
  3
A4
350
24D
  3
A5
350
24E
  3
A6
350
24F
  3
A7
350
250
  3
A8
350
251
  3
A9
350
252
  3
B0
350
253
  3
B1
350
254
  3
B2
350
255
  3
B3
350
256
  3
B4
350
257
  3
B5
350
258
  3
B6
350
259
  3
B7
350
25A
  3
B8
350
25B
  3
B9
350
25C
  3
C0
350
25D
  3
C1
350
25E
  3
C2
350
25F
  3
C3
350
260
  3
C4
350
261
  3
C5
350
262
  3
C6
350
263
  3
C7
350
264
  3
C8
350
265
  3
C9
350
266
  3
D0
350
267
  3
D1
350
268
  3
D2
350
269
  0
DICTIONARY
  5
92
102
{ACAD_REACTORS
330
C
102
}
330
C
100
AcDbDictionary
281
     1
  3
Standard
350
93
  0
DICTIONARY
  5
59
102
{ACAD_REACTORS
330
C
102
}
330
C
100
AcDbDictionary
281
     1
  3
CANNOSCALE
350
2A8
  3
CTABLESTYLE
350
98
  3
DIMASSOC
350
26C
  3
HIDETEXT
350
5E
  0
LAYOUT
  5
74
102
{ACAD_REACTORS
330
1A
102
}
330
1A
100
AcDbPlotSettings
  1

  2
none_device
  4
ISO_C5_(229.00_x_162.00_MM)
  6

 40
0.0
 41
0.0
 42
0.0
 43
0.0
 44
229.0
 45
162.0
 46
0.0
 47
0.0
 48
0.0
 49
0.0
140
0.0
141
0.0
142
1.0
143
1.0
 70
   688
 72
     1
 73
     0
 74
     5
  7

 75
    16
 76
     0
 77
     2
 78
   300
147
1.0
148
0.0
149
0.0
100
AcDbLayout
  1
Layout1
 70
     1
 71
     1
 10
0.0
 20
0.0
 11
420.0
 21
297.0
 12
0.0
 22
0.0
 32
0.0
 14
1.000000000000000E+20
 24
1.000000000000000E+20
 34
1.000000000000000E+20
 15
-1.000000000000000E+20
 25
-1.000000000000000E+20
 35
-1.000000000000000E+20
146
0.0
 13
0.0
 23
0.0
 33
0.0
 16
1.0
 26
0.0
 36
0.0
 17
0.0
 27
1.0
 37
0.0
 76
     0
330
73
  0
LAYOUT
  5
26
102
{ACAD_REACTORS
330
1A
102
}
330
1A
100
AcDbPlotSettings
  1

  2
none_device
  4
ISO_C5_(229.00_x_162.00_MM)
  6

 40
0.0
 41
0.0
 42
0.0
 43
0.0
 44
229.0
 45
162.0
 46
0.0
 47
0.0
 48
0.0
 49
0.0
140
0.0
141
0.0
142
1.0
143
1.0
 70
   688
 72
     1
 73
     0
 74
     5
  7

 75
    16
 76
     0
 77
     2
 78
   300
147
1.0
148
0.0
149
0.0
100
AcDbLayout
  1
Layout2
 70
     1
 71
     2
 10
0.0
 20
0.0
 11
0.0
 21
0.0
 12
0.0
 22
0.0
 32
0.0
 14
0.0
 24
0.0
 34
0.0
 15
0.0
 25
0.0
 35
0.0
146
0.0
 13
0.0
 23
0.0
 33
0.0
 16
1.0
 26
0.0
 36
0.0
 17
0.0
 27
1.0
 37
0.0
 76
     0
330
23
  0
LAYOUT
  5
22
102
{ACAD_REACTORS
330
1A
102
}
330
1A
100
AcDbPlotSettings
  1

  2
none_device
  4
ISO_C5_(229.00_x_162.00_MM)
  6

 40
0.0
 41
0.0
 42
0.0
 43
0.0
 44
229.0
 45
162.0
 46
0.0
 47
0.0
 48
0.0
 49
0.0
140
0.0
141
0.0
142
1.0
143
1.0
 70
 11952
 72
     1
 73
     0
 74
     0
  7

 75
    16
 76
     0
 77
     2
 78
   300
147
1.0
148
0.0
149
0.0
100
AcDbLayout
  1
Model
 70
     1
 71
     0
 10
0.0
 20
0.0
 11
3150.0
 21
4455.0
 12
0.0
 22
0.0
 32
0.0
 14
265.2397497845
 24
74.9971091133
 34
0.0
 15
3074.1485614599
 25
4379.9971091133
 35
0.0999999997
146
0.0
 13
0.0
 23
0.0
 33
0.0
 16
1.0
 26
0.0
 36
0.0
 17
0.0
 27
1.0
 37
0.0
 76
     0
330
1F
331
97
  0
MLINESTYLE
  5
18
102
{ACAD_REACTORS
330
17
102
}
330
17
100
AcDbMlineStyle
  2
Standard
 70
     0
  3

 62
   256
 51
90.0
 52
90.0
 71
     2
 49
0.5
 62
   256
  6
BYLAYER
 49
-0.5
 62
   256
  6
BYLAYER
  0
ACDBPLACEHOLDER
  5
F
102
{ACAD_REACTORS
330
E
102
}
330
E
  0
SCALE
  5
249
102
{ACAD_REACTORS
330
99
102
}
330
99
100
AcDbScale
 70
     0
300
1:1
140
1.0
141
1.0
290
     1
  0
SCALE
  5
24A
102
{ACAD_REACTORS
330
99
102
}
330
99
100
AcDbScale
 70
     0
300
1:2
140
1.0
141
2.0
290
     0
  0
SCALE
  5
24B
102
{ACAD_REACTORS
330
99
102
}
330
99
100
AcDbScale
 70
     0
300
1:4
140
1.0
141
4.0
290
     0
  0
SCALE
  5
24C
102
{ACAD_REACTORS
330
99
102
}
330
99
100
AcDbScale
 70
     0
300
1:5
140
1.0
141
5.0
290
     0
  0
SCALE
  5
24D
102
{ACAD_REACTORS
330
99
102
}
330
99
100
AcDbScale
 70
     0
300
1:8
140
1.0
141
8.0
290
     0
  0
SCALE
  5
24E
102
{ACAD_REACTORS
330
99
102
}
330
99
100
AcDbScale
 70
     0
300
1:10
140
1.0
141
10.0
290
     0
  0
SCALE
  5
24F
102
{ACAD_REACTORS
330
99
102
}
330
99
100
AcDbScale
 70
     0
300
1:16
140
1.0
141
16.0
290
     0
  0
SCALE
  5
250
102
{ACAD_REACTORS
330
99
102
}
330
99
100
AcDbScale
 70
     0
300
1:20
140
1.0
141
20.0
290
     0
  0
SCALE
  5
251
102
{ACAD_REACTORS
330
99
102
}
330
99
100
AcDbScale
 70
     0
300
1:30
140
1.0
141
30.0
290
     0
  0
SCALE
  5
252
102
{ACAD_REACTORS
330
99
102
}
330
99
100
AcDbScale
 70
     0
300
1:40
140
1.0
141
40.0
290
     0
  0
SCALE
  5
253
102
{ACAD_REACTORS
330
99
102
}
330
99
100
AcDbScale
 70
     0
300
1:50
140
1.0
141
50.0
290
     0
  0
SCALE
  5
254
102
{ACAD_REACTORS
330
99
102
}
330
99
100
AcDbScale
 70
     0
300
1:100
140
1.0
141
100.0
290
     0
  0
SCALE
  5
255
102
{ACAD_REACTORS
330
99
102
}
330
99
100
AcDbScale
 70
     0
300
2:1
140
2.0
141
1.0
290
     0
  0
SCALE
  5
256
102
{ACAD_REACTORS
330
99
102
}
330
99
100
AcDbScale
 70
     0
300
4:1
140
4.0
141
1.0
290
     0
  0
SCALE
  5
257
102
{ACAD_REACTORS
330
99
102
}
330
99
100
AcDbScale
 70
     0
300
8:1
140
8.0
141
1.0
290
     0
  0
SCALE
  5
258
102
{ACAD_REACTORS
330
99
102
}
330
99
100
AcDbScale
 70
     0
300
10:1
140
10.0
141
1.0
290
     0
  0
SCALE
  5
259
102
{ACAD_REACTORS
330
99
102
}
330
99
100
AcDbScale
 70
     0
300
100:1
140
100.0
141
1.0
290
     0
  0
SCALE
  5
25A
102
{ACAD_REACTORS
330
99
102
}
330
99
100
AcDbScale
 70
     0
300
1/128" = 1'-0"
140
0.0078125
141
12.0
290
     0
  0
SCALE
  5
25B
102
{ACAD_REACTORS
330
99
102
}
330
99
100
AcDbScale
 70
     0
300
1/64" = 1'-0"
140
0.015625
141
12.0
290
     0
  0
SCALE
  5
25C
102
{ACAD_REACTORS
330
99
102
}
330
99
100
AcDbScale
 70
     0
300
1/32" = 1'-0"
140
0.03125
141
12.0
290
     0
  0
SCALE
  5
25D
102
{ACAD_REACTORS
330
99
102
}
330
99
100
AcDbScale
 70
     0
300
1/16" = 1'-0"
140
0.0625
141
12.0
290
     0
  0
SCALE
  5
25E
102
{ACAD_REACTORS
330
99
102
}
330
99
100
AcDbScale
 70
     0
300
3/32" = 1'-0"
140
0.09375
141
12.0
290
     0
  0
SCALE
  5
25F
102
{ACAD_REACTORS
330
99
102
}
330
99
100
AcDbScale
 70
     0
300
1/8" = 1'-0"
140
0.125
141
12.0
290
     0
  0
SCALE
  5
260
102
{ACAD_REACTORS
330
99
102
}
330
99
100
AcDbScale
 70
     0
300
3/16" = 1'-0"
140
0.1875
141
12.0
290
     0
  0
SCALE
  5
261
102
{ACAD_REACTORS
330
99
102
}
330
99
100
AcDbScale
 70
     0
300
1/4" = 1'-0"
140
0.25
141
12.0
290
     0
  0
SCALE
  5
262
102
{ACAD_REACTORS
330
99
102
}
330
99
100
AcDbScale
 70
     0
300
3/8" = 1'-0"
140
0.375
141
12.0
290
     0
  0
SCALE
  5
263
102
{ACAD_REACTORS
330
99
102
}
330
99
100
AcDbScale
 70
     0
300
1/2" = 1'-0"
140
0.5
141
12.0
290
     0
  0
SCALE
  5
264
102
{ACAD_REACTORS
330
99
102
}
330
99
100
AcDbScale
 70
     0
300
3/4" = 1'-0"
140
0.75
141
12.0
290
     0
  0
SCALE
  5
265
102
{ACAD_REACTORS
330
99
102
}
330
99
100
AcDbScale
 70
     0
300
1" = 1'-0"
140
1.0
141
12.0
290
     0
  0
SCALE
  5
266
102
{ACAD_REACTORS
330
99
102
}
330
99
100
AcDbScale
 70
     0
300
1-1/2" = 1'-0"
140
1.5
141
12.0
290
     0
  0
SCALE
  5
267
102
{ACAD_REACTORS
330
99
102
}
330
99
100
AcDbScale
 70
     0
300
3" = 1'-0"
140
3.0
141
12.0
290
     0
  0
SCALE
  5
268
102
{ACAD_REACTORS
330
99
102
}
330
99
100
AcDbScale
 70
     0
300
6" = 1'-0"
140
6.0
141
12.0
290
     0
  0
SCALE
  5
269
102
{ACAD_REACTORS
330
99
102
}
330
99
100
AcDbScale
 70
     0
300
1'-0" = 1'-0"
140
12.0
141
12.0
290
     0
  0
TABLESTYLE
  5
93
102
{ACAD_REACTORS
330
92
102
}
330
92
100
AcDbTableStyle
  3
Standard
 70
     0
 71
     0
 40
0.06
 41
0.06
280
     0
281
     0
  7
Standard
140
0.18
170
     2
 62
     0
 63
     7
283
     0
 90
      512
 91
        0
  1

274
    -2
284
     1
 64
     0
275
    -2
285
     1
 65
     0
276
    -2
286
     1
 66
     0
277
    -2
287
     1
 67
     0
278
    -2
288
     1
 68
     0
279
    -2
289
     1
 69
     0
  7
Standard
140
0.25
170
     5
 62
     0
 63
     7
283
     0
 90
      512
 91
        0
  1

274
    -2
284
     1
 64
     0
275
    -2
285
     1
 65
     0
276
    -2
286
     1
 66
     0
277
    -2
287
     1
 67
     0
278
    -2
288
     1
 68
     0
279
    -2
289
     1
 69
     0
  7
Standard
140
0.18
170
     5
 62
     0
 63
     7
283
     0
 90
      512
 91
        0
  1

274
    -2
284
     1
 64
     0
275
    -2
285
     1
 65
     0
276
    -2
286
     1
 66
     0
277
    -2
287
     1
 67
     0
278
    -2
288
     1
 68
     0
279
    -2
289
     1
 69
     0
  0
DICTIONARYVAR
  5
2A8
102
{ACAD_REACTORS
330
59
102
}
330
59
100
DictionaryVariables
280
     0
  1
1:1
  0
DICTIONARYVAR
  5
98
102
{ACAD_REACTORS
330
59
102
}
330
59
100
DictionaryVariables
280
     0
  1
Standard
  0
DICTIONARYVAR
  5
26C
102
{ACAD_REACTORS
330
59
102
}
330
59
100
DictionaryVariables
280
     0
  1
2
  0
DICTIONARYVAR
  5
5E
102
{ACAD_REACTORS
330
59
102
}
330
59
100
DictionaryVariables
280
     0
  1
1
  0
ENDSEC
  0
EOF
