  0
SECTION
  2
HEADER
  9
$ACADVER
  1
AC1021
  9
$ACADMAINTVER
 70
    25
  9
$DWGCODEPAGE
  3
ANSI_1252
  9
$LASTSAVEDBY
  1
Josep Sancho
  9
$INSBASE
 10
0.0
 20
0.0
 30
0.0
  9
$EXTMIN
 10
176.8264998564
 20
49.9980727422
 30
0.0
  9
$EXTMAX
 10
2049.4323743066
 20
2919.9980727422
 30
0.0
  9
$LIMMIN
 10
0.0
 20
0.0
  9
$LIMMAX
 10
2100.0
 20
2970.0
  9
$ORTHOMODE
 70
     0
  9
$REGENMODE
 70
     1
  9
$FILLMODE
 70
     1
  9
$QTEXTMODE
 70
     0
  9
$MIRRTEXT
 70
     1
  9
$LTSCALE
 40
10.0
  9
$ATTMODE
 70
     1
  9
$TEXTSIZE
 40
35.0
  9
$TRACEWID
 40
1.0
  9
$TEXTSTYLE
  7
Standard
  9
$CLAYER
  8
0
  9
$CELTYPE
  6
ByLayer
  9
$CECOLOR
 62
   256
  9
$CELTSCALE
 40
1.0
  9
$DISPSILH
 70
     0
  9
$DIMSCALE
 40
1.0
  9
$DIMASZ
 40
33.02
  9
$DIMEXO
 40
10.0
  9
$DIMDLI
 40
3.75
  9
$DIMRND
 40
0.0
  9
$DIMDLE
 40
0.0
  9
$DIMEXE
 40
10.0
  9
$DIMTP
 40
0.0
  9
$DIMTM
 40
0.0
  9
$DIMTXT
 40
35.0
  9
$DIMCEN
 40
2.5
  9
$DIMTSZ
 40
0.0
  9
$DIMTOL
 70
     0
  9
$DIMLIM
 70
     0
  9
$DIMTIH
 70
     1
  9
$DIMTOH
 70
     1
  9
$DIMSE1
 70
     0
  9
$DIMSE2
 70
     0
  9
$DIMTAD
 70
     1
  9
$DIMZIN
 70
     0
  9
$DIMBLK
  1

  9
$DIMASO
 70
     1
  9
$DIMSHO
 70
     1
  9
$DIMPOST
  1

  9
$DIMAPOST
  1

  9
$DIMALT
 70
     0
  9
$DIMALTD
 70
     3
  9
$DIMALTF
 40
0.0393700787
  9
$DIMLFAC
 40
1.0
  9
$DIMTOFL
 70
     1
  9
$DIMTVP
 40
0.0
  9
$DIMTIX
 70
     0
  9
$DIMSOXD
 70
     0
  9
$DIMSAH
 70
     0
  9
$DIMBLK1
  1

  9
$DIMBLK2
  1

  9
$DIMSTYLE
  2
ISO-25
  9
$DIMCLRD
 70
     0
  9
$DIMCLRE
 70
     0
  9
$DIMCLRT
 70
     0
  9
$DIMTFAC
 40
1.0
  9
$DIMGAP
 40
15.24
  9
$DIMJUST
 70
     0
  9
$DIMSD1
 70
     0
  9
$DIMSD2
 70
     0
  9
$DIMTOLJ
 70
     0
  9
$DIMTZIN
 70
     0
  9
$DIMALTZ
 70
     0
  9
$DIMALTTZ
 70
     0
  9
$DIMUPT
 70
     0
  9
$DIMDEC
 70
     3
  9
$DIMTDEC
 70
     3
  9
$DIMALTU
 70
     2
  9
$DIMALTTD
 70
     3
  9
$DIMTXSTY
  7
Standard
  9
$DIMAUNIT
 70
     0
  9
$DIMADEC
 70
     2
  9
$DIMALTRND
 40
0.0
  9
$DIMAZIN
 70
     0
  9
$DIMDSEP
 70
    44
  9
$DIMATFIT
 70
     3
  9
$DIMFRAC
 70
     0
  9
$DIMLDRBLK
  1

  9
$DIMLUNIT
 70
     2
  9
$DIMLWD
 70
    -2
  9
$DIMLWE
 70
    -2
  9
$DIMTMOVE
 70
     0
  9
$DIMFXL
 40
1.0
  9
$DIMFXLON
 70
     0
  9
$DIMJOGANG
 40
0.7853981633974483
  9
$DIMTFILL
 70
     0
  9
$DIMTFILLCLR
 70
     0
  9
$DIMARCSYM
 70
     0
  9
$DIMLTYPE
  6

  9
$DIMLTEX1
  6

  9
$DIMLTEX2
  6

  9
$LUNITS
 70
     2
  9
$LUPREC
 70
     2
  9
$SKETCHINC
 40
1.0
  9
$FILLETRAD
 40
10.0
  9
$AUNITS
 70
     0
  9
$AUPREC
 70
     2
  9
$MENU
  1
.
  9
$ELEVATION
 40
0.0
  9
$PELEVATION
 40
0.0
  9
$THICKNESS
 40
0.0
  9
$LIMCHECK
 70
     0
  9
$CHAMFERA
 40
10.0
  9
$CHAMFERB
 40
10.0
  9
$CHAMFERC
 40
20.0
  9
$CHAMFERD
 40
0.0
  9
$SKPOLY
 70
     0
  9
$TDCREATE
 40
2453353.800459155
  9
$TDUCREATE
 40
2453353.717125822
  9
$TDUPDATE
 40
2456953.43488316
  9
$TDUUPDATE
 40
2456953.351549827
  9
$TDINDWG
 40
0.0436458449
  9
$TDUSRTIMER
 40
0.0436458449
  9
$USRTIMER
 70
     1
  9
$ANGBASE
 50
0.0
  9
$ANGDIR
 70
     0
  9
$PDMODE
 70
     0
  9
$PDSIZE
 40
-1.0
  9
$PLINEWID
 40
0.0
  9
$SPLFRAME
 70
     0
  9
$SPLINETYPE
 70
     6
  9
$SPLINESEGS
 70
     8
  9
$HANDSEED
  5
222
  9
$SURFTAB1
 70
     6
  9
$SURFTAB2
 70
     6
  9
$SURFTYPE
 70
     6
  9
$SURFU
 70
     6
  9
$SURFV
 70
     6
  9
$UCSBASE
  2

  9
$UCSNAME
  2

  9
$UCSORG
 10
0.0
 20
0.0
 30
0.0
  9
$UCSXDIR
 10
1.0
 20
0.0
 30
0.0
  9
$UCSYDIR
 10
0.0
 20
1.0
 30
0.0
  9
$UCSORTHOREF
  2

  9
$UCSORTHOVIEW
 70
     0
  9
$UCSORGTOP
 10
0.0
 20
0.0
 30
0.0
  9
$UCSORGBOTTOM
 10
0.0
 20
0.0
 30
0.0
  9
$UCSORGLEFT
 10
0.0
 20
0.0
 30
0.0
  9
$UCSORGRIGHT
 10
0.0
 20
0.0
 30
0.0
  9
$UCSORGFRONT
 10
0.0
 20
0.0
 30
0.0
  9
$UCSORGBACK
 10
0.0
 20
0.0
 30
0.0
  9
$PUCSBASE
  2

  9
$PUCSNAME
  2

  9
$PUCSORG
 10
0.0
 20
0.0
 30
0.0
  9
$PUCSXDIR
 10
1.0
 20
0.0
 30
0.0
  9
$PUCSYDIR
 10
0.0
 20
1.0
 30
0.0
  9
$PUCSORTHOREF
  2

  9
$PUCSORTHOVIEW
 70
     0
  9
$PUCSORGTOP
 10
0.0
 20
0.0
 30
0.0
  9
$PUCSORGBOTTOM
 10
0.0
 20
0.0
 30
0.0
  9
$PUCSORGLEFT
 10
0.0
 20
0.0
 30
0.0
  9
$PUCSORGRIGHT
 10
0.0
 20
0.0
 30
0.0
  9
$PUCSORGFRONT
 10
0.0
 20
0.0
 30
0.0
  9
$PUCSORGBACK
 10
0.0
 20
0.0
 30
0.0
  9
$USERI1
 70
     0
  9
$USERI2
 70
     0
  9
$USERI3
 70
     0
  9
$USERI4
 70
     0
  9
$USERI5
 70
     0
  9
$USERR1
 40
0.0
  9
$USERR2
 40
0.0
  9
$USERR3
 40
0.0
  9
$USERR4
 40
0.0
  9
$USERR5
 40
0.0
  9
$WORLDVIEW
 70
     1
  9
$SHADEDGE
 70
     3
  9
$SHADEDIF
 70
    70
  9
$TILEMODE
 70
     1
  9
$MAXACTVP
 70
    64
  9
$PINSBASE
 10
0.0
 20
0.0
 30
0.0
  9
$PLIMCHECK
 70
     0
  9
$PEXTMIN
 10
1.000000000000000E+20
 20
1.000000000000000E+20
 30
1.000000000000000E+20
  9
$PEXTMAX
 10
-1.000000000000000E+20
 20
-1.000000000000000E+20
 30
-1.000000000000000E+20
  9
$PLIMMIN
 10
0.0
 20
0.0
  9
$PLIMMAX
 10
420.0
 20
297.0
  9
$UNITMODE
 70
     0
  9
$VISRETAIN
 70
     1
  9
$PLINEGEN
 70
     0
  9
$PSLTSCALE
 70
     1
  9
$TREEDEPTH
 70
  3020
  9
$CMLSTYLE
  2
Standard
  9
$CMLJUST
 70
     0
  9
$CMLSCALE
 40
20.0
  9
$PROXYGRAPHICS
 70
     1
  9
$MEASUREMENT
 70
     1
  9
$CELWEIGHT
370
    -1
  9
$ENDCAPS
280
     0
  9
$JOINSTYLE
280
     0
  9
$LWDISPLAY
290
     1
  9
$INSUNITS
 70
     4
  9
$HYPERLINKBASE
  1

  9
$STYLESHEET
  1

  9
$XEDIT
290
     0
  9
$CEPSNTYPE
380
     0
  9
$PSTYLEMODE
290
     1
  9
$FINGERPRINTGUID
  2
{BF0C38CA-E1F5-456C-96F2-192EA9E254F8}
  9
$VERSIONGUID
  2
{FAEB1C32-E019-11D5-929B-00C0DF256EC4}
  9
$EXTNAMES
290
     1
  9
$PSVPSCALE
 40
0.0
  9
$OLESTARTUP
290
     0
  9
$SORTENTS
280
   127
  9
$INDEXCTL
280
     0
  9
$HIDETEXT
280
     1
  9
$XCLIPFRAME
290
     0
  9
$HALOGAP
280
     0
  9
$OBSCOLOR
 70
   257
  9
$OBSLTYPE
280
     0
  9
$INTERSECTIONDISPLAY
280
     0
  9
$INTERSECTIONCOLOR
 70
   257
  9
$DIMASSOC
280
     2
  9
$PROJECTNAME
  1

  9
$CAMERADISPLAY
290
     0
  9
$LENSLENGTH
 40
50.0
  9
$CAMERAHEIGHT
 40
0.0
  9
$STEPSPERSEC
 40
2.0
  9
$STEPSIZE
 40
6.0
  9
$3DDWFPREC
 40
2.0
  9
$PSOLWIDTH
 40
0.25
  9
$PSOLHEIGHT
 40
4.0
  9
$LOFTANG1
 40
1.570796326794897
  9
$LOFTANG2
 40
1.570796326794897
  9
$LOFTMAG1
 40
0.0
  9
$LOFTMAG2
 40
0.0
  9
$LOFTPARAM
 70
     7
  9
$LOFTNORMALS
280
     1
  9
$LATITUDE
 40
37.795
  9
$LONGITUDE
 40
-122.394
  9
$NORTHDIRECTION
 40
0.0
  9
$TIMEZONE
 70
 -8000
  9
$LIGHTGLYPHDISPLAY
280
     1
  9
$TILEMODELIGHTSYNCH
280
     1
  9
$SOLIDHIST
280
     1
  9
$SHOWHIST
280
     1
  9
$DWFFRAME
280
     2
  9
$DGNFRAME
280
     2
  9
$REALWORLDSCALE
290
     1
  9
$INTERFERECOLOR
 62
   256
  9
$CSHADOW
280
     0
  9
$SHADOWPLANELOCATION
 40
0.0
  0
ENDSEC
  0
SECTION
  2
CLASSES
  0
CLASS
  1
ACDBDICTIONARYWDFLT
  2
AcDbDictionaryWithDefault
  3
ObjectDBX Classes
 90
        0
 91
        4
280
     0
281
     0
  0
CLASS
  1
ACDBPLACEHOLDER
  2
AcDbPlaceHolder
  3
ObjectDBX Classes
 90
        0
 91
        1
280
     0
281
     0
  0
CLASS
  1
LAYOUT
  2
AcDbLayout
  3
ObjectDBX Classes
 90
        0
 91
        1
280
     0
281
     0
  0
CLASS
  1
DICTIONARYVAR
  2
AcDbDictionaryVar
  3
ObjectDBX Classes
 90
        0
 91
        4
280
     0
281
     0
  0
CLASS
  1
TABLESTYLE
  2
AcDbTableStyle
  3
ObjectDBX Classes
 90
     4095
 91
        4
280
     0
281
     0
  0
CLASS
  1
SCALE
  2
AcDbScale
  3
ObjectDBX Classes
 90
     1153
 91
        4
280
     0
281
     0
  0
CLASS
  1
IMAGEDEF
  2
AcDbRasterImageDef
  3
ISM
 90
        0
 91
        4
280
     0
281
     0
  0
CLASS
  1
VISUALSTYLE
  2
AcDbVisualStyle
  3
ObjectDBX Classes
 90
     4095
 91
        4
280
     0
281
     0
  0
ENDSEC
  0
SECTION
  2
TABLES
  0
TABLE
  2
VPORT
  5
8
330
0
100
AcDbSymbolTable
 70
     2
  0
VPORT
  5
97
330
8
100
AcDbSymbolTableRecord
100
AcDbViewportTableRecord
  2
*Active
 70
     0
 10
0.0
 20
0.0
 11
1.0
 21
1.0
 12
1225.755103065572
 22
1802.607726846554
 13
0.0
 23
0.0
 14
10.0
 24
10.0
 15
10.0
 25
10.0
 16
0.0
 26
0.0
 36
1.0
 17
0.0
 27
0.0
 37
0.0
 40
1261.118637218385
 41
0.7070707071
 42
50.0
 43
0.0
 44
0.0
 50
0.0
 51
0.0
 71
    16
 72
  2000
 73
     1
 74
     3
 75
     0
 76
     0
 77
     0
 78
     0
281
     0
 65
     0
110
0.0
120
0.0
130
0.0
111
1.0
121
0.0
131
0.0
112
0.0
122
1.0
132
0.0
 79
     0
146
0.0
 60
     3
 61
     5
292
     1
282
     1
141
0.0
142
0.0
 63
   256
  0
ENDTAB
  0
TABLE
  2
LTYPE
  5
5
330
0
100
AcDbSymbolTable
 70
     6
  0
LTYPE
  5
14
330
5
100
AcDbSymbolTableRecord
100
AcDbLinetypeTableRecord
  2
ByBlock
 70
     0
  3

 72
    65
 73
     0
 40
0.0
  0
LTYPE
  5
15
330
5
100
AcDbSymbolTableRecord
100
AcDbLinetypeTableRecord
  2
ByLayer
 70
     0
  3

 72
    65
 73
     0
 40
0.0
  0
LTYPE
  5
16
330
5
100
AcDbSymbolTableRecord
100
AcDbLinetypeTableRecord
  2
Continuous
 70
     0
  3
Solid line
 72
    65
 73
     0
 40
0.0
  0
LTYPE
  5
1F0
330
5
100
AcDbSymbolTableRecord
100
AcDbLinetypeTableRecord
  2
HIDDEN
 70
     0
  3
Hidden __ __ __ __ __ __ __ __ __ __ __ __ __ __
 72
    65
 73
     2
 40
1.905
 49
1.27
 74
     4
 75
     0
340
0
 46
1.0
 50
0.0
 44
0.0
 45
0.0
 49
-0.635
 74
     4
 75
     0
340
0
 46
1.0
 50
0.0
 44
0.0
 45
0.0
  0
LTYPE
  5
1F1
330
5
100
AcDbSymbolTableRecord
100
AcDbLinetypeTableRecord
  2
PHANTOM
 70
     0
  3
Phantom ______  __  __  ______  __  __  ______
 72
    65
 73
     6
 40
12.7
 49
6.35
 74
     4
 75
     0
340
0
 46
1.0
 50
0.0
 44
0.0
 45
0.0
 49
-1.27
 74
     4
 75
     0
340
0
 46
1.0
 50
0.0
 44
0.0
 45
0.0
 49
1.27
 74
     4
 75
     0
340
0
 46
1.0
 50
0.0
 44
0.0
 45
0.0
 49
-1.27
 74
     4
 75
     0
340
0
 46
1.0
 50
0.0
 44
0.0
 45
0.0
 49
1.27
 74
     4
 75
     0
340
0
 46
1.0
 50
0.0
 44
0.0
 45
0.0
 49
-1.27
 74
     4
 75
     0
340
0
 46
1.0
 50
0.0
 44
0.0
 45
0.0
  0
LTYPE
  5
1F2
330
5
100
AcDbSymbolTableRecord
100
AcDbLinetypeTableRecord
  2
CENTER
 70
     0
  3
Center ____ _ ____ _ ____ _ ____ _ ____ _ ____
 72
    65
 73
     4
 40
10.16
 49
6.35
 74
     4
 75
     0
340
0
 46
1.0
 50
0.0
 44
0.0
 45
0.0
 49
-1.27
 74
     4
 75
     0
340
0
 46
1.0
 50
0.0
 44
0.0
 45
0.0
 49
1.27
 74
     4
 75
     0
340
0
 46
1.0
 50
0.0
 44
0.0
 45
0.0
 49
-1.27
 74
     4
 75
     0
340
0
 46
1.0
 50
0.0
 44
0.0
 45
0.0
  0
LTYPE
  5
1F3
330
5
100
AcDbSymbolTableRecord
100
AcDbLinetypeTableRecord
  2
CENTERX2
 70
     0
  3
Center (2x) ________  __  ________  __  _____
 72
    65
 73
     4
 40
20.32
 49
12.7
 74
     4
 75
     0
340
0
 46
1.0
 50
0.0
 44
0.0
 45
0.0
 49
-2.54
 74
     4
 75
     0
340
0
 46
1.0
 50
0.0
 44
0.0
 45
0.0
 49
2.54
 74
     4
 75
     0
340
0
 46
1.0
 50
0.0
 44
0.0
 45
0.0
 49
-2.54
 74
     4
 75
     0
340
0
 46
1.0
 50
0.0
 44
0.0
 45
0.0
  0
LTYPE
  5
1F4
330
5
100
AcDbSymbolTableRecord
100
AcDbLinetypeTableRecord
  2
DOT2
 70
     0
  3
Dot (.5x) ........................................
 72
    65
 73
     2
 40
0.635
 49
0.0
 74
     4
 75
     0
340
0
 46
1.0
 50
0.0
 44
0.0
 45
0.0
 49
-0.635
 74
     4
 75
     0
340
0
 46
1.0
 50
0.0
 44
0.0
 45
0.0
  0
ENDTAB
  0
TABLE
  2
LAYER
  5
2
330
0
100
AcDbSymbolTable
 70
     1
  0
LAYER
  5
10
330
2
100
AcDbSymbolTableRecord
100
AcDbLayerTableRecord
  2
0
 70
     0
 62
     7
  6
Continuous
370
    -3
390
F
347
0
  0
ENDTAB
  0
TABLE
  2
STYLE
  5
3
330
0
100
AcDbSymbolTable
 70
     4
  0
STYLE
  5
11
330
3
100
AcDbSymbolTableRecord
100
AcDbTextStyleTableRecord
  2
Standard
 70
     0
 40
0.0
 41
1.0
 50
0.0
 71
     0
 42
2.5
  3
txt
  4

  0
STYLE
  5
64
330
3
100
AcDbSymbolTableRecord
100
AcDbTextStyleTableRecord
  2
SLDTEXTSTYLE0
 70
     0
 40
0.0
 41
0.75
 50
0.0
 71
     0
 42
0.2
  3
TXT
  4

  0
STYLE
  5
8A
330
3
100
AcDbSymbolTableRecord
100
AcDbTextStyleTableRecord
  2
SLDTEXTSTYLE1
 70
     0
 40
0.0
 41
0.6944444444
 50
0.0
 71
     0
 42
0.2
  3
TXT
  4

  0
STYLE
  5
1EF
330
3
100
AcDbSymbolTableRecord
100
AcDbTextStyleTableRecord
  2
SLDTEXTSTYLE2
 70
     0
 40
0.0
 41
0.605
 50
0.0
 71
     0
 42
0.2
  3
TXT
  4

  0
ENDTAB
  0
TABLE
  2
VIEW
  5
6
330
0
100
AcDbSymbolTable
 70
     0
  0
ENDTAB
  0
TABLE
  2
UCS
  5
7
330
0
100
AcDbSymbolTable
 70
     0
  0
ENDTAB
  0
TABLE
  2
APPID
  5
9
330
0
100
AcDbSymbolTable
 70
     1
  0
APPID
  5
12
330
9
100
AcDbSymbolTableRecord
100
AcDbRegAppTableRecord
  2
ACAD
 70
     0
  0
ENDTAB
  0
TABLE
  2
DIMSTYLE
  5
A
330
0
100
AcDbSymbolTable
 70
     5
100
AcDbDimStyleTable
  0
DIMSTYLE
105
27
330
A
100
AcDbSymbolTableRecord
100
AcDbDimStyleTableRecord
  2
Standard
 70
     0
278
     0
340
11
  0
DIMSTYLE
105
1F5
330
A
100
AcDbSymbolTableRecord
100
AcDbDimStyleTableRecord
  2
ISO-25
 70
     0
 41
2.5
 42
0.625
 43
3.75
 44
1.25
 73
     0
 74
     0
 77
     1
 78
     8
140
2.5
141
2.5
143
0.0393700787
147
0.625
171
     3
172
     1
271
     2
272
     2
274
     3
278
    44
283
     0
284
     8
340
11
  0
DIMSTYLE
105
1B5
102
{ACAD_REACTORS
330
1B4
102
}
330
A
100
AcDbSymbolTableRecord
100
AcDbDimStyleTableRecord
  2
SLDDIMSTYLE0
 70
     0
 41
33.02
 44
0.0
 45
0.000000001
 73
     0
 77
     1
 78
    12
140
35.0
147
8.75
173
     1
271
     0
272
     0
284
    12
340
64
  0
DIMSTYLE
105
1C0
102
{ACAD_REACTORS
330
1BF
330
1CA
102
}
330
A
100
AcDbSymbolTableRecord
100
AcDbDimStyleTableRecord
  2
SLDDIMSTYLE1
 70
     0
 41
33.02
 44
0.0
 45
0.000000001
 73
     0
 77
     1
 78
    12
140
35.0
147
8.75
173
     1
271
     2
272
     2
284
    12
340
64
  0
DIMSTYLE
105
1D6
102
{ACAD_REACTORS
330
1D5
102
}
330
A
100
AcDbSymbolTableRecord
100
AcDbDimStyleTableRecord
  2
SLDDIMSTYLE2
 70
     0
 41
33.02
 44
0.0
 45
0.000000001
 73
     0
 77
     1
 78
    12
140
35.0
147
8.75
173
     1
271
     2
272
     2
284
    12
340
64
  0
ENDTAB
  0
TABLE
  2
BLOCK_RECORD
  5
1
330
0
100
AcDbSymbolTable
 70
     5
  0
BLOCK_RECORD
  5
1F
102
{ACAD_XDICTIONARY
360
220
102
}
330
1
100
AcDbSymbolTableRecord
100
AcDbBlockTableRecord
  2
*Model_Space
340
22
 70
     0
280
     1
281
     0
  0
BLOCK_RECORD
  5
73
330
1
100
AcDbSymbolTableRecord
100
AcDbBlockTableRecord
  2
*Paper_Space
340
74
 70
     0
280
     1
281
     0
  0
BLOCK_RECORD
  5
23
330
1
100
AcDbSymbolTableRecord
100
AcDbBlockTableRecord
  2
*Paper_Space0
340
26
 70
     0
280
     1
281
     0
  0
BLOCK_RECORD
  5
1B6
330
1
100
AcDbSymbolTableRecord
100
AcDbBlockTableRecord
  2
*D1
340
0
 70
     0
280
     1
281
     0
  0
BLOCK_RECORD
  5
1C1
330
1
100
AcDbSymbolTableRecord
100
AcDbBlockTableRecord
  2
*D2
340
0
 70
     0
280
     1
281
     0
  0
BLOCK_RECORD
  5
1CB
330
1
100
AcDbSymbolTableRecord
100
AcDbBlockTableRecord
  2
*D3
340
0
 70
     0
280
     1
281
     0
  0
BLOCK_RECORD
  5
1D7
330
1
100
AcDbSymbolTableRecord
100
AcDbBlockTableRecord
  2
*D4
340
0
 70
     0
280
     1
281
     0
  0
ENDTAB
  0
ENDSEC
  0
SECTION
  2
BLOCKS
  0
BLOCK
  5
20
330
1F
100
AcDbEntity
  8
0
100
AcDbBlockBegin
  2
*Model_Space
 70
     0
 10
0.0
 20
0.0
 30
0.0
  3
*Model_Space
  1

  0
ENDBLK
  5
21
330
1F
100
AcDbEntity
  8
0
100
AcDbBlockEnd
  0
BLOCK
  5
75
330
73
100
AcDbEntity
 67
     1
  8
0
100
AcDbBlockBegin
  2
*Paper_Space
 70
     0
 10
0.0
 20
0.0
 30
0.0
  3
*Paper_Space
  1

  0
ENDBLK
  5
76
330
73
100
AcDbEntity
 67
     1
  8
0
100
AcDbBlockEnd
  0
BLOCK
  5
1FC
330
23
100
AcDbEntity
  8
0
100
AcDbBlockBegin
  2
*Paper_Space0
 70
     0
 10
0.0
 20
0.0
 30
0.0
  3
*Paper_Space0
  1

  0
ENDBLK
  5
1FD
330
23
100
AcDbEntity
  8
0
100
AcDbBlockEnd
  0
BLOCK
  5
1FE
330
1B6
100
AcDbEntity
  8
0
100
AcDbBlockBegin
  2
*D1
 70
     1
 10
0.0
 20
0.0
 30
0.0
  3
*D1
  1

  0
SOLID
  5
1B9
330
1B6
100
AcDbEntity
  8
0
  6
Continuous
 62
     7
 48
10.0
370
     0
100
AcDbTrace
 10
1384.5182941625
 20
2202.8978045278
 30
0.0
 11
1379.4382941625
 21
2169.8778045278
 31
0.0
 12
1389.5982941625
 22
2169.8778045278
 32
0.0
 13
1389.5982941625
 23
2169.8778045278
 33
0.0
  0
SOLID
  5
1BA
330
1B6
100
AcDbEntity
  8
0
  6
Continuous
 62
     7
 48
10.0
370
     0
100
AcDbTrace
 10
1384.5182941625
 20
1590.62840861
 30
0.0
 11
1389.5982941625
 21
1623.64840861
 31
0.0
 12
1379.4382941625
 22
1623.64840861
 32
0.0
 13
1379.4382941625
 23
1623.64840861
 33
0.0
  0
LINE
  5
1BB
330
1B6
100
AcDbEntity
  8
0
  6
Continuous
 62
     7
 48
10.0
370
     0
100
AcDbLine
 10
1147.6317751419
 20
2202.8978045278
 30
0.0
 11
1394.5182941625
 21
2202.8978045278
 31
0.0
  0
LINE
  5
1BC
330
1B6
100
AcDbEntity
  8
0
  6
Continuous
 62
     7
 48
10.0
370
     0
100
AcDbLine
 10
1184.4232645071
 20
1590.62840861
 30
0.0
 11
1394.5182941625
 21
1590.62840861
 31
0.0
  0
LINE
  5
1BD
330
1B6
100
AcDbEntity
  8
0
  6
Continuous
 62
     7
 48
10.0
370
     0
100
AcDbLine
 10
1384.5182941625
 20
2202.8978045278
 30
0.0
 11
1384.5182941625
 21
1590.62840861
 31
0.0
  0
MTEXT
  5
1BE
330
1B6
100
AcDbEntity
  8
0
  6
Continuous
 62
     7
 48
10.0
370
     0
100
AcDbMText
 10
1339.4009250168
 20
1856.1958440296
 30
0.0
 40
35.0
 41
0.0
 46
0.0
 71
     1
 72
     1
  1
612
  7
SLDTEXTSTYLE0
 11
-7.044195017643634E-15
 21
1.0
 31
0.0
 73
     1
 44
1.0
  0
ENDBLK
  5
1FF
330
1B6
100
AcDbEntity
  8
0
100
AcDbBlockEnd
  0
BLOCK
  5
200
330
1C1
100
AcDbEntity
  8
0
100
AcDbBlockBegin
  2
*D2
 70
     1
 10
0.0
 20
0.0
 30
0.0
  3
*D2
  1

  0
SOLID
  5
1C4
330
1C1
100
AcDbEntity
  8
0
  6
Continuous
 62
     7
 48
10.0
370
     0
100
AcDbTrace
 10
795.1996991256
 20
1954.8978049822
 30
0.0
 11
800.2796991256
 21
1987.9178049822
 31
0.0
 12
790.1196991256
 22
1987.9178049822
 32
0.0
 13
790.1196991256
 23
1987.9178049822
 33
0.0
  0
SOLID
  5
1C5
330
1C1
100
AcDbEntity
  8
0
  6
Continuous
 62
     7
 48
10.0
370
     0
100
AcDbTrace
 10
795.1996991256
 20
2202.8978045278
 30
0.0
 11
790.1196991256
 21
2169.8778045278
 31
0.0
 12
800.2796991256
 22
2169.8778045278
 32
0.0
 13
800.2796991256
 23
2169.8778045278
 33
0.0
  0
LINE
  5
1C6
330
1C1
100
AcDbEntity
  8
0
  6
Continuous
 62
     7
 48
10.0
370
     0
100
AcDbLine
 10
916.4213592233
 20
1954.8978049822
 30
0.0
 11
785.1996991256
 21
1954.8978049822
 31
0.0
  0
LINE
  5
1C7
330
1C1
100
AcDbEntity
  8
0
  6
Continuous
 62
     7
 48
10.0
370
     0
100
AcDbLine
 10
1093.9307212934
 20
2202.8978045278
 30
0.0
 11
785.1996991256
 21
2202.8978045278
 31
0.0
  0
LINE
  5
1C8
330
1C1
100
AcDbEntity
  8
0
  6
Continuous
 62
     7
 48
10.0
370
     0
100
AcDbLine
 10
795.1996991256
 20
1954.8978049822
 30
0.0
 11
795.1996991256
 21
2202.8978045278
 31
0.0
  0
MTEXT
  5
1C9
330
1C1
100
AcDbEntity
  8
0
  6
Continuous
 62
     7
 48
10.0
370
     0
100
AcDbMText
 10
750.0823299798
 20
2052.6112643156
 30
0.0
 40
35.0
 41
0.0
 46
0.0
 71
     1
 72
     1
  1
248
  7
SLDTEXTSTYLE0
 11
6.123233995736766E-17
 21
1.0
 31
0.0
 73
     1
 44
1.0
  0
ENDBLK
  5
201
330
1C1
100
AcDbEntity
  8
0
100
AcDbBlockEnd
  0
BLOCK
  5
202
330
1CB
100
AcDbEntity
  8
0
100
AcDbBlockBegin
  2
*D3
 70
     1
 10
0.0
 20
0.0
 30
0.0
  3
*D3
  1

  0
SOLID
  5
1CE
330
1CB
100
AcDbEntity
  8
0
  6
Continuous
 62
     7
 48
10.0
370
     0
100
AcDbTrace
 10
1281.4213592233
 20
2302.8978049822
 30
0.0
 11
1248.4013592233
 21
2307.9778049822
 31
0.0
 12
1248.4013592233
 22
2297.8178049822
 32
0.0
 13
1248.4013592233
 23
2297.8178049822
 33
0.0
  0
SOLID
  5
1CF
330
1CB
100
AcDbEntity
  8
0
  6
Continuous
 62
     7
 48
10.0
370
     0
100
AcDbTrace
 10
926.4213592233
 20
2302.8978049822
 30
0.0
 11
959.4413592233
 21
2297.8178049822
 31
0.0
 12
959.4413592233
 22
2307.9778049822
 32
0.0
 13
959.4413592233
 23
2307.9778049822
 33
0.0
  0
LINE
  5
1D0
330
1CB
100
AcDbEntity
  8
0
  6
Continuous
 62
     7
 48
10.0
370
     0
100
AcDbLine
 10
1281.4213592233
 20
1964.8978049822
 30
0.0
 11
1281.4213592233
 21
2312.8978049822
 31
0.0
  0
LINE
  5
1D1
330
1CB
100
AcDbEntity
  8
0
  6
Continuous
 62
     7
 48
10.0
370
     0
100
AcDbLine
 10
926.4213592233
 20
1964.8978049822
 30
0.0
 11
926.4213592233
 21
2312.8978049822
 31
0.0
  0
LINE
  5
1D2
330
1CB
100
AcDbEntity
  8
0
  6
Continuous
 62
     7
 48
10.0
370
     0
100
AcDbLine
 10
1281.4213592233
 20
2302.8978049822
 30
0.0
 11
926.4213592233
 21
2302.8978049822
 31
0.0
  0
MTEXT
  5
1D3
330
1CB
100
AcDbEntity
  8
0
  6
Continuous
 62
     7
 48
10.0
370
     0
100
AcDbMText
 10
1020.15542748
 20
2348.0151758743
 30
0.0
 40
35.0
 41
0.0
 46
0.0
 71
     1
 72
     1
  1
%%c
  7
SLDTEXTSTYLE0
 73
     1
 44
1.0
  0
MTEXT
  5
1D4
330
1CB
100
AcDbEntity
  8
0
  6
Continuous
 62
     7
 48
10.0
370
     0
100
AcDbMText
 10
1072.9283898901
 20
2348.015174128
 30
0.0
 40
35.0
 41
0.0
 46
0.0
 71
     1
 72
     1
  1
355
  7
SLDTEXTSTYLE0
 73
     1
 44
1.0
  0
ENDBLK
  5
203
330
1CB
100
AcDbEntity
  8
0
100
AcDbBlockEnd
  0
BLOCK
  5
204
330
1D7
100
AcDbEntity
  8
0
100
AcDbBlockBegin
  2
*D4
 70
     1
 10
0.0
 20
0.0
 30
0.0
  3
*D4
  1

  0
SOLID
  5
1DA
330
1D7
100
AcDbEntity
  8
0
  6
Continuous
 62
     7
 48
10.0
370
     0
100
AcDbTrace
 10
1001.9213592233
 20
1403.8470170986
 30
0.0
 11
968.9013592233
 21
1408.9270170986
 31
0.0
 12
968.9013592233
 22
1398.7670170986
 32
0.0
 13
968.9013592233
 23
1398.7670170986
 33
0.0
  0
SOLID
  5
1DB
330
1D7
100
AcDbEntity
  8
0
  6
Continuous
 62
     7
 48
10.0
370
     0
100
AcDbTrace
 10
1205.9213592233
 20
1403.8470170986
 30
0.0
 11
1238.9413592233
 21
1398.7670170986
 31
0.0
 12
1238.9413592233
 22
1408.9270170986
 32
0.0
 13
1238.9413592233
 23
1408.9270170986
 33
0.0
  0
LINE
  5
1DC
330
1D7
100
AcDbEntity
  8
0
  6
Continuous
 62
     7
 48
10.0
370
     0
100
AcDbLine
 10
1001.9213592233
 20
1888.72840861
 30
0.0
 11
1001.9213592233
 21
1393.8470170986
 31
0.0
  0
LINE
  5
1DD
330
1D7
100
AcDbEntity
  8
0
  6
Continuous
 62
     7
 48
10.0
370
     0
100
AcDbLine
 10
1205.9213592233
 20
1888.72840861
 30
0.0
 11
1205.9213592233
 21
1393.8470170986
 31
0.0
  0
LINE
  5
1DE
330
1D7
100
AcDbEntity
  8
0
  6
Continuous
 62
     7
 48
10.0
370
     0
100
AcDbLine
 10
1001.9213592233
 20
1403.8470170986
 30
0.0
 11
938.4213592233
 21
1403.8470170986
 31
0.0
  0
LINE
  5
1DF
330
1D7
100
AcDbEntity
  8
0
  6
Continuous
 62
     7
 48
10.0
370
     0
100
AcDbLine
 10
1001.9213592233
 20
1403.8470170986
 30
0.0
 11
1205.9213592233
 21
1403.8470170986
 31
0.0
  0
LINE
  5
1E0
330
1D7
100
AcDbEntity
  8
0
  6
Continuous
 62
     7
 48
10.0
370
     0
100
AcDbLine
 10
1205.9213592233
 20
1403.8470170986
 30
0.0
 11
1269.4213592233
 21
1403.8470170986
 31
0.0
  0
MTEXT
  5
1E1
330
1D7
100
AcDbEntity
  8
0
  6
Continuous
 62
     7
 48
10.0
370
     0
100
AcDbMText
 10
1031.5265889503
 20
1448.9643879906
 30
0.0
 40
35.0
 41
0.0
 46
0.0
 71
     1
 72
     1
  1
%%c
  7
SLDTEXTSTYLE0
 73
     1
 44
1.0
  0
MTEXT
  5
1E2
330
1D7
100
AcDbEntity
  8
0
  6
Continuous
 62
     7
 48
10.0
370
     0
100
AcDbMText
 10
1084.2995513603
 20
1448.9643862444
 30
0.0
 40
35.0
 41
0.0
 46
0.0
 71
     1
 72
     1
  1
204
  7
SLDTEXTSTYLE0
 73
     1
 44
1.0
  0
ENDBLK
  5
205
330
1D7
100
AcDbEntity
  8
0
100
AcDbBlockEnd
  0
ENDSEC
  0
SECTION
  2
ENTITIES
  0
LINE
  5
206
330
1F
100
AcDbEntity
  8
0
  6
Continuous
 62
     7
 48
10.0
370
    15
100
AcDbLine
 10
957.6695415052
 20
1953.2788327537
 30
0.0
 11
957.6695415052
 21
1954.8788327537
 31
0.0
  0
LINE
  5
207
330
1F
100
AcDbEntity
  8
0
  6
Continuous
 62
     7
 48
10.0
370
    15
100
AcDbLine
 10
955.9195415052
 20
1951.6788327537
 30
0.0
 11
955.9195415052
 21
1953.2788327537
 31
0.0
  0
LINE
  5
208
330
1F
100
AcDbEntity
  8
0
  6
Continuous
 62
     7
 48
10.0
370
    15
100
AcDbLine
 10
1106.9213592233
 20
1750.6269259878
 30
0.0
 11
1107.1713592233
 21
1750.6269259878
 31
0.0
  0
LINE
  5
209
330
1F
100
AcDbEntity
  8
0
  6
Continuous
 62
     7
 48
10.0
370
    15
100
AcDbLine
 10
1107.1713592233
 20
1787.0491465489
 30
0.0
 11
1106.9213592233
 21
1787.0491465489
 31
0.0
  0
LINE
  5
20A
330
1F
100
AcDbEntity
  8
0
  6
Continuous
 62
     7
 48
10.0
370
    15
100
AcDbLine
 10
1101.1713592233
 20
1750.7377830461
 30
0.0
 11
1101.4213592233
 21
1750.7377830461
 31
0.0
  0
LINE
  5
20B
330
1F
100
AcDbEntity
  8
0
  6
Continuous
 62
     7
 48
10.0
370
    15
100
AcDbLine
 10
1102.9213592233
 20
1786.9382894906
 30
0.0
 11
1101.1713592233
 21
1786.9382894906
 31
0.0
  0
LINE
  5
20C
330
1F
100
AcDbEntity
  8
0
  6
Continuous
 62
     7
 48
10.0
370
    15
100
AcDbLine
 10
1106.4213592233
 20
1750.7377830461
 30
0.0
 11
1106.9213592233
 21
1750.7377830461
 31
0.0
  0
LINE
  5
20D
330
1F
100
AcDbEntity
  8
0
  6
Continuous
 62
     7
 48
10.0
370
    15
100
AcDbLine
 10
1106.9213592233
 20
1786.9382894906
 30
0.0
 11
1104.9213592233
 21
1786.9382894906
 31
0.0
  0
LINE
  5
20E
330
1F
100
AcDbEntity
  8
0
  6
Continuous
 62
     7
 48
10.0
370
    15
100
AcDbLine
 10
1104.9213592233
 20
1786.9382894906
 30
0.0
 11
1102.9213592233
 21
1786.9382894906
 31
0.0
  0
ARC
  5
20F
330
1F
100
AcDbEntity
  8
0
  6
Continuous
 62
     7
 48
100.0
370
    15
100
AcDbCircle
 10
1099.5713592233
 20
1592.22840861
 30
0.0
 40
2.0
100
AcDbArc
 50
180.0
 51
233.1301023542
  0
ARC
  5
210
330
1F
100
AcDbEntity
  8
0
  6
Continuous
 62
     7
 48
100.0
370
    15
100
AcDbCircle
 10
1108.2713592233
 20
1592.22840861
 30
0.0
 40
2.0
100
AcDbArc
 50
306.8698976458
 51
0.0
  0
ARC
  5
211
330
1F
100
AcDbEntity
  8
0
  6
Continuous
 62
     7
 48
100.0
370
    15
100
AcDbCircle
 10
1164.5232645071
 20
1592.22840861
 30
0.0
 40
2.0
100
AcDbArc
 50
180.0
 51
233.1301023542
  0
ARC
  5
212
330
1F
100
AcDbEntity
  8
0
  6
Continuous
 62
     7
 48
100.0
370
    15
100
AcDbCircle
 10
1173.2232645071
 20
1592.22840861
 30
0.0
 40
2.0
100
AcDbArc
 50
306.8698976458
 51
0.0
  0
ARC
  5
213
330
1F
100
AcDbEntity
  8
0
  6
Continuous
 62
     7
 48
100.0
370
    15
100
AcDbCircle
 10
1034.6194539395
 20
1592.22840861
 30
0.0
 40
2.0
100
AcDbArc
 50
180.0
 51
233.1301023542
  0
ARC
  5
214
330
1F
100
AcDbEntity
  8
0
  6
Continuous
 62
     7
 48
100.0
370
    15
100
AcDbCircle
 10
1043.3194539395
 20
1592.22840861
 30
0.0
 40
2.000000000000227
100
AcDbArc
 50
306.8698976458
 51
0.0
  0
LINE
  5
215
330
1F
100
AcDbEntity
  8
0
  6
Continuous
 62
     7
 48
10.0
370
    15
100
AcDbLine
 10
1105.8213592233
 20
1753.4028630116
 30
0.0
 11
1105.8213592233
 21
1753.4127169724
 31
0.0
  0
LINE
  5
216
330
1F
100
AcDbEntity
  8
0
  6
Continuous
 62
     7
 48
10.0
370
    15
100
AcDbLine
 10
1102.0213592233
 20
1753.4127169724
 30
0.0
 11
1102.0213592233
 21
1753.4028630116
 31
0.0
  0
LINE
  5
217
330
1F
100
AcDbEntity
  8
0
  6
Continuous
 62
     7
 48
10.0
370
    15
100
AcDbLine
 10
1259.6899065007
 20
1958.9288327537
 30
0.0
 11
1258.1899065007
 21
1958.9288327537
 31
0.0
  0
LINE
  5
218
330
1F
100
AcDbEntity
  8
0
  6
Continuous
 62
     7
 48
10.0
370
    15
100
AcDbLine
 10
949.6528119459
 20
1958.9288327537
 30
0.0
 11
948.1528119459
 21
1958.9288327537
 31
0.0
  0
ARC
  5
219
330
1F
100
AcDbEntity
  8
0
  6
Continuous
 62
     7
 48
100.0
370
    15
100
AcDbCircle
 10
1634.1580206351
 20
1858.7402357733
 30
0.0
 40
633.5
100
AcDbArc
 50
176.3809348515
 51
196.3197392433
  0
ARC
  5
21A
330
1F
100
AcDbEntity
  8
0
  6
Continuous
 62
     7
 48
100.0
370
    15
100
AcDbCircle
 10
573.6846978115
 20
1858.7402357733
 30
0.0
 40
633.5000000000001
100
AcDbArc
 50
343.6802607567
 51
3.6190651485
  0
ARC
  5
21B
330
1F
100
AcDbEntity
  8
0
  6
Continuous
 62
     7
 48
100.0
370
    15
100
AcDbCircle
 10
1058.8076886637
 20
1895.1304198938
 30
0.0
 40
57.00000000000253
100
AcDbArc
 50
120.3527386793
 51
176.3809348515
  0
ARC
  5
21C
330
1F
100
AcDbEntity
  8
0
  6
Continuous
 62
     7
 48
100.0
370
    15
100
AcDbCircle
 10
1149.0350297829
 20
1895.1304198938
 30
0.0
 40
57.00000000000253
100
AcDbArc
 50
3.6190651485
 51
59.6472613207
  0
ARC
  5
21D
330
1F
100
AcDbEntity
  8
0
  6
Continuous
 62
     7
 48
100.0
370
    15
100
AcDbCircle
 10
1088.563714971
 20
1698.9932369693
 30
0.0
 40
65.0
100
AcDbArc
 50
196.3197392433
 51
248.3436216877
  0
ARC
  5
21E
330
1F
100
AcDbEntity
  8
0
  6
Continuous
 62
     7
 48
100.0
370
    15
100
AcDbCircle
 10
1119.2790034756
 20
1698.9932369693
 30
0.0
 40
65.0000000000003
100
AcDbArc
 50
291.6563783123
 51
343.6802607567
  0
ARC
  5
21F
330
1F
100
AcDbEntity
  8
0
  6
Continuous
 62
     7
 48
100.0
370
    15
100
AcDbCircle
 10
2755.679415127
 20
-1002.5911581618
 30
0.0
 40
3415.0
100
AcDbArc
 50
119.9995903127
 51
120.3527386793
  0
ARC
  5
BB
330
1F
100
AcDbEntity
  8
0
  6
Continuous
 62
     7
 48
100.0
370
    15
100
AcDbCircle
 10
-547.8366966804
 20
-1002.5911581618
 30
0.0
 40
3415.0
100
AcDbArc
 50
59.6472613207
 51
60.0004096873
  0
ARC
  5
BC
330
1F
100
AcDbEntity
  8
0
  6
Continuous
 62
     7
 48
100.0
370
    15
100
AcDbCircle
 10
1066.4213592233
 20
1643.22840861
 30
0.0
 40
5.000000000000022
100
AcDbArc
 50
248.3436216877
 51
263.6206297916
  0
ARC
  5
BD
330
1F
100
AcDbEntity
  8
0
  6
Continuous
 62
     7
 48
100.0
370
    15
100
AcDbCircle
 10
1141.4213592233
 20
1643.22840861
 30
0.0
 40
5.000000000000047
100
AcDbArc
 50
276.3793702084
 51
291.6563783123
  0
ARC
  5
BE
330
1F
100
AcDbEntity
  8
0
  6
Continuous
 62
     7
 48
100.0
370
    15
100
AcDbCircle
 10
1065.9213592233
 20
1638.756272655
 30
0.0
 40
0.5
100
AcDbArc
 50
263.6206297916
 51
270.0
  0
ARC
  5
BF
330
1F
100
AcDbEntity
  8
0
  6
Continuous
 62
     7
 48
100.0
370
    15
100
AcDbCircle
 10
1141.9213592233
 20
1638.756272655
 30
0.0
 40
0.5000000000002274
100
AcDbArc
 50
270.0
 51
276.3793702085
  0
LINE
  5
C0
330
1F
100
AcDbEntity
  8
0
  6
Continuous
 62
     7
 48
10.0
370
    15
100
AcDbLine
 10
1065.9213592233
 20
1638.256272655
 30
0.0
 11
1141.9213592233
 21
1638.256272655
 31
0.0
  0
LINE
  5
C1
330
1F
100
AcDbEntity
  8
0
  6
Continuous
 62
     7
 48
10.0
370
    15
100
AcDbLine
 10
1198.9213592233
 20
1608.22840861
 30
0.0
 11
1198.9213592233
 21
1638.22840861
 31
0.0
  0
LINE
  5
C2
330
1F
100
AcDbEntity
  8
0
  6
Continuous
 62
     7
 48
10.0
370
    15
100
AcDbLine
 10
1008.9213592233
 20
1638.22840861
 30
0.0
 11
1008.9213592233
 21
1608.22840861
 31
0.0
  0
ARC
  5
C3
330
1F
100
AcDbEntity
  8
0
  6
Continuous
 62
     7
 48
100.0
370
    15
100
AcDbCircle
 10
1175.3732645071
 20
1593.22840861
 30
0.0
 40
1.000000000000227
100
AcDbArc
 50
270.0
 51
0.0
  0
ARC
  5
C4
330
1F
100
AcDbEntity
  8
0
  6
Continuous
 62
     7
 48
100.0
370
    15
100
AcDbCircle
 10
1162.3732645071
 20
1593.22840861
 30
0.0
 40
1.000000000000227
100
AcDbArc
 50
180.0
 51
270.0
  0
ARC
  5
C5
330
1F
100
AcDbEntity
  8
0
  6
Continuous
 62
     7
 48
100.0
370
    15
100
AcDbCircle
 10
1045.4694539395
 20
1593.22840861
 30
0.0
 40
1.000000000000227
100
AcDbArc
 50
270.0
 51
0.0
  0
ARC
  5
C6
330
1F
100
AcDbEntity
  8
0
  6
Continuous
 62
     7
 48
100.0
370
    15
100
AcDbCircle
 10
1032.4694539395
 20
1593.22840861
 30
0.0
 40
1.000000000000227
100
AcDbArc
 50
180.0
 51
270.0
  0
LINE
  5
C7
330
1F
100
AcDbEntity
  8
0
  6
Continuous
 62
     7
 48
10.0
370
    15
100
AcDbLine
 10
1161.3732645071
 20
1608.22840861
 30
0.0
 11
1161.3732645071
 21
1593.22840861
 31
0.0
  0
LINE
  5
C8
330
1F
100
AcDbEntity
  8
0
  6
Continuous
 62
     7
 48
10.0
370
    15
100
AcDbLine
 10
1176.3732645071
 20
1593.22840861
 30
0.0
 11
1176.3732645071
 21
1608.22840861
 31
0.0
  0
LINE
  5
C9
330
1F
100
AcDbEntity
  8
0
  6
Continuous
 62
     7
 48
10.0
370
    15
100
AcDbLine
 10
1031.4694539395
 20
1608.22840861
 30
0.0
 11
1031.4694539395
 21
1593.22840861
 31
0.0
  0
LINE
  5
CA
330
1F
100
AcDbEntity
  8
0
  6
Continuous
 62
     7
 48
10.0
370
    15
100
AcDbLine
 10
1046.4694539395
 20
1593.22840861
 30
0.0
 11
1046.4694539395
 21
1608.22840861
 31
0.0
  0
ARC
  5
CB
330
1F
100
AcDbEntity
  8
0
  6
Continuous
 62
     7
 48
100.0
370
    15
100
AcDbCircle
 10
1110.4213592233
 20
1593.22840861
 30
0.0
 40
1.000000000000227
100
AcDbArc
 50
270.0
 51
0.0
  0
ARC
  5
CC
330
1F
100
AcDbEntity
  8
0
  6
Continuous
 62
     7
 48
100.0
370
    15
100
AcDbCircle
 10
1097.4213592233
 20
1593.22840861
 30
0.0
 40
1.000000000000227
100
AcDbArc
 50
180.0
 51
270.0
  0
LINE
  5
CD
330
1F
100
AcDbEntity
  8
0
  6
Continuous
 62
     7
 48
10.0
370
    15
100
AcDbLine
 10
1096.4213592233
 20
1608.22840861
 30
0.0
 11
1096.4213592233
 21
1593.22840861
 31
0.0
  0
LINE
  5
CE
330
1F
100
AcDbEntity
  8
0
  6
Continuous
 62
     7
 48
10.0
370
    15
100
AcDbLine
 10
1111.4213592233
 20
1593.22840861
 30
0.0
 11
1111.4213592233
 21
1608.22840861
 31
0.0
  0
ARC
  5
CF
330
1F
100
AcDbEntity
  8
0
  6
Continuous
 62
     7
 48
100.0
370
    15
100
AcDbCircle
 10
751.4213592233
 20
1954.8978049822
 30
0.0
 40
530.0
100
AcDbArc
 50
0.0
 51
9.6503663557
  0
ARC
  5
D0
330
1F
100
AcDbEntity
  8
0
  6
Continuous
 62
     7
 48
100.0
370
    15
100
AcDbCircle
 10
1456.4213592233
 20
1954.8978049822
 30
0.0
 40
530.0
100
AcDbArc
 50
170.3496336443
 51
180.0
  0
ARC
  5
D1
330
1F
100
AcDbEntity
  8
0
  6
Continuous
 62
     7
 48
100.0
370
    15
100
AcDbCircle
 10
1234.4873969591
 20
2037.0391659777
 30
0.0
 40
40.00000000000001
100
AcDbArc
 50
9.6503663557
 51
37.1087048432
  0
ARC
  5
D2
330
1F
100
AcDbEntity
  8
0
  6
Continuous
 62
     7
 48
100.0
370
    15
100
AcDbCircle
 10
973.3553214875
 20
2037.0391659777
 30
0.0
 40
39.99999999999978
100
AcDbArc
 50
142.8912951568
 51
170.3496336443
  0
ARC
  5
D3
330
1F
100
AcDbEntity
  8
0
  6
Continuous
 62
     7
 48
100.0
370
    15
100
AcDbCircle
 10
1190.6253218159
 20
2003.8560623838
 30
0.0
 40
95.00000000000007
100
AcDbArc
 50
37.1087048432
 51
53.5
  0
ARC
  5
D4
330
1F
100
AcDbEntity
  8
0
  6
Continuous
 62
     7
 48
100.0
370
    15
100
AcDbCircle
 10
1017.2173966307
 20
2003.8560623838
 30
0.0
 40
95.0
100
AcDbArc
 50
126.5
 51
142.8912951568
  0
LINE
  5
D5
330
1F
100
AcDbEntity
  8
0
  6
Continuous
 62
     7
 48
10.0
370
    15
100
AcDbLine
 10
1247.1334865572
 20
2080.2224641424
 30
0.0
 11
1202.9213592233
 21
2112.9377174137
 31
0.0
  0
LINE
  5
D6
330
1F
100
AcDbEntity
  8
0
  6
Continuous
 62
     7
 48
10.0
370
    15
100
AcDbLine
 10
1004.9213592233
 20
2112.9377174137
 30
0.0
 11
960.7092318894
 21
2080.2224641424
 31
0.0
  0
ARC
  5
D7
330
1F
100
AcDbEntity
  8
0
  6
Continuous
 62
     7
 48
100.0
370
    15
100
AcDbCircle
 10
1229.9857960205
 20
2149.5132045718
 30
0.0
 40
45.50000000000017
100
AcDbArc
 50
191.6389948635
 51
233.5
  0
ARC
  5
D8
330
1F
100
AcDbEntity
  8
0
  6
Continuous
 62
     7
 48
100.0
370
    15
100
AcDbCircle
 10
977.8569224261
 20
2149.5132045718
 30
0.0
 40
45.50000000000023
100
AcDbArc
 50
306.5
 51
348.3610051365
  0
ARC
  5
D9
330
1F
100
AcDbEntity
  8
0
  6
Continuous
 62
     7
 48
100.0
370
    15
100
AcDbCircle
 10
592.7840906995
 20
1977.879778227
 30
0.0
 40
614.5
100
AcDbArc
 50
15.3293942108
 51
17.0038277583
  0
ARC
  5
DA
330
1F
100
AcDbEntity
  8
0
  6
Continuous
 62
     7
 48
100.0
370
    15
100
AcDbCircle
 10
1615.0586277471
 20
1977.879778227
 30
0.0
 40
614.5000000000002
100
AcDbArc
 50
162.9961722417
 51
164.6706057892
  0
ARC
  5
DB
330
1F
100
AcDbEntity
  8
0
  6
Continuous
 62
     7
 48
100.0
370
    15
100
AcDbCircle
 10
1125.913101606
 20
2140.9126207156
 30
0.0
 40
56.99999999999999
100
AcDbArc
 50
17.0038277583
 51
64.4555853622
  0
ARC
  5
DC
330
1F
100
AcDbEntity
  8
0
  6
Continuous
 62
     7
 48
100.0
370
    15
100
AcDbCircle
 10
1081.9296168406
 20
2140.9126207156
 30
0.0
 40
57.0
100
AcDbArc
 50
115.5444146378
 51
162.9961722417
  0
SPLINE
  5
DD
330
1F
100
AcDbEntity
  8
0
  6
Continuous
 62
     7
 48
10.0
370
    15
100
AcDbSpline
210
0.0
220
0.0
230
1.0
 70
     8
 71
     3
 72
    24
 73
    20
 74
     0
 42
0.00000001
 43
0.00000001
 40
0.0
 40
0.0
 40
0.0
 40
0.0
 40
0.0389526161187879
 40
0.099620938244372
 40
0.1602893561152606
 40
0.2209578573892087
 40
0.2816264326191378
 40
0.3422950746826447
 40
0.4029637783758598
 40
0.4636325401303888
 40
0.5243013578261709
 40
0.5849702306830268
 40
0.6456391592213113
 40
0.7063081452881372
 40
0.7669771921515484
 40
0.827646304670959
 40
0.8883154895593699
 40
0.9489847557623555
 40
1.0
 40
1.0
 40
1.0
 40
1.0
 10
1150.469398404103
 20
2192.311561981756
 30
0.0
 10
1149.342067524016
 20
2192.852175181194
 30
0.0
 10
1146.458929722856
 20
2194.234788199815
 30
0.0
 10
1141.673029779874
 20
2196.1324975098
 30
0.0
 10
1136.148939042558
 20
2198.034718821079
 30
0.0
 10
1130.525060393917
 20
2199.623640332152
 30
0.0
 10
1124.824845836059
 20
2200.909390776099
 30
0.0
 10
1119.063090954158
 20
2201.884248909934
 30
0.0
 10
1113.257150692022
 20
2202.54642314286
 30
0.0
 10
1107.423871043319
 20
2202.893692512304
 30
0.0
 10
1101.580350958786
 20
2202.925112892045
 30
0.0
 10
1095.743665212832
 20
2202.640584964857
 30
0.0
 10
1089.930911798115
 20
2202.040893765139
 30
0.0
 10
1084.158999714349
 20
2201.127983988902
 30
0.0
 10
1078.44515099446
 20
2199.903804453723
 30
0.0
 10
1072.804806601063
 20
2198.37462402318
 30
0.0
 10
1067.25920470823
 20
2196.534876392956
 30
0.0
 10
1062.096072981851
 20
2194.539187426835
 30
0.0
 10
1058.849373414753
 20
2193.01929543705
 30
0.0
 10
1057.366346173747
 20
2192.325039261617
 30
0.0
  0
LINE
  5
DE
330
1F
100
AcDbEntity
  8
0
  6
Continuous
 62
     7
 48
10.0
370
    15
100
AcDbLine
 10
1101.4213592233
 20
1749.5836248327
 30
0.0
 11
1106.4213592233
 21
1749.5836248327
 31
0.0
  0
LINE
  5
DF
330
1F
100
AcDbEntity
  8
0
  6
Continuous
 62
     7
 48
10.0
370
    15
100
AcDbLine
 10
1092.9213592233
 20
1766.6176271234
 30
0.0
 11
1092.9213592233
 21
1761.6725478066
 31
0.0
  0
LINE
  5
E0
330
1F
100
AcDbEntity
  8
0
  6
Continuous
 62
     7
 48
10.0
370
    15
100
AcDbLine
 10
1114.9213592233
 20
1761.6725478066
 30
0.0
 11
1114.9213592233
 21
1766.6176271234
 31
0.0
  0
LINE
  5
E1
330
1F
100
AcDbEntity
  8
0
  6
Continuous
 62
     7
 48
10.0
370
    15
100
AcDbLine
 10
955.4945415052
 20
1954.8788327537
 30
0.0
 11
957.6695415052
 21
1954.8788327537
 31
0.0
  0
LINE
  5
E2
330
1F
100
AcDbEntity
  8
0
  6
Continuous
 62
     7
 48
10.0
370
    15
100
AcDbLine
 10
950.0858246478
 20
1954.8788327537
 30
0.0
 11
955.4945415052
 21
1954.8788327537
 31
0.0
  0
LINE
  5
E3
330
1F
100
AcDbEntity
  8
0
  6
Continuous
 62
     7
 48
10.0
370
    15
100
AcDbLine
 10
955.4945415052
 20
1953.2788327537
 30
0.0
 11
957.6695415052
 21
1953.2788327537
 31
0.0
  0
LINE
  5
E4
330
1F
100
AcDbEntity
  8
0
  6
Continuous
 62
     7
 48
10.0
370
    15
100
AcDbLine
 10
950.5333889349
 20
1953.2788327537
 30
0.0
 11
955.4945415052
 21
1953.2788327537
 31
0.0
  0
LINE
  5
E5
330
1F
100
AcDbEntity
  8
0
  6
Continuous
 62
     7
 48
10.0
370
    15
100
AcDbLine
 10
954.6195415052
 20
1951.6788327537
 30
0.0
 11
955.908698921
 21
1951.6788327537
 31
0.0
  0
LINE
  5
E6
330
1F
100
AcDbEntity
  8
0
  6
Continuous
 62
     7
 48
10.0
370
    15
100
AcDbLine
 10
952.2303840894
 20
1951.6788327537
 30
0.0
 11
954.6195415052
 21
1951.6788327537
 31
0.0
  0
LINE
  5
E7
330
1F
100
AcDbEntity
  8
0
  6
Continuous
 62
     7
 48
10.0
370
    15
100
AcDbLine
 10
1101.1713592233
 20
1737.0346089415
 30
0.0
 11
1101.1713592233
 21
1760.0982734904
 31
0.0
  0
LINE
  5
E8
330
1F
100
AcDbEntity
  8
0
  6
Continuous
 62
     7
 48
10.0
370
    15
100
AcDbLine
 10
1101.1713592233
 20
1768.1919014396
 30
0.0
 11
1101.1713592233
 21
1789.379984819
 31
0.0
  0
LINE
  5
E9
330
1F
100
AcDbEntity
  8
0
  6
Continuous
 62
     7
 48
10.0
370
    15
100
AcDbLine
 10
1102.9213592233
 20
1783.664576557
 30
0.0
 11
1102.9213592233
 21
1785.3698144688
 31
0.0
  0
LINE
  5
EA
330
1F
100
AcDbEntity
  8
0
  6
Continuous
 62
     7
 48
10.0
370
    15
100
AcDbLine
 10
1102.9213592233
 20
1783.664576557
 30
0.0
 11
1102.9213592233
 21
1774.7634337868
 31
0.0
  0
LINE
  5
EB
330
1F
100
AcDbEntity
  8
0
  6
Continuous
 62
     7
 48
10.0
370
    15
100
AcDbLine
 10
1102.9213592233
 20
1786.9218132856
 30
0.0
 11
1102.9213592233
 21
1785.3698144688
 31
0.0
  0
LINE
  5
EC
330
1F
100
AcDbEntity
  8
0
  6
Continuous
 62
     7
 48
10.0
370
    15
100
AcDbLine
 10
1102.9213592233
 20
1786.9218132856
 30
0.0
 11
1102.9213592233
 21
1786.9382894906
 31
0.0
  0
LINE
  5
ED
330
1F
100
AcDbEntity
  8
0
  6
Continuous
 62
     7
 48
10.0
370
    15
100
AcDbLine
 10
1106.9213592233
 20
1785.3698144688
 30
0.0
 11
1104.9213592233
 21
1785.3698144688
 31
0.0
  0
LINE
  5
EE
330
1F
100
AcDbEntity
  8
0
  6
Continuous
 62
     7
 48
10.0
370
    15
100
AcDbLine
 10
1104.9213592233
 20
1783.664576557
 30
0.0
 11
1106.9213592233
 21
1783.664576557
 31
0.0
  0
LINE
  5
EF
330
1F
100
AcDbEntity
  8
0
  6
Continuous
 62
     7
 48
10.0
370
    15
100
AcDbLine
 10
1104.9213592233
 20
1783.664576557
 30
0.0
 11
1104.9213592233
 21
1785.3698144688
 31
0.0
  0
LINE
  5
F0
330
1F
100
AcDbEntity
  8
0
  6
Continuous
 62
     7
 48
10.0
370
    15
100
AcDbLine
 10
1104.9213592233
 20
1774.7634337868
 30
0.0
 11
1104.9213592233
 21
1783.664576557
 31
0.0
  0
LINE
  5
F1
330
1F
100
AcDbEntity
  8
0
  6
Continuous
 62
     7
 48
10.0
370
    15
100
AcDbLine
 10
1104.9213592233
 20
1786.9218132856
 30
0.0
 11
1106.9213592233
 21
1786.9218132856
 31
0.0
  0
LINE
  5
F2
330
1F
100
AcDbEntity
  8
0
  6
Continuous
 62
     7
 48
10.0
370
    15
100
AcDbLine
 10
1104.9213592233
 20
1785.3698144688
 30
0.0
 11
1104.9213592233
 21
1786.9218132856
 31
0.0
  0
LINE
  5
F3
330
1F
100
AcDbEntity
  8
0
  6
Continuous
 62
     7
 48
10.0
370
    15
100
AcDbLine
 10
1104.9213592233
 20
1786.9218132856
 30
0.0
 11
1104.9213592233
 21
1786.9382894906
 31
0.0
  0
LINE
  5
F4
330
1F
100
AcDbEntity
  8
0
  6
Continuous
 62
     7
 48
10.0
370
    15
100
AcDbLine
 10
1104.9213592233
 20
1785.3698144688
 30
0.0
 11
1102.9213592233
 21
1785.3698144688
 31
0.0
  0
LINE
  5
F5
330
1F
100
AcDbEntity
  8
0
  6
Continuous
 62
     7
 48
10.0
370
    15
100
AcDbLine
 10
1102.9213592233
 20
1783.664576557
 30
0.0
 11
1104.9213592233
 21
1783.664576557
 31
0.0
  0
LINE
  5
F6
330
1F
100
AcDbEntity
  8
0
  6
Continuous
 62
     7
 48
10.0
370
    15
100
AcDbLine
 10
1102.9213592233
 20
1786.9218132856
 30
0.0
 11
1104.9213592233
 21
1786.9218132856
 31
0.0
  0
LINE
  5
F7
330
1F
100
AcDbEntity
  8
0
  6
Continuous
 62
     7
 48
10.0
370
    15
100
AcDbLine
 10
1098.3713592233
 20
1590.62840861
 30
0.0
 11
1109.4713592233
 21
1590.62840861
 31
0.0
  0
LINE
  5
F8
330
1F
100
AcDbEntity
  8
0
  6
Continuous
 62
     7
 48
10.0
370
    15
100
AcDbLine
 10
1097.5713592233
 20
1592.22840861
 30
0.0
 11
1110.2713592233
 21
1592.22840861
 31
0.0
  0
LINE
  5
F9
330
1F
100
AcDbEntity
  8
0
  6
Continuous
 62
     7
 48
10.0
370
    15
100
AcDbLine
 10
1163.3232645071
 20
1590.62840861
 30
0.0
 11
1174.4232645071
 21
1590.62840861
 31
0.0
  0
LINE
  5
FA
330
1F
100
AcDbEntity
  8
0
  6
Continuous
 62
     7
 48
10.0
370
    15
100
AcDbLine
 10
1162.5232645071
 20
1592.22840861
 30
0.0
 11
1175.2232645071
 21
1592.22840861
 31
0.0
  0
LINE
  5
FB
330
1F
100
AcDbEntity
  8
0
  6
Continuous
 62
     7
 48
10.0
370
    15
100
AcDbLine
 10
1040.4394680651
 20
1592.22840861
 30
0.0
 11
1045.3194539395
 21
1592.22840861
 31
0.0
  0
LINE
  5
FC
330
1F
100
AcDbEntity
  8
0
  6
Continuous
 62
     7
 48
10.0
370
    15
100
AcDbLine
 10
1032.6194539395
 20
1592.22840861
 30
0.0
 11
1040.4394680651
 21
1592.22840861
 31
0.0
  0
LINE
  5
FD
330
1F
100
AcDbEntity
  8
0
  6
Continuous
 62
     7
 48
10.0
370
    15
100
AcDbLine
 10
1040.2542694351
 20
1590.62840861
 30
0.0
 11
1044.5194539395
 21
1590.62840861
 31
0.0
  0
LINE
  5
FE
330
1F
100
AcDbEntity
  8
0
  6
Continuous
 62
     7
 48
10.0
370
    15
100
AcDbLine
 10
1033.4194539395
 20
1590.62840861
 30
0.0
 11
1040.2542694351
 21
1590.62840861
 31
0.0
  0
ARC
  5
FF
330
1F
100
AcDbEntity
  8
0
  6
Continuous
 62
     7
 48
100.0
370
    15
100
AcDbCircle
 10
1103.9213592233
 20
1760.3456337907
 30
0.0
 40
1.902359133769614
100
AcDbArc
 50
188.3118388062
 51
351.6881611938
  0
LINE
  5
100
330
1F
100
AcDbEntity
  8
0
  6
Continuous
 62
     7
 48
10.0
370
    15
100
AcDbLine
 10
1104.4081653479
 20
1760.0028557163
 30
0.0
 11
1104.412649143
 21
1760.0482667361
 31
0.0
  0
LINE
  5
101
330
1F
100
AcDbEntity
  8
0
  6
Continuous
 62
     7
 48
10.0
370
    15
100
AcDbLine
 10
1103.2833503181
 20
1760.0493814342
 30
0.0
 11
1103.0858541897
 21
1759.8888093938
 31
0.0
  0
LINE
  5
102
330
1F
100
AcDbEntity
  8
0
  6
Continuous
 62
     7
 48
10.0
370
    15
100
AcDbLine
 10
1104.6266525033
 20
1759.7399977848
 30
0.0
 11
1104.4081653479
 21
1760.0028557163
 31
0.0
  0
CIRCLE
  5
103
330
1F
100
AcDbEntity
  8
0
  6
Continuous
 62
     7
 48
100.0
370
    15
100
AcDbCircle
 10
1103.9342674225
 20
1753.386950662
 30
0.0
 40
1.891745129344312
  0
LINE
  5
104
330
1F
100
AcDbEntity
  8
0
  6
Continuous
 62
     7
 48
10.0
370
    15
100
AcDbLine
 10
1103.5483755094
 20
1754.1141422234
 30
0.0
 11
1103.3298883539
 21
1754.3770001549
 31
0.0
  0
LINE
  5
105
330
1F
100
AcDbEntity
  8
0
  6
Continuous
 62
     7
 48
10.0
370
    15
100
AcDbLine
 10
1104.3975171571
 20
1754.0321314023
 30
0.0
 11
1103.5483755094
 21
1754.1141422234
 31
0.0
  0
LINE
  5
106
330
1F
100
AcDbEntity
  8
0
  6
Continuous
 62
     7
 48
10.0
370
    15
100
AcDbLine
 10
1104.6632944224
 20
1754.248218665
 30
0.0
 11
1104.3975171571
 21
1754.0321314023
 31
0.0
  0
ARC
  5
107
330
1F
100
AcDbEntity
  8
0
  6
Continuous
 62
     7
 48
100.0
370
    15
100
AcDbCircle
 10
1248.2369302411
 20
1964.289717312
 30
0.0
 40
15.11088587818716
100
AcDbArc
 50
255.2652894184
 51
269.9760521319
  0
LINE
  5
108
330
1F
100
AcDbEntity
  8
0
  6
Continuous
 62
     7
 48
10.0
370
    15
100
AcDbLine
 10
1244.3935688624
 20
1949.6757703662
 30
0.0
 11
1224.486520514
 21
1954.8978049822
 31
0.0
  0
LINE
  5
109
330
1F
100
AcDbEntity
  8
0
  6
Continuous
 62
     7
 48
10.0
370
    15
100
AcDbLine
 10
1245.0485837458
 20
1954.8978049822
 30
0.0
 11
1249.4874949317
 21
1953.3014498271
 31
0.0
  0
ARC
  5
10A
330
1F
100
AcDbEntity
  8
0
  6
Continuous
 62
     7
 48
100.0
370
    15
100
AcDbCircle
 10
1249.6166421815
 20
1953.6588641121
 30
0.0
 40
0.3800315556137664
100
AcDbArc
 50
250.1333023583
 51
269.9416267309
  0
LINE
  5
10B
330
1F
100
AcDbEntity
  8
0
  6
Continuous
 62
     7
 48
10.0
370
    15
100
AcDbLine
 10
1249.6162550032
 20
1953.2788327537
 30
0.0
 11
1251.1317994599
 21
1953.2788327537
 31
0.0
  0
ARC
  5
10C
330
1F
100
AcDbEntity
  8
0
  6
Continuous
 62
     7
 48
100.0
370
    15
100
AcDbCircle
 10
1251.113757264
 20
1953.0444577537
 30
0.0
 40
0.2350684186749115
100
AcDbArc
 50
356.1887389506
 51
85.5980503478
  0
LINE
  5
10D
330
1F
100
AcDbEntity
  8
0
  6
Continuous
 62
     7
 48
10.0
370
    15
100
AcDbLine
 10
1251.3483058108
 20
1951.9288327537
 30
0.0
 11
1251.3483058108
 21
1953.0288327537
 31
0.0
  0
ARC
  5
10E
330
1F
100
AcDbEntity
  8
0
  6
Continuous
 62
     7
 48
100.0
370
    15
100
AcDbCircle
 10
1251.5828543577
 20
1951.9132077537
 30
0.0
 40
0.2350684186750394
100
AcDbArc
 50
176.1887389505
 51
265.5980503477
  0
LINE
  5
10F
330
1F
100
AcDbEntity
  8
0
  6
Continuous
 62
     7
 48
10.0
370
    15
100
AcDbLine
 10
1252.6906451867
 20
1951.6788327537
 30
0.0
 11
1251.5648121618
 21
1951.6788327537
 31
0.0
  0
ARC
  5
110
330
1F
100
AcDbEntity
  8
0
  6
Continuous
 62
     7
 48
100.0
370
    15
100
AcDbCircle
 10
1252.6726029908
 20
1951.9132077537
 30
0.0
 40
0.2350684186746007
100
AcDbArc
 50
274.4019496522
 51
3.8112610496
  0
LINE
  5
111
330
1F
100
AcDbEntity
  8
0
  6
Continuous
 62
     7
 48
10.0
370
    15
100
AcDbLine
 10
1252.9071515376
 20
1952.1788327537
 30
0.0
 11
1252.9071515376
 21
1951.9288327537
 31
0.0
  0
ARC
  5
112
330
1F
100
AcDbEntity
  8
0
  6
Continuous
 62
     7
 48
100.0
370
    15
100
AcDbCircle
 10
1252.6726029908
 20
1952.1944577538
 30
0.0
 40
0.2350684186746007
100
AcDbArc
 50
356.1887389504
 51
85.5980503478
  0
LINE
  5
113
330
1F
100
AcDbEntity
  8
0
  6
Continuous
 62
     7
 48
10.0
370
    15
100
AcDbLine
 10
1252.4741388357
 20
1952.4288327537
 30
0.0
 11
1252.6906451867
 21
1952.4288327537
 31
0.0
  0
ARC
  5
114
330
1F
100
AcDbEntity
  8
0
  6
Continuous
 62
     7
 48
100.0
370
    15
100
AcDbCircle
 10
1252.4921810317
 20
1952.6632077538
 30
0.0
 40
0.2350684186754173
100
AcDbArc
 50
176.1887389507
 51
265.5980503476
  0
LINE
  5
115
330
1F
100
AcDbEntity
  8
0
  6
Continuous
 62
     7
 48
10.0
370
    15
100
AcDbLine
 10
1252.2576324848
 20
1954.1288327537
 30
0.0
 11
1252.2576324848
 21
1952.6788327537
 31
0.0
  0
ARC
  5
116
330
1F
100
AcDbEntity
  8
0
  6
Continuous
 62
     7
 48
100.0
370
    15
100
AcDbCircle
 10
1252.4921810317
 20
1954.1444577537
 30
0.0
 40
0.2350684186754173
100
AcDbArc
 50
94.4019496524
 51
183.8112610494
  0
LINE
  5
117
330
1F
100
AcDbEntity
  8
0
  6
Continuous
 62
     7
 48
10.0
370
    15
100
AcDbLine
 10
1252.4741388357
 20
1954.3788327537
 30
0.0
 11
1255.0722150471
 21
1954.3788327537
 31
0.0
  0
ARC
  5
118
330
1F
100
AcDbEntity
  8
0
  6
Continuous
 62
     7
 48
100.0
370
    15
100
AcDbCircle
 10
1255.0541728512
 20
1954.1444577538
 30
0.0
 40
0.2350684186746158
100
AcDbArc
 50
356.1887389504
 51
85.5980503478
  0
LINE
  5
119
330
1F
100
AcDbEntity
  8
0
  6
Continuous
 62
     7
 48
10.0
370
    15
100
AcDbLine
 10
1255.288721398
 20
1952.6788327537
 30
0.0
 11
1255.288721398
 21
1954.1288327537
 31
0.0
  0
ARC
  5
11A
330
1F
100
AcDbEntity
  8
0
  6
Continuous
 62
     7
 48
100.0
370
    15
100
AcDbCircle
 10
1255.0541728512
 20
1952.6632077537
 30
0.0
 40
0.2350684186746848
100
AcDbArc
 50
274.4019496522
 51
3.8112610495
  0
LINE
  5
11B
330
1F
100
AcDbEntity
  8
0
  6
Continuous
 62
     7
 48
10.0
370
    15
100
AcDbLine
 10
1254.8557086961
 20
1952.4288327537
 30
0.0
 11
1255.0722150471
 21
1952.4288327537
 31
0.0
  0
ARC
  5
11C
330
1F
100
AcDbEntity
  8
0
  6
Continuous
 62
     7
 48
100.0
370
    15
100
AcDbCircle
 10
1254.8737508921
 20
1952.1944577538
 30
0.0
 40
0.2350684186750545
100
AcDbArc
 50
94.4019496523
 51
183.8112610496
  0
LINE
  5
11D
330
1F
100
AcDbEntity
  8
0
  6
Continuous
 62
     7
 48
10.0
370
    15
100
AcDbLine
 10
1254.6392023452
 20
1951.9288327537
 30
0.0
 11
1254.6392023452
 21
1952.1788327537
 31
0.0
  0
ARC
  5
11E
330
1F
100
AcDbEntity
  8
0
  6
Continuous
 62
     7
 48
100.0
370
    15
100
AcDbCircle
 10
1254.8737508921
 20
1951.9132077537
 30
0.0
 40
0.2350684186750394
100
AcDbArc
 50
176.1887389505
 51
265.5980503477
  0
LINE
  5
11F
330
1F
100
AcDbEntity
  8
0
  6
Continuous
 62
     7
 48
10.0
370
    15
100
AcDbLine
 10
1255.9815417211
 20
1951.6788327537
 30
0.0
 11
1254.8557086961
 21
1951.6788327537
 31
0.0
  0
ARC
  5
120
330
1F
100
AcDbEntity
  8
0
  6
Continuous
 62
     7
 48
100.0
370
    15
100
AcDbCircle
 10
1255.9634995252
 20
1951.9132077537
 30
0.0
 40
0.2350684186746007
100
AcDbArc
 50
274.4019496522
 51
3.8112610496
  0
LINE
  5
121
330
1F
100
AcDbEntity
  8
0
  6
Continuous
 62
     7
 48
10.0
370
    15
100
AcDbLine
 10
1256.198048072
 20
1953.0288327537
 30
0.0
 11
1256.198048072
 21
1951.9288327537
 31
0.0
  0
ARC
  5
122
330
1F
100
AcDbEntity
  8
0
  6
Continuous
 62
     7
 48
100.0
370
    15
100
AcDbCircle
 10
1256.4325966189
 20
1953.0444577537
 30
0.0
 40
0.2350684186752058
100
AcDbArc
 50
94.4019496524
 51
183.8112610493
  0
LINE
  5
123
330
1F
100
AcDbEntity
  8
0
  6
Continuous
 62
     7
 48
10.0
370
    15
100
AcDbLine
 10
1257.5403874479
 20
1953.2788327537
 30
0.0
 11
1256.414554423
 21
1953.2788327537
 31
0.0
  0
ARC
  5
124
330
1F
100
AcDbEntity
  8
0
  6
Continuous
 62
     7
 48
100.0
370
    15
100
AcDbCircle
 10
1257.522345252
 20
1953.5132077537
 30
0.0
 40
0.2350684186746848
100
AcDbArc
 50
274.4019496522
 51
3.8112610495
  0
LINE
  5
125
330
1F
100
AcDbEntity
  8
0
  6
Continuous
 62
     7
 48
10.0
370
    15
100
AcDbLine
 10
1257.7568937988
 20
1953.5288327537
 30
0.0
 11
1257.7568937988
 21
1958.4288327537
 31
0.0
  0
LWPOLYLINE
  5
126
330
1F
100
AcDbEntity
  8
0
  6
Continuous
 62
     7
 48
10.0
370
    15
100
AcDbPolyline
 90
        9
 70
   128
 43
0.0
 10
1257.7568937988
 20
1958.4288327537
 10
1257.7740426745
 20
1958.5681514677
 10
1257.824130986
 20
1958.6964351274
 10
1257.9031913751
 20
1958.8035227354
 10
1258.0049616849
 20
1958.8809321751
 10
1258.1213809675
 20
1958.9225320567
 10
1258.2432279701
 20
1958.9250273673
 10
1258.360851525
 20
1958.8882204603
 10
1258.4649349922
 20
1958.81502671
  0
ARC
  5
127
330
1F
100
AcDbEntity
  8
0
  6
Continuous
 62
     7
 48
100.0
370
    15
100
AcDbCircle
 10
1253.1876719416
 20
1953.5917861069
 30
0.0
 40
7.42507560246404
100
AcDbArc
 50
339.9056320092
 51
44.7052302407
  0
ARC
  5
128
330
1F
100
AcDbEntity
  8
0
  6
Continuous
 62
     7
 48
100.0
370
    15
100
AcDbCircle
 10
1257.6454345932
 20
1951.8054756649
 30
0.0
 40
2.629006682663534
100
AcDbArc
 50
272.4298366205
 51
343.0898560678
  0
LINE
  5
129
330
1F
100
AcDbEntity
  8
0
  6
Continuous
 62
     7
 48
10.0
370
    15
100
AcDbLine
 10
1257.7568937988
 20
1949.1788327537
 30
0.0
 11
1248.2306143572
 21
1949.1788327537
 31
0.0
  0
LINE
  5
12A
330
1F
100
AcDbEntity
  8
0
  6
Continuous
 62
     7
 48
10.0
370
    15
100
AcDbLine
 10
1259.9649349922
 20
1958.81502671
 30
0.0
 11
1258.4649349922
 21
1958.81502671
 31
0.0
  0
ARC
  5
12B
330
1F
100
AcDbEntity
  8
0
  6
Continuous
 62
     7
 48
100.0
370
    15
100
AcDbCircle
 10
1254.6876719416
 20
1953.5917861069
 30
0.0
 40
7.425075602465535
100
AcDbArc
 50
339.9056320092
 51
44.7052302406
  0
LINE
  5
12C
330
1F
100
AcDbEntity
  8
0
  6
Continuous
 62
     7
 48
10.0
370
    15
100
AcDbLine
 10
1261.6607685522
 20
1951.040772316
 30
0.0
 11
1260.1607685522
 21
1951.040772316
 31
0.0
  0
LINE
  5
12D
330
1F
100
AcDbEntity
  8
0
  6
Continuous
 62
     7
 48
10.0
370
    15
100
AcDbLine
 10
1257.7568937988
 20
1949.1788327537
 30
0.0
 11
1259.2568937988
 21
1949.1788327537
 31
0.0
  0
ARC
  5
12E
330
1F
100
AcDbEntity
  8
0
  6
Continuous
 62
     7
 48
100.0
370
    15
100
AcDbCircle
 10
1259.1454345932
 20
1951.8054756649
 30
0.0
 40
2.629006682663693
100
AcDbArc
 50
272.4298366205
 51
343.0898560678
  0
ARC
  5
12F
330
1F
100
AcDbEntity
  8
0
  6
Continuous
 62
     7
 48
100.0
370
    15
100
AcDbCircle
 10
1259.6867615832
 20
1958.5320068579
 30
0.0
 40
0.3968383577145666
100
AcDbArc
 50
45.4947918187
 51
89.54593001970001
  0
LINE
  5
130
330
1F
100
AcDbEntity
  8
0
  6
Continuous
 62
     7
 48
10.0
370
    15
100
AcDbLine
 10
1255.288721398
 20
1954.1288327537
 30
0.0
 11
1256.788721398
 21
1954.1288327537
 31
0.0
  0
LINE
  5
131
330
1F
100
AcDbEntity
  8
0
  6
Continuous
 62
     7
 48
10.0
370
    15
100
AcDbLine
 10
1256.788721398
 20
1954.1288327537
 30
0.0
 11
1256.788721398
 21
1953.2788327537
 31
0.0
  0
LINE
  5
132
330
1F
100
AcDbEntity
  8
0
  6
Continuous
 62
     7
 48
10.0
370
    15
100
AcDbLine
 10
1255.0722150471
 20
1952.4288327537
 30
0.0
 11
1256.198048072
 21
1952.4288327537
 31
0.0
  0
LINE
  5
133
330
1F
100
AcDbEntity
  8
0
  6
Continuous
 62
     7
 48
10.0
370
    15
100
AcDbLine
 10
1256.5722150471
 20
1954.3788327537
 30
0.0
 11
1255.0722150471
 21
1954.3788327537
 31
0.0
  0
ARC
  5
134
330
1F
100
AcDbEntity
  8
0
  6
Continuous
 62
     7
 48
100.0
370
    15
100
AcDbCircle
 10
1256.5541728512
 20
1954.1444577537
 30
0.0
 40
0.235068418675478
100
AcDbArc
 50
356.1887389505
 51
85.5980503477
  0
LINE
  5
135
330
1F
100
AcDbEntity
  8
0
  6
Continuous
 62
     7
 48
10.0
370
    15
100
AcDbLine
 10
1256.1392023452
 20
1951.9288327537
 30
0.0
 11
1254.6392023452
 21
1951.9288327537
 31
0.0
  0
ARC
  5
136
330
1F
100
AcDbEntity
  8
0
  6
Continuous
 62
     7
 48
100.0
370
    15
100
AcDbCircle
 10
1256.418747242
 20
1951.9278444697
 30
0.0
 40
0.279546643745564
100
AcDbArc
 50
179.7974412277
 51
206.524461415
  0
LINE
  5
137
330
1F
100
AcDbEntity
  8
0
  6
Continuous
 62
     7
 48
10.0
370
    15
100
AcDbLine
 10
1256.1392023452
 20
1952.1788327537
 30
0.0
 11
1254.6392023452
 21
1952.1788327537
 31
0.0
  0
ARC
  5
138
330
1F
100
AcDbEntity
  8
0
  6
Continuous
 62
     7
 48
100.0
370
    15
100
AcDbCircle
 10
1256.4106559391
 20
1952.1813790167
 30
0.0
 40
0.2714655356994875
100
AcDbArc
 50
141.5531678041
 51
180.5374246012
  0
LINE
  5
139
330
1F
100
AcDbEntity
  8
0
  6
Continuous
 62
     7
 48
10.0
370
    15
100
AcDbLine
 10
1256.1392023452
 20
1952.1788327537
 30
0.0
 11
1256.1392023452
 21
1951.9288327537
 31
0.0
  0
LINE
  5
13A
330
1F
100
AcDbEntity
  8
0
  6
Continuous
 62
     7
 48
10.0
370
    15
100
AcDbLine
 10
1252.8483058108
 20
1951.9288327537
 30
0.0
 11
1251.3483058108
 21
1951.9288327537
 31
0.0
  0
ARC
  5
13B
330
1F
100
AcDbEntity
  8
0
  6
Continuous
 62
     7
 48
100.0
370
    15
100
AcDbCircle
 10
1253.1278505876
 20
1951.9278444539
 30
0.0
 40
0.2795465237509789
100
AcDbArc
 50
179.7974379138
 51
206.5247372771
  0
LINE
  5
13C
330
1F
100
AcDbEntity
  8
0
  6
Continuous
 62
     7
 48
10.0
370
    15
100
AcDbLine
 10
1252.2576324848
 20
1953.2788327537
 30
0.0
 11
1251.1317994599
 21
1953.2788327537
 31
0.0
  0
LINE
  5
13D
330
1F
100
AcDbEntity
  8
0
  6
Continuous
 62
     7
 48
10.0
370
    15
100
AcDbLine
 10
1252.8483058108
 20
1952.3501730685
 30
0.0
 11
1252.8483058108
 21
1951.9288327537
 31
0.0
  0
LINE
  5
13E
330
1F
100
AcDbEntity
  8
0
  6
Continuous
 62
     7
 48
10.0
370
    15
100
AcDbLine
 10
1250.9874949317
 20
1953.3014498271
 30
0.0
 11
1249.4874949317
 21
1953.3014498271
 31
0.0
  0
ARC
  5
13F
330
1F
100
AcDbEntity
  8
0
  6
Continuous
 62
     7
 48
100.0
370
    15
100
AcDbCircle
 10
1251.1166421815
 20
1953.6588641122
 30
0.0
 40
0.3800315556497532
100
AcDbArc
 50
250.1333023592
 51
269.9416267299
  0
LINE
  5
140
330
1F
100
AcDbEntity
  8
0
  6
Continuous
 62
     7
 48
10.0
370
    15
100
AcDbLine
 10
1246.5485837458
 20
1954.8978049822
 30
0.0
 11
1250.9874949317
 21
1953.3014498271
 31
0.0
  0
ARC
  5
141
330
1F
100
AcDbEntity
  8
0
  6
Continuous
 62
     7
 48
100.0
370
    15
100
AcDbCircle
 10
954.655046505
 20
1953.5917861069
 30
0.0
 40
7.42507560246404
100
AcDbArc
 50
135.2947697593
 51
200.0943679908
  0
LWPOLYLINE
  5
142
330
1F
100
AcDbEntity
  8
0
  6
Continuous
 62
     7
 48
10.0
370
    15
100
AcDbPolyline
 90
        9
 70
   128
 43
0.0
 10
950.0858246478
 20
1958.4288327537
 10
950.0686757721
 20
1958.5681514677
 10
950.0185874606
 20
1958.6964351274
 10
949.9395270715
 20
1958.8035227354
 10
949.8377567617
 20
1958.8809321751
 10
949.7213374791
 20
1958.9225320567
 10
949.5994904765
 20
1958.9250273673
 10
949.4818669216
 20
1958.8882204603
 10
949.3777834544
 20
1958.81502671
  0
LINE
  5
143
330
1F
100
AcDbEntity
  8
0
  6
Continuous
 62
     7
 48
10.0
370
    15
100
AcDbLine
 10
950.0858246478
 20
1953.5288327537
 30
0.0
 11
950.0858246478
 21
1958.4288327537
 31
0.0
  0
ARC
  5
144
330
1F
100
AcDbEntity
  8
0
  6
Continuous
 62
     7
 48
100.0
370
    15
100
AcDbCircle
 10
950.3203731946
 20
1953.5132077537
 30
0.0
 40
0.2350684186751377
100
AcDbArc
 50
176.1887389505
 51
265.5980503478
  0
LINE
  5
145
330
1F
100
AcDbEntity
  8
0
  6
Continuous
 62
     7
 48
10.0
370
    15
100
AcDbLine
 10
950.5333889349
 20
1953.2788327537
 30
0.0
 11
950.3023309987
 21
1953.2788327537
 31
0.0
  0
ARC
  5
146
330
1F
100
AcDbEntity
  8
0
  6
Continuous
 62
     7
 48
100.0
370
    15
100
AcDbCircle
 10
951.4101218277
 20
1953.0444577537
 30
0.0
 40
0.2350684186744722
100
AcDbArc
 50
356.1887389505
 51
85.5980503479
  0
LINE
  5
147
330
1F
100
AcDbEntity
  8
0
  6
Continuous
 62
     7
 48
10.0
370
    15
100
AcDbLine
 10
951.6446703746
 20
1951.9288327537
 30
0.0
 11
951.6446703746
 21
1953.0288327537
 31
0.0
  0
ARC
  5
148
330
1F
100
AcDbEntity
  8
0
  6
Continuous
 62
     7
 48
100.0
370
    15
100
AcDbCircle
 10
951.8792189214
 20
1951.9132077537
 30
0.0
 40
0.2350684186753998
100
AcDbArc
 50
176.1887389506
 51
265.5980503477
  0
LINE
  5
149
330
1F
100
AcDbEntity
  8
0
  6
Continuous
 62
     7
 48
10.0
370
    15
100
AcDbLine
 10
952.2303840894
 20
1951.6788327537
 30
0.0
 11
951.8611767255
 21
1951.6788327537
 31
0.0
  0
LINE
  5
14A
330
1F
100
AcDbEntity
  8
0
  6
Continuous
 62
     7
 48
10.0
370
    15
100
AcDbLine
 10
956.2779062848
 20
1951.6788327537
 30
0.0
 11
955.908698921
 21
1951.6788327537
 31
0.0
  0
ARC
  5
14B
330
1F
100
AcDbEntity
  8
0
  6
Continuous
 62
     7
 48
100.0
370
    15
100
AcDbCircle
 10
956.2598640889
 20
1951.9132077537
 30
0.0
 40
0.2350684186753911
100
AcDbArc
 50
274.4019496523
 51
3.811261049400001
  0
LINE
  5
14C
330
1F
100
AcDbEntity
  8
0
  6
Continuous
 62
     7
 48
10.0
370
    15
100
AcDbLine
 10
956.4944126358
 20
1953.0288327537
 30
0.0
 11
956.4944126358
 21
1951.9288327537
 31
0.0
  0
ARC
  5
14D
330
1F
100
AcDbEntity
  8
0
  6
Continuous
 62
     7
 48
100.0
370
    15
100
AcDbCircle
 10
956.7289611826
 20
1953.0444577537
 30
0.0
 40
0.235068418674929
100
AcDbArc
 50
94.4019496523
 51
183.8112610494
  0
LINE
  5
14E
330
1F
100
AcDbEntity
  8
0
  6
Continuous
 62
     7
 48
10.0
370
    15
100
AcDbLine
 10
958.2264634434
 20
1953.2788327537
 30
0.0
 11
957.6695415052
 21
1953.2788327537
 31
0.0
  0
ARC
  5
14F
330
1F
100
AcDbEntity
  8
0
  6
Continuous
 62
     7
 48
100.0
370
    15
100
AcDbCircle
 10
958.2260762651
 20
1953.6588641122
 30
0.0
 40
0.3800315556512905
100
AcDbArc
 50
270.0583732702
 51
289.8666976408
  0
LINE
  5
150
330
1F
100
AcDbEntity
  8
0
  6
Continuous
 62
     7
 48
10.0
370
    15
100
AcDbLine
 10
962.7941347008
 20
1954.8978049822
 30
0.0
 11
958.3552235149
 21
1953.3014498271
 31
0.0
  0
LINE
  5
151
330
1F
100
AcDbEntity
  8
0
  6
Continuous
 62
     7
 48
10.0
370
    15
100
AcDbLine
 10
963.4491495842
 20
1949.6757703662
 30
0.0
 11
983.3561979326
 21
1954.8978049822
 31
0.0
  0
ARC
  5
152
330
1F
100
AcDbEntity
  8
0
  6
Continuous
 62
     7
 48
100.0
370
    15
100
AcDbCircle
 10
959.6057882055
 20
1964.2897173121
 30
0.0
 40
15.11088587826289
100
AcDbArc
 50
270.0239478681
 51
284.7347105815
  0
LINE
  5
153
330
1F
100
AcDbEntity
  8
0
  6
Continuous
 62
     7
 48
10.0
370
    15
100
AcDbLine
 10
950.0858246478
 20
1949.1788327537
 30
0.0
 11
959.6121040894
 21
1949.1788327537
 31
0.0
  0
ARC
  5
154
330
1F
100
AcDbEntity
  8
0
  6
Continuous
 62
     7
 48
100.0
370
    15
100
AcDbCircle
 10
950.1972838534
 20
1951.8054756649
 30
0.0
 40
2.629006682663693
100
AcDbArc
 50
196.9101439322
 51
267.5701633794
  0
LINE
  5
155
330
1F
100
AcDbEntity
  8
0
  6
Continuous
 62
     7
 48
10.0
370
    15
100
AcDbLine
 10
949.3777834544
 20
1958.81502671
 30
0.0
 11
947.8777834544
 21
1958.81502671
 31
0.0
  0
LINE
  5
156
330
1F
100
AcDbEntity
  8
0
  6
Continuous
 62
     7
 48
10.0
370
    15
100
AcDbLine
 10
947.6819498944
 20
1951.040772316
 30
0.0
 11
946.1819498944
 21
1951.040772316
 31
0.0
  0
ARC
  5
157
330
1F
100
AcDbEntity
  8
0
  6
Continuous
 62
     7
 48
100.0
370
    15
100
AcDbCircle
 10
953.155046505
 20
1953.5917861069
 30
0.0
 40
7.425075602464575
100
AcDbArc
 50
135.2947697593
 51
200.0943679908
  0
LINE
  5
158
330
1F
100
AcDbEntity
  8
0
  6
Continuous
 62
     7
 48
10.0
370
    15
100
AcDbLine
 10
948.5858246478
 20
1949.1788327537
 30
0.0
 11
950.0858246478
 21
1949.1788327537
 31
0.0
  0
ARC
  5
159
330
1F
100
AcDbEntity
  8
0
  6
Continuous
 62
     7
 48
100.0
370
    15
100
AcDbCircle
 10
948.6972838534
 20
1951.8054756649
 30
0.0
 40
2.629006682663584
100
AcDbArc
 50
196.9101439322
 51
267.5701633795
  0
ARC
  5
15A
330
1F
100
AcDbEntity
  8
0
  6
Continuous
 62
     7
 48
100.0
370
    15
100
AcDbCircle
 10
948.1559568634
 20
1958.5320068579
 30
0.0
 40
0.3968383577140165
100
AcDbArc
 50
90.4540699802
 51
134.5052081813
  0
LINE
  5
15B
330
1F
100
AcDbEntity
  8
0
  6
Continuous
 62
     7
 48
10.0
370
    15
100
AcDbLine
 10
961.2941347008
 20
1954.8978049822
 30
0.0
 11
957.6695415052
 21
1953.5943010844
 31
0.0
  0
SPLINE
  5
15C
330
1F
100
AcDbEntity
  8
0
  6
Continuous
 62
     7
 48
10.0
370
    15
100
AcDbSpline
210
0.0
220
0.0
230
1.0
 70
     8
 71
     3
 72
    10
 73
     6
 74
     0
 42
0.00000001
 43
0.00000001
 40
0.0
 40
0.0
 40
0.0
 40
0.0
 40
0.183830549782337
 40
0.9192121318732022
 40
1.0
 40
1.0
 40
1.0
 40
1.0
 10
1099.397296785406
 20
1737.959570128291
 30
0.0
 10
1099.397448957575
 20
1739.318259761024
 30
0.0
 10
1099.398209867576
 20
1746.112146823526
 30
0.0
 10
1099.399165738014
 20
1753.51905810174
 30
0.0
 10
1099.399670802267
 20
1759.59576784968
 30
0.0
 10
1099.399720795641
 20
1760.19726601361
 30
0.0
  0
SPLINE
  5
15D
330
1F
100
AcDbEntity
  8
0
  6
Continuous
 62
     7
 48
10.0
370
    15
100
AcDbSpline
210
0.0
220
0.0
230
1.0
 70
     8
 71
     3
 72
     9
 73
     5
 74
     0
 42
0.00000001
 43
0.00000001
 40
0.0
 40
0.0
 40
0.0
 40
0.0
 40
0.2570471666162965
 40
1.0
 40
1.0
 40
1.0
 40
1.0
 10
1099.400387585868
 20
1768.076820135354
 30
0.0
 10
1099.400535421731
 20
1769.785160628819
 30
0.0
 10
1099.401110553002
 20
1776.431180174388
 30
0.0
 10
1099.401539886335
 20
1783.109462007616
 30
0.0
 10
1099.401858860751
 20
1788.071110417749
 30
0.0
  0
SPLINE
  5
15E
330
1F
100
AcDbEntity
  8
0
  6
Continuous
 62
     7
 48
10.0
370
    15
100
AcDbSpline
210
0.0
220
0.0
230
1.0
 70
     8
 71
     3
 72
    38
 73
    34
 74
     0
 42
0.00000001
 43
0.00000001
 40
0.0
 40
0.0
 40
0.0
 40
0.0
 40
0.0625
 40
0.0625
 40
0.1249999999999999
 40
0.1249999999999999
 40
0.1874999999999999
 40
0.1874999999999999
 40
0.2499999999999998
 40
0.2499999999999998
 40
0.3124999999999998
 40
0.3124999999999998
 40
0.3749999999999998
 40
0.3749999999999998
 40
0.4374999999999998
 40
0.4374999999999998
 40
0.4999999999999998
 40
0.4999999999999998
 40
0.5624999999999998
 40
0.5624999999999998
 40
0.6249999999999997
 40
0.6249999999999997
 40
0.6874999999999998
 40
0.6874999999999998
 40
0.7499999999999998
 40
0.7499999999999998
 40
0.8124999999999999
 40
0.8124999999999999
 40
0.875
 40
0.875
 40
0.9375
 40
0.9375
 40
1.0
 40
1.0
 40
1.0
 40
1.0
 10
1108.445421661196
 20
1737.959570128291
 30
0.0
 10
1108.446427516042
 20
1737.665896365329
 30
0.0
 10
1108.416923277141
 20
1737.376995527562
 30
0.0
 10
1108.30156166159
 20
1736.80803500574
 30
0.0
 10
1108.214296813698
 20
1736.525075000437
 30
0.0
 10
1107.987801015791
 20
1735.985287354297
 30
0.0
 10
1107.849474143434
 20
1735.728593122764
 30
0.0
 10
1107.522383232626
 20
1735.241848041535
 30
0.0
 10
1107.332237877407
 20
1735.011397397914
 30
0.0
 10
1106.915832781719
 20
1734.599023711178
 30
0.0
 10
1106.687569362579
 20
1734.41464299256
 30
0.0
 10
1106.191661667869
 20
1734.088816577929
 30
0.0
 10
1105.92816439686
 20
1733.950576547235
 30
0.0
 10
1105.38298044458
 20
1733.727233537658
 30
0.0
 10
1105.096933010836
 20
1733.640497748547
 30
0.0
 10
1104.514071154551
 20
1733.52398520719
 30
0.0
 10
1104.22081032427
 20
1733.494371767825
 30
0.0
 10
1103.630564463601
 20
1733.493443754032
 30
0.0
 10
1103.330554948684
 20
1733.523272350889
 30
0.0
 10
1102.750225392448
 20
1733.638710960111
 30
0.0
 10
1102.467928587864
 20
1733.723709802852
 30
0.0
 10
1101.918968391274
 20
1733.947857637128
 30
0.0
 10
1101.654069489401
 20
1734.087033194284
 30
0.0
 10
1101.162717863075
 20
1734.409120093399
 30
0.0
 10
1100.933221719951
 20
1734.593203749745
 30
0.0
 10
1100.510433472288
 20
1735.010990631902
 30
0.0
 10
1100.324216037145
 20
1735.237382415412
 30
0.0
 10
1099.99796481893
 20
1735.722160607911
 30
0.0
 10
1099.856856344388
 20
1735.983554453417
 30
0.0
 10
1099.630003237085
 20
1736.523384994776
 30
0.0
 10
1099.543784662704
 20
1736.800966974959
 30
0.0
 10
1099.426659875088
 20
1737.371645749657
 30
0.0
 10
1099.396173150188
 20
1737.665879466595
 30
0.0
 10
1099.397296785406
 20
1737.959570128291
 30
0.0
  0
SPLINE
  5
15F
330
1F
100
AcDbEntity
  8
0
  6
Continuous
 62
     7
 48
10.0
370
    15
100
AcDbSpline
210
0.0
220
0.0
230
1.0
 70
     8
 71
     3
 72
     9
 73
     5
 74
     0
 42
0.00000001
 43
0.00000001
 40
0.0
 40
0.0
 40
0.0
 40
0.0
 40
0.2058169835948743
 40
1.0
 40
1.0
 40
1.0
 40
1.0
 10
1108.440859585851
 20
1788.071110417749
 30
0.0
 10
1108.440959513443
 20
1786.696526078663
 30
0.0
 10
1108.441445030188
 20
1780.017853040719
 30
0.0
 10
1108.441916292631
 20
1773.359530765378
 30
0.0
 10
1108.44229056126
 20
1768.07160429655
 30
0.0
  0
SPLINE
  5
160
330
1F
100
AcDbEntity
  8
0
  6
Continuous
 62
     7
 48
10.0
370
    15
100
AcDbSpline
210
0.0
220
0.0
230
1.0
 70
     8
 71
     3
 72
     9
 73
     5
 74
     0
 42
0.00000001
 43
0.00000001
 40
0.0
 40
0.0
 40
0.0
 40
0.0
 40
0.3368485276318067
 40
1.0
 40
1.0
 40
1.0
 40
1.0
 10
1108.443026769699
 20
1760.215542962411
 30
0.0
 10
1108.443258564472
 20
1757.708208424568
 30
0.0
 10
1108.443946692084
 20
1750.264700936288
 30
0.0
 10
1108.444833544025
 20
1742.866017766152
 30
0.0
 10
1108.445421661196
 20
1737.959570128291
 30
0.0
  0
SPLINE
  5
161
330
1F
100
AcDbEntity
  8
0
  6
Continuous
 62
     7
 48
10.0
370
    15
100
AcDbSpline
210
0.0
220
0.0
230
1.0
 70
     8
 71
     3
 72
    38
 73
    34
 74
     0
 42
0.00000001
 43
0.00000001
 40
0.0
 40
0.0
 40
0.0
 40
0.0
 40
0.0625
 40
0.0625
 40
0.1249999999999999
 40
0.1249999999999999
 40
0.1874999999999999
 40
0.1874999999999999
 40
0.2499999999999999
 40
0.2499999999999999
 40
0.3124999999999999
 40
0.3124999999999999
 40
0.375
 40
0.375
 40
0.4375
 40
0.4375
 40
0.5000000000000001
 40
0.5000000000000001
 40
0.5625000000000002
 40
0.5625000000000002
 40
0.6250000000000001
 40
0.6250000000000001
 40
0.6875000000000001
 40
0.6875000000000001
 40
0.7500000000000001
 40
0.7500000000000001
 40
0.8125000000000001
 40
0.8125000000000001
 40
0.875
 40
0.875
 40
0.9375
 40
0.9375
 40
1.0
 40
1.0
 40
1.0
 40
1.0
 10
1099.401858860751
 20
1788.071110417749
 30
0.0
 10
1099.40098922321
 20
1788.36725480644
 30
0.0
 10
1099.430945097809
 20
1788.658126824909
 30
0.0
 10
1099.547634975647
 20
1789.230177295592
 30
0.0
 10
1099.635817098145
 20
1789.514261989596
 30
0.0
 10
1099.863811473748
 20
1790.054718921622
 30
0.0
 10
1100.002871688711
 20
1790.311425400213
 30
0.0
 10
1100.331238575457
 20
1790.797797855368
 30
0.0
 10
1100.521427579587
 20
1791.027229362312
 30
0.0
 10
1100.937517866544
 20
1791.437817090763
 30
0.0
 10
1101.165481590736
 20
1791.621437017173
 30
0.0
 10
1101.660776532546
 20
1791.945938775074
 30
0.0
 10
1101.922702450411
 20
1792.082960194299
 30
0.0
 10
1102.465913449533
 20
1792.304978364685
 30
0.0
 10
1102.751295296339
 20
1792.391275605776
 30
0.0
 10
1103.331357960705
 20
1792.506912320601
 30
0.0
 10
1103.623364070497
 20
1792.536336144203
 30
0.0
 10
1104.211408436222
 20
1792.537211048082
 30
0.0
 10
1104.510273368003
 20
1792.507518512227
 30
0.0
 10
1105.08806496234
 20
1792.392772015967
 30
0.0
 10
1105.36929469187
 20
1792.308267560039
 30
0.0
 10
1105.916502584083
 20
1792.085236863796
 30
0.0
 10
1106.180281112195
 20
1791.946912125813
 30
0.0
 10
1106.670276820314
 20
1791.626443494346
 30
0.0
 10
1106.899640882733
 20
1791.44292921734
 30
0.0
 10
1107.321863987618
 20
1791.027035808387
 30
0.0
 10
1107.508220062195
 20
1790.801395624424
 30
0.0
 10
1107.835303640325
 20
1790.317428545375
 30
0.0
 10
1107.977131499495
 20
1790.056054141775
 30
0.0
 10
1108.205477761255
 20
1789.515469105804
 30
0.0
 10
1108.292502144832
 20
1789.237061038071
 30
0.0
 10
1108.410928705605
 20
1788.663570272368
 30
0.0
 10
1108.441899703111
 20
1788.367273057711
 30
0.0
 10
1108.440859585851
 20
1788.071110417749
 30
0.0
  0
LINE
  5
162
330
1F
100
AcDbEntity
  8
0
  6
Continuous
 62
     7
 48
10.0
370
    15
100
AcDbLine
 10
1108.4408595859
 20
1788.0711104177
 30
0.0
 11
1106.9213592233
 21
1788.22840861
 31
0.0
  0
SPLINE
  5
163
330
1F
100
AcDbEntity
  8
0
  6
Continuous
 62
     7
 48
10.0
370
    15
100
AcDbSpline
210
0.0
220
0.0
230
1.0
 70
     8
 71
     3
 72
    38
 73
    34
 74
     0
 42
0.00000001
 43
0.00000001
 40
0.0
 40
0.0
 40
0.0
 40
0.0
 40
0.0625
 40
0.0625
 40
0.125
 40
0.125
 40
0.1875
 40
0.1875
 40
0.25
 40
0.25
 40
0.3125
 40
0.3125
 40
0.375
 40
0.375
 40
0.4375
 40
0.4375
 40
0.5
 40
0.5
 40
0.5625
 40
0.5625
 40
0.625
 40
0.625
 40
0.6875
 40
0.6875
 40
0.75
 40
0.75
 40
0.8125
 40
0.8125
 40
0.875
 40
0.875
 40
0.9375
 40
0.9375
 40
1.0
 40
1.0
 40
1.0
 40
1.0
 10
1100.921359223301
 20
1788.228408609989
 30
0.0
 10
1100.921359223301
 20
1788.425764830113
 30
0.0
 10
1100.940632686127
 20
1788.619407894498
 30
0.0
 10
1101.015784155296
 20
1788.999929610409
 30
0.0
 10
1101.07235496448
 20
1789.188391186915
 30
0.0
 10
1101.221423626421
 20
1789.55080778856
 30
0.0
 10
1101.312622717214
 20
1789.722551416159
 30
0.0
 10
1101.527821321592
 20
1790.047459240539
 30
0.0
 10
1101.653452352526
 20
1790.201964304847
 30
0.0
 10
1101.929160478511
 20
1790.479956481227
 30
0.0
 10
1102.079468620317
 20
1790.604572063557
 30
0.0
 10
1102.405597930784
 20
1790.824787137003
 30
0.0
 10
1102.581673794689
 20
1790.919849126878
 30
0.0
 10
1102.944177267062
 20
1791.071597757406
 30
0.0
 10
1103.132452308309
 20
1791.129693508489
 30
0.0
 10
1103.523709515537
 20
1791.20862720813
 30
0.0
 10
1103.721112615241
 20
1791.228210379403
 30
0.0
 10
1104.115621530796
 20
1791.228603856253
 30
0.0
 10
1104.315546849956
 20
1791.209003732329
 30
0.0
 10
1104.704478017471
 20
1791.131175586951
 30
0.0
 10
1104.892742816629
 20
1791.073641297655
 30
0.0
 10
1105.257042789216
 20
1790.921897897901
 30
0.0
 10
1105.433476146917
 20
1790.826858528514
 30
0.0
 10
1105.758804884378
 20
1790.607953316936
 30
0.0
 10
1105.909828005523
 20
1790.483402381546
 30
0.0
 10
1106.188288365018
 20
1790.203259813007
 30
0.0
 10
1106.31218834616
 20
1790.051002497637
 30
0.0
 10
1106.527723791505
 20
1789.726666301981
 30
0.0
 10
1106.620564166364
 20
1789.552265089283
 30
0.0
 10
1106.7696843018
 20
1789.190358478544
 30
0.0
 10
1106.825769066488
 20
1789.004468677251
 30
0.0
 10
1106.901686515803
 20
1788.622762505322
 30
0.0
 10
1106.921359223301
 20
1788.425774223302
 30
0.0
 10
1106.921359223301
 20
1788.228408609989
 30
0.0
  0
LINE
  5
164
330
1F
100
AcDbEntity
  8
0
  6
Continuous
 62
     7
 48
10.0
370
    15
100
AcDbLine
 10
1099.4018588608
 20
1788.0711104177
 30
0.0
 11
1100.9213592233
 21
1788.22840861
 31
0.0
  0
SPLINE
  5
165
330
1F
100
AcDbEntity
  8
0
  6
Continuous
 62
     7
 48
10.0
370
    15
100
AcDbSpline
210
0.0
220
0.0
230
1.0
 70
    24
 71
     3
 72
    10
 73
     6
 74
     0
 42
0.00000001
 43
0.00000001
 40
0.0
 40
0.0
 40
0.0
 40
0.0
 40
0.1884830944916402
 40
0.9424778022477582
 40
1.0
 40
1.0
 40
1.0
 40
1.0
 10
1100.921359223301
 20
1738.228408609989
 30
0.0
 10
1100.921359223301
 20
1739.600702541487
 30
0.0
 10
1100.921359223301
 20
1746.462626005152
 30
0.0
 10
1100.921359223301
 20
1753.758791366454
 30
0.0
 10
1100.921359223301
 20
1759.71063342554
 30
0.0
 10
1100.921359223301
 20
1760.132513775276
 30
0.0
  0
SPLINE
  5
166
330
1F
100
AcDbEntity
  8
0
  6
Continuous
 62
     7
 48
10.0
370
    15
100
AcDbSpline
210
0.0
220
0.0
230
1.0
 70
    24
 71
     3
 72
     9
 73
     5
 74
     0
 42
0.00000001
 43
0.00000001
 40
0.0
 40
0.0
 40
0.0
 40
0.0
 40
0.2669828525173559
 40
1.0
 40
1.0
 40
1.0
 40
1.0
 10
1100.921359223301
 20
1768.180217182748
 30
0.0
 10
1100.921359223301
 20
1769.959452834509
 30
0.0
 10
1100.921359223301
 20
1776.623684769198
 30
0.0
 10
1100.921359223301
 20
1783.319939250955
 30
0.0
 10
1100.921359223301
 20
1788.228408609989
 30
0.0
  0
LINE
  5
167
330
1F
100
AcDbEntity
  8
0
  6
Continuous
 62
     7
 48
10.0
370
    15
100
AcDbLine
 10
1099.3972967854
 20
1737.9595701283
 30
0.0
 11
1100.9213592233
 21
1738.22840861
 31
0.0
  0
LINE
  5
168
330
1F
100
AcDbEntity
  8
0
  6
Continuous
 62
     7
 48
10.0
370
    15
100
AcDbLine
 10
1106.9213592233
 20
1738.22840861
 30
0.0
 11
1108.4454216612
 21
1737.9595701283
 31
0.0
  0
SPLINE
  5
169
330
1F
100
AcDbEntity
  8
0
  6
Continuous
 62
     7
 48
10.0
370
    15
100
AcDbSpline
210
0.0
220
0.0
230
1.0
 70
    24
 71
     3
 72
     9
 73
     5
 74
     0
 42
0.00000001
 43
0.00000001
 40
0.0
 40
0.0
 40
0.0
 40
0.0
 40
0.2072729756104502
 40
1.0
 40
1.0
 40
1.0
 40
1.0
 10
1106.921359223301
 20
1788.228408609989
 30
0.0
 10
1106.921359223301
 20
1786.84007977964
 30
0.0
 10
1106.921359223301
 20
1780.142010114451
 30
0.0
 10
1106.921359223301
 20
1773.464609109261
 30
0.0
 10
1106.921359223301
 20
1768.17125287976
 30
0.0
  0
SPLINE
  5
16A
330
1F
100
AcDbEntity
  8
0
  6
Continuous
 62
     7
 48
10.0
370
    15
100
AcDbSpline
210
0.0
220
0.0
230
1.0
 70
    24
 71
     3
 72
     9
 73
     5
 74
     0
 42
0.00000001
 43
0.00000001
 40
0.0
 40
0.0
 40
0.0
 40
0.0
 40
0.3329846015682995
 40
1.0
 40
1.0
 40
1.0
 40
1.0
 10
1106.921359223301
 20
1760.117689705516
 30
0.0
 10
1106.921359223301
 20
1757.679995278412
 30
0.0
 10
1106.921359223301
 20
1750.359253071046
 30
0.0
 10
1106.921359223301
 20
1743.082269023707
 30
0.0
 10
1106.921359223301
 20
1738.228408609989
 30
0.0
  0
SPLINE
  5
16B
330
1F
100
AcDbEntity
  8
0
  6
Continuous
 62
     7
 48
10.0
370
    15
100
AcDbSpline
210
0.0
220
0.0
230
1.0
 70
     8
 71
     3
 72
    34
 73
    30
 74
     0
 42
0.00000001
 43
0.00000001
 40
0.0
 40
0.0
 40
0.0
 40
0.0
 40
0.1249999999999965
 40
0.1249999999999965
 40
0.1874999999999967
 40
0.1874999999999967
 40
0.2499999999999969
 40
0.2499999999999969
 40
0.3124999999999971
 40
0.3124999999999971
 40
0.3749999999999973
 40
0.3749999999999973
 40
0.4374999999999974
 40
0.4374999999999974
 40
0.4999999999999977
 40
0.4999999999999977
 40
0.5624999999999978
 40
0.5624999999999978
 40
0.6249999999999979
 40
0.6249999999999979
 40
0.6874999999999981
 40
0.6874999999999981
 40
0.7499999999999982
 40
0.7499999999999982
 40
0.8749999999999986
 40
0.8749999999999986
 40
0.9374999999999993
 40
0.9374999999999993
 40
1.0
 40
1.0
 40
1.0
 40
1.0
 10
1106.921359223301
 20
1738.228408609989
 30
0.0
 10
1106.921359223301
 20
1737.841655965879
 30
0.0
 10
1106.848791646742
 20
1737.464804213947
 30
0.0
 10
1106.628588247943
 20
1736.921064326718
 30
0.0
 10
1106.538582845791
 20
1736.749275292098
 30
0.0
 10
1106.326098487773
 20
1736.424267836068
 30
0.0
 10
1106.202112322278
 20
1736.269569397536
 30
0.0
 10
1105.926081157565
 20
1735.987878376983
 30
0.0
 10
1105.775507475715
 20
1735.861745698028
 30
0.0
 10
1105.449444360064
 20
1735.639216671258
 30
0.0
 10
1105.272018585149
 20
1735.54231347514
 30
0.0
 10
1104.90640189952
 20
1735.387796226852
 30
0.0
 10
1104.717034343919
 20
1735.32893342393
 30
0.0
 10
1104.324833824822
 20
1735.248934915178
 30
0.0
 10
1104.123960809987
 20
1735.228667501826
 30
0.0
 10
1103.726498594456
 20
1735.22815471169
 30
0.0
 10
1103.526481531437
 20
1735.247750393992
 30
0.0
 10
1103.13310302774
 20
1735.326873850197
 30
0.0
 10
1102.943373817592
 20
1735.385358523459
 30
0.0
 10
1102.577367925049
 20
1735.5389706318
 30
0.0
 10
1102.399741229662
 20
1735.635389985943
 30
0.0
 10
1102.072691396586
 20
1735.857439573986
 30
0.0
 10
1101.921587878042
 20
1735.983427268323
 30
0.0
 10
1101.50590541007
 20
1736.405858334374
 30
0.0
 10
1101.289245305113
 20
1736.737082057087
 30
0.0
 10
1101.068895195719
 20
1737.278951600548
 30
0.0
 10
1101.014068793656
 20
1737.463792404478
 30
0.0
 10
1100.940241832319
 20
1737.841220431939
 30
0.0
 10
1100.921359223301
 20
1738.03501732579
 30
0.0
 10
1100.921359223301
 20
1738.228408609989
 30
0.0
  0
LINE
  5
16C
330
1F
100
AcDbEntity
  8
0
  6
Continuous
 62
     7
 48
10.0
370
    15
100
AcDbLine
 10
1008.9213592233
 20
1638.22840861
 30
0.0
 11
1198.9213592233
 21
1638.22840861
 31
0.0
  0
LINE
  5
16D
330
1F
100
AcDbEntity
  8
0
  6
Continuous
 62
     7
 48
10.0
370
    15
100
AcDbLine
 10
1008.9213592233
 20
1608.22840861
 30
0.0
 11
1198.9213592233
 21
1608.22840861
 31
0.0
  0
SPLINE
  5
16E
330
1F
100
AcDbEntity
  8
0
  6
Continuous
 62
     7
 48
10.0
370
    15
100
AcDbSpline
210
0.0
220
0.0
230
1.0
 70
    24
 71
     3
 72
    13
 73
     9
 74
     0
 42
0.00000001
 43
0.00000001
 40
0.0
 40
0.0
 40
0.0
 40
0.0
 40
0.2394568443945907
 40
0.3683606602381697
 40
0.4999999999999999
 40
0.6316393397618302
 40
0.7605431556054089
 40
1.0
 40
1.0
 40
1.0
 40
1.0
 10
1168.873264507134
 20
1592.228408609989
 30
0.0
 10
1169.690940591894
 20
1592.228408609989
 30
0.0
 10
1170.948786042939
 20
1592.228408609989
 30
0.0
 10
1172.462090581108
 20
1592.228408609989
 30
0.0
 10
1173.503434299395
 20
1592.228408609989
 30
0.0
 10
1174.342335791252
 20
1592.228408609989
 30
0.0
 10
1175.152870175762
 20
1592.228408609989
 30
0.0
 10
1175.286437571893
 20
1592.228408609989
 30
0.0
 10
1175.373264507134
 20
1592.228408609989
 30
0.0
  0
SPLINE
  5
16F
330
1F
100
AcDbEntity
  8
0
  6
Continuous
 62
     7
 48
10.0
370
    15
100
AcDbSpline
210
0.0
220
0.0
230
1.0
 70
    24
 71
     3
 72
    13
 73
     9
 74
     0
 42
0.00000001
 43
0.00000001
 40
0.0
 40
0.0
 40
0.0
 40
0.0
 40
0.2394568443945903
 40
0.3683606602381709
 40
0.5000000000000008
 40
0.6316393397618306
 40
0.7605431556054104
 40
1.0
 40
1.0
 40
1.0
 40
1.0
 10
1162.373264507134
 20
1592.228408609989
 30
0.0
 10
1162.460091442374
 20
1592.228408609989
 30
0.0
 10
1162.593658838505
 20
1592.228408609989
 30
0.0
 10
1163.404193223015
 20
1592.228408609989
 30
0.0
 10
1164.243094714872
 20
1592.228408609989
 30
0.0
 10
1165.284438433159
 20
1592.228408609989
 30
0.0
 10
1166.797742971328
 20
1592.228408609989
 30
0.0
 10
1168.055588422373
 20
1592.228408609989
 30
0.0
 10
1168.873264507134
 20
1592.228408609989
 30
0.0
  0
SPLINE
  5
170
330
1F
100
AcDbEntity
  8
0
  6
Continuous
 62
     7
 48
10.0
370
    15
100
AcDbSpline
210
0.0
220
0.0
230
1.0
 70
    24
 71
     3
 72
    13
 73
     9
 74
     0
 42
0.00000001
 43
0.00000001
 40
0.0
 40
0.0
 40
0.0
 40
0.0
 40
0.2394568443945899
 40
0.3683606602381697
 40
0.4999999999999991
 40
0.6316393397618304
 40
0.7605431556054085
 40
1.0
 40
1.0
 40
1.0
 40
1.0
 10
1038.969453939467
 20
1592.228408609989
 30
0.0
 10
1039.787130024228
 20
1592.228408609989
 30
0.0
 10
1041.044975475272
 20
1592.228408609989
 30
0.0
 10
1042.558280013442
 20
1592.228408609989
 30
0.0
 10
1043.599623731729
 20
1592.228408609989
 30
0.0
 10
1044.438525223586
 20
1592.228408609989
 30
0.0
 10
1045.249059608096
 20
1592.228408609989
 30
0.0
 10
1045.382627004228
 20
1592.228408609989
 30
0.0
 10
1045.469453939467
 20
1592.228408609989
 30
0.0
  0
SPLINE
  5
171
330
1F
100
AcDbEntity
  8
0
  6
Continuous
 62
     7
 48
10.0
370
    15
100
AcDbSpline
210
0.0
220
0.0
230
1.0
 70
    24
 71
     3
 72
    13
 73
     9
 74
     0
 42
0.00000001
 43
0.00000001
 40
0.0
 40
0.0
 40
0.0
 40
0.0
 40
0.2394568443945907
 40
0.3683606602381694
 40
0.4999999999999999
 40
0.6316393397618304
 40
0.7605431556054089
 40
1.0
 40
1.0
 40
1.0
 40
1.0
 10
1032.469453939467
 20
1592.228408609989
 30
0.0
 10
1032.556280874708
 20
1592.228408609989
 30
0.0
 10
1032.689848270839
 20
1592.228408609989
 30
0.0
 10
1033.500382655349
 20
1592.228408609989
 30
0.0
 10
1034.339284147206
 20
1592.228408609989
 30
0.0
 10
1035.380627865493
 20
1592.228408609989
 30
0.0
 10
1036.893932403663
 20
1592.228408609989
 30
0.0
 10
1038.151777854707
 20
1592.228408609989
 30
0.0
 10
1038.969453939467
 20
1592.228408609989
 30
0.0
  0
SPLINE
  5
172
330
1F
100
AcDbEntity
  8
0
  6
Continuous
 62
     7
 48
10.0
370
    15
100
AcDbSpline
210
0.0
220
0.0
230
1.0
 70
    24
 71
     3
 72
    13
 73
     9
 74
     0
 42
0.00000001
 43
0.00000001
 40
0.0
 40
0.0
 40
0.0
 40
0.0
 40
0.2394568443945911
 40
0.368360660238169
 40
0.5000000000000003
 40
0.6316393397618305
 40
0.7605431556054103
 40
1.0
 40
1.0
 40
1.0
 40
1.0
 10
1103.921359223301
 20
1592.228408609989
 30
0.0
 10
1104.739035308061
 20
1592.228408609989
 30
0.0
 10
1105.996880759106
 20
1592.228408609989
 30
0.0
 10
1107.510185297275
 20
1592.228408609989
 30
0.0
 10
1108.551529015562
 20
1592.228408609989
 30
0.0
 10
1109.390430507419
 20
1592.228408609989
 30
0.0
 10
1110.20096489193
 20
1592.228408609989
 30
0.0
 10
1110.334532288061
 20
1592.228408609989
 30
0.0
 10
1110.421359223301
 20
1592.228408609989
 30
0.0
  0
SPLINE
  5
173
330
1F
100
AcDbEntity
  8
0
  6
Continuous
 62
     7
 48
10.0
370
    15
100
AcDbSpline
210
0.0
220
0.0
230
1.0
 70
    24
 71
     3
 72
    13
 73
     9
 74
     0
 42
0.00000001
 43
0.00000001
 40
0.0
 40
0.0
 40
0.0
 40
0.0
 40
0.2394568443945911
 40
0.3683606602381694
 40
0.4999999999999996
 40
0.631639339761831
 40
0.760543155605409
 40
1.0
 40
1.0
 40
1.0
 40
1.0
 10
1097.421359223301
 20
1592.228408609989
 30
0.0
 10
1097.508186158541
 20
1592.228408609989
 30
0.0
 10
1097.641753554672
 20
1592.228408609989
 30
0.0
 10
1098.452287939182
 20
1592.228408609989
 30
0.0
 10
1099.29118943104
 20
1592.228408609989
 30
0.0
 10
1100.332533149327
 20
1592.228408609989
 30
0.0
 10
1101.845837687496
 20
1592.228408609989
 30
0.0
 10
1103.10368313854
 20
1592.228408609989
 30
0.0
 10
1103.921359223301
 20
1592.228408609989
 30
0.0
  0
LINE
  5
174
330
1F
100
AcDbEntity
  8
0
  6
Continuous
 62
     7
 48
10.0
370
    15
100
AcDbLine
 10
1281.3938582197
 20
1954.8978049822
 30
0.0
 11
1281.4213592233
 21
1954.8978049822
 31
0.0
  0
LINE
  5
175
330
1F
100
AcDbEntity
  8
0
  6
Continuous
 62
     7
 48
10.0
370
    15
100
AcDbLine
 10
926.4213592233
 20
1954.8978049822
 30
0.0
 11
945.8538229867
 21
1954.8978049822
 31
0.0
  0
LINE
  5
176
330
1F
100
AcDbEntity
  8
0
  6
Continuous
 62
     7
 48
10.0
370
    15
100
AcDbLine
 10
950.0858246478
 20
1954.8978049822
 30
0.0
 11
1257.7568937988
 21
1954.8978049822
 31
0.0
  0
LINE
  5
177
330
1F
100
AcDbEntity
  8
0
  6
Continuous
 62
     7
 48
10.0
370
    15
100
AcDbLine
 10
1261.9888954599
 20
1954.8978049822
 30
0.0
 11
1281.3938582197
 21
1954.8978049822
 31
0.0
  0
LINE
  5
178
330
1F
100
AcDbEntity
  8
0
  6
Continuous
 62
     7
 48
10.0
370
    15
100
AcDbLine
 10
1185.4087320019
 20
2140.3338269813
 30
0.0
 11
1185.4213592233
 21
2140.3338269813
 31
0.0
  0
LINE
  5
17A
330
1F
100
AcDbEntity
  8
0
  6
Continuous
 62
     7
 48
10.0
370
    15
100
AcDbLine
 10
1150.4921077983
 20
2192.3409441823
 30
0.0
 11
1150.4848923486
 21
2192.3409441823
 31
0.0
  0
LINE
  5
17B
330
1F
100
AcDbEntity
  8
0
  6
Continuous
 62
     7
 48
10.0
370
    15
100
AcDbLine
 10
1101.4213592233
 20
1769.1303871126
 30
0.0
 11
1106.4213592233
 21
1769.1303871126
 31
0.0
  0
LINE
  5
17C
330
1F
100
AcDbEntity
  8
0
  6
Continuous
 62
     7
 48
10.0
370
    15
100
AcDbLine
 10
1106.4213592233
 20
1767.2975504146
 30
0.0
 11
1101.4213592233
 21
1767.2975504146
 31
0.0
  0
LINE
  5
17D
330
1F
100
AcDbEntity
  8
0
  6
Continuous
 62
     7
 48
10.0
370
    15
100
AcDbLine
 10
1101.4213592233
 20
1767.2975504146
 30
0.0
 11
1101.4213592233
 21
1769.1303871126
 31
0.0
  0
LINE
  5
17E
330
1F
100
AcDbEntity
  8
0
  6
Continuous
 62
     7
 48
10.0
370
    15
100
AcDbLine
 10
1106.4213592233
 20
1767.2975504146
 30
0.0
 11
1106.4213592233
 21
1769.1303871126
 31
0.0
  0
LINE
  5
17F
330
1F
100
AcDbEntity
  8
0
  6
Continuous
 62
     7
 48
10.0
370
    15
100
AcDbLine
 10
1101.4213592233
 20
1767.2827694735
 30
0.0
 11
1101.4213592233
 21
1767.2975504146
 31
0.0
  0
LINE
  5
180
330
1F
100
AcDbEntity
  8
0
  6
Continuous
 62
     7
 48
10.0
370
    15
100
AcDbLine
 10
1106.4213592233
 20
1767.2827694735
 30
0.0
 11
1106.4213592233
 21
1767.2975504146
 31
0.0
  0
LINE
  5
181
330
1F
100
AcDbEntity
  8
0
  6
Continuous
 62
     7
 48
10.0
370
    15
100
AcDbLine
 10
1106.4213592233
 20
1769.8246557932
 30
0.0
 11
1101.4213592233
 21
1769.8246557932
 31
0.0
  0
LINE
  5
182
330
1F
100
AcDbEntity
  8
0
  6
Continuous
 62
     7
 48
10.0
370
    15
100
AcDbLine
 10
1101.4213592233
 20
1769.1303871126
 30
0.0
 11
1101.4213592233
 21
1769.8246557932
 31
0.0
  0
LINE
  5
183
330
1F
100
AcDbEntity
  8
0
  6
Continuous
 62
     7
 48
10.0
370
    15
100
AcDbLine
 10
1106.4213592233
 20
1769.8246557932
 30
0.0
 11
1106.4213592233
 21
1769.1303871126
 31
0.0
  0
LINE
  5
184
330
1F
100
AcDbEntity
  8
0
  6
Continuous
 62
     7
 48
10.0
370
    15
100
AcDbLine
 10
1106.4213592233
 20
1774.7634337868
 30
0.0
 11
1101.4213592233
 21
1774.7634337868
 31
0.0
  0
LINE
  5
185
330
1F
100
AcDbEntity
  8
0
  6
Continuous
 62
     7
 48
10.0
370
    15
100
AcDbLine
 10
1101.4213592233
 20
1769.8246557932
 30
0.0
 11
1101.4213592233
 21
1774.7634337868
 31
0.0
  0
LINE
  5
186
330
1F
100
AcDbEntity
  8
0
  6
Continuous
 62
     7
 48
10.0
370
    15
100
AcDbLine
 10
1106.4213592233
 20
1769.8246557932
 30
0.0
 11
1106.4213592233
 21
1774.7634337868
 31
0.0
  0
CIRCLE
  5
187
330
1F
100
AcDbEntity
  8
0
  6
Continuous
 62
     7
 48
100.0
370
    15
100
AcDbCircle
 10
1103.935019686
 20
1753.4083578375
 30
0.0
 40
1.936347333774853
  0
ARC
  5
188
330
1F
100
AcDbEntity
  8
0
  6
Continuous
 62
     7
 48
100.0
370
    15
100
AcDbCircle
 10
1103.9310377771
 20
1760.3391766196
 30
0.0
 40
1.941807618456176
100
AcDbArc
 50
269.7144194008
 51
352.0898615577
  0
ARC
  5
189
330
1F
100
AcDbEntity
  8
0
  6
Continuous
 62
     7
 48
100.0
370
    15
100
AcDbCircle
 10
1103.9116806695
 20
1760.3391766196
 30
0.0
 40
1.941807618456495
100
AcDbArc
 50
187.9101384423
 51
270.2855805992
  0
LINE
  5
18A
330
1F
100
AcDbEntity
  8
0
  6
Continuous
 62
     7
 48
10.0
370
    15
100
AcDbLine
 10
1106.4213592233
 20
1750.4358154216
 30
0.0
 11
1101.4213592233
 21
1750.4358154216
 31
0.0
  0
LINE
  5
18B
330
1F
100
AcDbEntity
  8
0
  6
Continuous
 62
     7
 48
10.0
370
    15
100
AcDbLine
 10
1101.4213592233
 20
1750.4358154216
 30
0.0
 11
1101.4213592233
 21
1760.0891923106
 31
0.0
  0
LINE
  5
18C
330
1F
100
AcDbEntity
  8
0
  6
Continuous
 62
     7
 48
10.0
370
    15
100
AcDbLine
 10
1106.4213592233
 20
1750.4358154216
 30
0.0
 11
1106.4213592233
 21
1760.0891923106
 31
0.0
  0
LINE
  5
18D
330
1F
100
AcDbEntity
  8
0
  6
Continuous
 62
     7
 48
10.0
370
    15
100
AcDbLine
 10
1101.4213592233
 20
1749.5836248327
 30
0.0
 11
1101.4213592233
 21
1750.4358154216
 31
0.0
  0
LINE
  5
18E
330
1F
100
AcDbEntity
  8
0
  6
Continuous
 62
     7
 48
10.0
370
    15
100
AcDbLine
 10
1106.4213592233
 20
1749.5836248327
 30
0.0
 11
1106.4213592233
 21
1750.4358154216
 31
0.0
  0
LINE
  5
18F
330
1F
100
AcDbEntity
  8
0
  6
Continuous
 62
     7
 48
10.0
370
    15
100
AcDbLine
 10
1101.3213592233
 20
1767.2827694735
 30
0.0
 11
1106.5213592233
 21
1767.2827694735
 31
0.0
  0
LINE
  5
190
330
1F
100
AcDbEntity
  8
0
  6
Continuous
 62
     7
 48
10.0
370
    15
100
AcDbLine
 10
1106.5213592233
 20
1767.2827694735
 30
0.0
 11
1106.5213592233
 21
1768.1974601334
 31
0.0
  0
LWPOLYLINE
  5
191
330
1F
100
AcDbEntity
  8
0
  6
Continuous
 62
     7
 48
10.0
370
    15
100
AcDbPolyline
 90
       33
 70
   128
 43
0.0
 10
1106.5213592233
 20
1768.1974601334
 10
1108.4073008641
 20
1768.102183581
 10
1110.1459748661
 20
1767.958170968
 10
1111.6803028197
 20
1767.7701500413
 10
1112.9599147305
 20
1767.5442932839
 10
1113.9428026011
 20
1767.2880152797
 10
1114.5966994992
 20
1767.009729303
 10
1114.9001388387
 20
1766.7185711208
 10
1114.8431591001
 20
1766.4240990783
 10
1114.4276308543
 20
1766.1359803102
 10
1113.6671953539
 20
1765.8636733815
 10
1112.586816709
 20
1765.6161177751
 10
1111.2219623475
 20
1765.4014404201
 10
1109.6174386657
 20
1765.2266888953
 10
1107.8259200926
 20
1765.0976000662
 10
1105.9062198565
 20
1765.0184117516
 10
1103.9213592233
 20
1764.991723601
 10
1101.9364985901
 20
1765.0184117516
 10
1100.016798354
 20
1765.0976000662
 10
1098.2252797809
 20
1765.2266888953
 10
1096.6207560991
 20
1765.4014404201
 10
1095.2559017376
 20
1765.6161177751
 10
1094.1755230927
 20
1765.8636733815
 10
1093.4150875923
 20
1766.1359803102
 10
1092.9995593465
 20
1766.4240990783
 10
1092.9425796079
 20
1766.7185711208
 10
1093.2460189474
 20
1767.009729303
 10
1093.8999158455
 20
1767.2880152797
 10
1094.8828037161
 20
1767.5442932839
 10
1096.1624156269
 20
1767.7701500413
 10
1097.6967435805
 20
1767.958170968
 10
1099.4354175825
 20
1768.102183581
 10
1101.3213592233
 20
1768.1974601334
  0
LINE
  5
192
330
1F
100
AcDbEntity
  8
0
  6
Continuous
 62
     7
 48
10.0
370
    15
100
AcDbLine
 10
1101.3213592233
 20
1768.1974601334
 30
0.0
 11
1101.3213592233
 21
1767.2827694735
 31
0.0
  0
LWPOLYLINE
  5
193
330
1F
100
AcDbEntity
  8
0
  6
Continuous
 62
     7
 48
10.0
370
    15
100
AcDbPolyline
 90
       19
 70
   128
 43
0.0
 10
1092.9213592233
 20
1761.6725478066
 10
1092.9995593465
 20
1761.4790197615
 10
1093.4150875923
 20
1761.1909009934
 10
1094.1755230927
 20
1760.9185940647
 10
1095.2559017376
 20
1760.6710384583
 10
1096.6207560991
 20
1760.4563611033
 10
1098.2252797809
 20
1760.2816095785
 10
1100.016798354
 20
1760.1525207494
 10
1101.9364985901
 20
1760.0733324348
 10
1103.9213592233
 20
1760.0466442842
 10
1105.9062198565
 20
1760.0733324348
 10
1107.8259200926
 20
1760.1525207494
 10
1109.6174386657
 20
1760.2816095785
 10
1111.2219623475
 20
1760.4563611033
 10
1112.586816709
 20
1760.6710384583
 10
1113.6671953539
 20
1760.9185940647
 10
1114.4276308543
 20
1761.1909009934
 10
1114.8431591001
 20
1761.4790197615
 10
1114.9213592233
 20
1761.6725478066
  0
LINE
  5
194
330
1F
100
AcDbEntity
  8
0
  6
Continuous
 62
     8
 48
10.0
370
    15
100
AcDbLine
 10
1107.1713592233
 20
1785.2589574104
 30
0.0
 11
1106.9213592233
 21
1785.2589574104
 31
0.0
  0
LINE
  5
195
330
1F
100
AcDbEntity
  8
0
  6
Continuous
 62
     8
 48
10.0
370
    15
100
AcDbLine
 10
1106.9213592233
 20
1783.5537194987
 30
0.0
 11
1107.1713592233
 21
1783.5537194987
 31
0.0
  0
LINE
  5
196
330
1F
100
AcDbEntity
  8
0
  6
Continuous
 62
     8
 48
10.0
370
    15
100
AcDbLine
 10
1107.1713592233
 20
1751.9052118711
 30
0.0
 11
1106.9213592233
 21
1751.9052118711
 31
0.0
  0
LINE
  5
197
330
1F
100
AcDbEntity
  8
0
  6
Continuous
 62
     8
 48
10.0
370
    15
100
AcDbLine
 10
1106.9213592233
 20
1787.032670344
 30
0.0
 11
1107.1713592233
 21
1787.032670344
 31
0.0
  0
LINE
  5
198
330
1F
100
AcDbEntity
  8
0
  6
Continuous
 62
     8
 48
10.0
370
    15
100
AcDbLine
 10
1102.9213592233
 20
1785.3698144688
 30
0.0
 11
1101.1713592233
 21
1785.3698144688
 31
0.0
  0
LINE
  5
199
330
1F
100
AcDbEntity
  8
0
  6
Continuous
 62
     8
 48
10.0
370
    15
100
AcDbLine
 10
1101.1713592233
 20
1783.664576557
 30
0.0
 11
1102.9213592233
 21
1783.664576557
 31
0.0
  0
LINE
  5
19A
330
1F
100
AcDbEntity
  8
0
  6
Continuous
 62
     8
 48
10.0
370
    15
100
AcDbLine
 10
1101.4213592233
 20
1752.0160689294
 30
0.0
 11
1101.1713592233
 21
1752.0160689294
 31
0.0
  0
LINE
  5
19B
330
1F
100
AcDbEntity
  8
0
  6
Continuous
 62
     8
 48
10.0
370
    15
100
AcDbLine
 10
1101.1713592233
 20
1786.9218132856
 30
0.0
 11
1102.9213592233
 21
1786.9218132856
 31
0.0
  0
LINE
  5
19C
330
1F
100
AcDbEntity
  8
0
  6
Continuous
 62
     8
 48
10.0
370
    15
100
AcDbLine
 10
1106.9213592233
 20
1752.0160689294
 30
0.0
 11
1106.4213592233
 21
1752.0160689294
 31
0.0
  0
LINE
  5
19D
330
1F
100
AcDbEntity
  8
0
  6
Continuous
 62
     8
 48
10.0
370
    15
100
AcDbLine
 10
1256.198048072
 20
1952.6788327537
 30
0.0
 11
1255.288721398
 21
1952.6788327537
 31
0.0
  0
LINE
  5
19E
330
1F
100
AcDbEntity
  8
0
  6
Continuous
 62
     8
 48
10.0
370
    15
100
AcDbLine
 10
1251.3483058108
 20
1953.0288327537
 30
0.0
 11
1252.2576324848
 21
1953.0288327537
 31
0.0
  0
LINE
  5
19F
330
1F
100
AcDbEntity
  8
0
  6
Continuous
 62
     8
 48
10.0
370
    15
100
AcDbLine
 10
956.4944126358
 20
1951.9288327537
 30
0.0
 11
955.9195415052
 21
1951.9288327537
 31
0.0
  0
LINE
  5
1A0
330
1F
100
AcDbEntity
  8
0
  6
Continuous
 62
     8
 48
10.0
370
    15
100
AcDbLine
 10
955.9195415052
 20
1953.0288327537
 30
0.0
 11
956.4944126358
 21
1953.0288327537
 31
0.0
  0
LINE
  5
1A1
330
1F
100
AcDbEntity
  8
0
  6
Continuous
 62
     8
 48
10.0
370
    15
100
AcDbLine
 10
958.3552235149
 20
1953.3014498271
 30
0.0
 11
957.6695415052
 21
1953.3014498271
 31
0.0
  0
LINE
  5
1A5
330
1F
100
AcDbEntity
  8
0
  6
Continuous
 62
     8
 48
10.0
370
    15
100
AcDbLine
 10
1064.576162911
 20
1638.58133958
 30
0.0
 11
1143.2665555356
 21
1638.58133958
 31
0.0
  0
LINE
  5
1A6
330
1F
100
AcDbEntity
  8
0
  6
Continuous
 62
     8
 48
10.0
370
    15
100
AcDbLine
 10
1065.8658036677
 20
1638.25936866
 30
0.0
 11
1141.9769147789
 21
1638.25936866
 31
0.0
  0
LINE
  5
1A7
330
1F
100
AcDbEntity
  8
0
  6
Continuous
 62
     8
 48
10.0
370
    15
100
AcDbLine
 10
1168.8732645071
 20
1593.22840861
 30
0.0
 11
1176.3732645071
 21
1593.22840861
 31
0.0
  0
LINE
  5
1A8
330
1F
100
AcDbEntity
  8
0
  6
Continuous
 62
     8
 48
10.0
370
    15
100
AcDbLine
 10
1161.3732645071
 20
1593.22840861
 30
0.0
 11
1168.8732645071
 21
1593.22840861
 31
0.0
  0
LINE
  5
1A9
330
1F
100
AcDbEntity
  8
0
  6
Continuous
 62
     8
 48
10.0
370
    15
100
AcDbLine
 10
1038.9694539395
 20
1593.22840861
 30
0.0
 11
1046.4694539395
 21
1593.22840861
 31
0.0
  0
LINE
  5
1AA
330
1F
100
AcDbEntity
  8
0
  6
Continuous
 62
     8
 48
10.0
370
    15
100
AcDbLine
 10
1031.4694539395
 20
1593.22840861
 30
0.0
 11
1038.9694539395
 21
1593.22840861
 31
0.0
  0
LINE
  5
1AB
330
1F
100
AcDbEntity
  8
0
  6
Continuous
 62
     8
 48
10.0
370
    15
100
AcDbLine
 10
1103.9213592233
 20
1593.22840861
 30
0.0
 11
1111.4213592233
 21
1593.22840861
 31
0.0
  0
LINE
  5
1AC
330
1F
100
AcDbEntity
  8
0
  6
Continuous
 62
     8
 48
10.0
370
    15
100
AcDbLine
 10
1096.4213592233
 20
1593.22840861
 30
0.0
 11
1103.9213592233
 21
1593.22840861
 31
0.0
  0
LINE
  5
1B3
330
1F
100
AcDbEntity
  8
0
  6
CENTERX2
 62
     7
 48
10.0
370
     0
100
AcDbLine
 10
1103.9307212934
 20
2202.8978045278
 30
0.0
 11
1137.6317751419
 21
2202.8978045278
 31
0.0
  0
DIMENSION
  5
1B4
330
1F
100
AcDbEntity
  8
0
  6
Continuous
 62
     7
 48
10.0
370
     0
100
AcDbDimension
  2
*D1
 10
1384.5182941625
 20
1590.62840861
 30
0.0
 11
1384.5182941625
 21
1894.9749785021
 31
0.0
 70
    32
 71
     2
 42
-1.0
 73
     0
 74
     0
 75
     0
  3
SLDDIMSTYLE0
100
AcDbAlignedDimension
 13
1137.6317751419
 23
2202.8978045278
 33
0.0
 14
1174.4232645071
 24
1590.62840861
 34
0.0
 50
90.0
100
AcDbRotatedDimension
  0
DIMENSION
  5
1BF
330
1F
100
AcDbEntity
  8
0
  6
Continuous
 62
     7
 48
10.0
370
     0
100
AcDbDimension
  2
*D2
 10
795.1996991256
 20
2202.8978045278
 30
0.0
 11
795.1996991256
 21
2091.3903987882
 31
0.0
 70
    32
 71
     2
 42
-1.0
 73
     0
 74
     0
 75
     0
  3
SLDDIMSTYLE1
100
AcDbAlignedDimension
 13
926.4213592233
 23
1954.8978049822
 33
0.0
 14
1103.9307212934
 24
2202.8978045278
 34
0.0
 50
90.0
100
AcDbRotatedDimension
  0
DIMENSION
  5
1CA
330
1F
100
AcDbEntity
  8
0
  6
Continuous
 62
     7
 48
10.0
370
     0
100
AcDbDimension
  2
*D3
 10
926.4213592233
 20
2302.8978049822
 30
0.0
 11
1085.3210431576
 21
2302.8978049822
 31
0.0
 70
    32
  1
%%c<>
 71
     2
 42
-1.0
 73
     0
 74
     0
 75
     0
  3
SLDDIMSTYLE1
100
AcDbAlignedDimension
 13
1281.4213592233
 23
1954.8978049822
 33
0.0
 14
926.4213592233
 24
1954.8978049822
 34
0.0
100
AcDbRotatedDimension
  0
DIMENSION
  5
1D5
330
1F
100
AcDbEntity
  8
0
  6
Continuous
 62
     7
 48
10.0
370
     0
100
AcDbDimension
  2
*D4
 10
1205.9213592233
 20
1403.8470170986
 30
0.0
 11
1096.6922046278
 21
1403.8470170986
 31
0.0
 70
    32
  1
%%c<>
 71
     2
 42
-1.0
 73
     0
 74
     0
 75
     0
  3
SLDDIMSTYLE2
100
AcDbAlignedDimension
 13
1001.9213592233
 23
1898.72840861
 33
0.0
 14
1205.9213592233
 24
1898.72840861
 34
0.0
100
AcDbRotatedDimension
  0
ENDSEC
  0
SECTION
  2
OBJECTS
  0
DICTIONARY
  5
C
330
0
100
AcDbDictionary
281
     1
  3
ACAD_COLOR
350
6C
  3
ACAD_GROUP
350
D
  3
ACAD_IMAGE_DICT
350
40
  3
ACAD_LAYOUT
350
1A
  3
ACAD_MATERIAL
350
6B
  3
ACAD_MLEADERSTYLE
350
1E5
  3
ACAD_MLINESTYLE
350
17
  3
ACAD_PLOTSETTINGS
350
19
  3
ACAD_PLOTSTYLENAME
350
E
  3
ACAD_SCALELIST
350
99
  3
ACAD_TABLESTYLE
350
92
  3
ACAD_VISUALSTYLE
350
2A
  3
AcDbVariableDictionary
350
59
  0
DICTIONARY
  5
220
330
1F
100
AcDbDictionary
280
     1
281
     1
  0
DICTIONARY
  5
6C
102
{ACAD_REACTORS
330
C
102
}
330
C
100
AcDbDictionary
281
     1
  0
DICTIONARY
  5
D
102
{ACAD_REACTORS
330
C
102
}
330
C
100
AcDbDictionary
281
     1
  0
DICTIONARY
  5
40
102
{ACAD_REACTORS
330
C
102
}
330
C
100
AcDbDictionary
281
     1
  3
G:\JSL\PARACHILNA\PRODUCTOS\CHINOZ\CAD\DXF459B.BMP
350
41
  0
DICTIONARY
  5
1A
102
{ACAD_REACTORS
330
C
102
}
330
C
100
AcDbDictionary
281
     1
  3
Layout1
350
74
  3
Layout2
350
26
  3
Model
350
22
  0
DICTIONARY
  5
6B
102
{ACAD_REACTORS
330
C
102
}
330
C
100
AcDbDictionary
281
     1
  0
DICTIONARY
  5
1E5
102
{ACAD_REACTORS
330
C
102
}
330
C
100
AcDbDictionary
281
     1
  0
DICTIONARY
  5
17
102
{ACAD_REACTORS
330
C
102
}
330
C
100
AcDbDictionary
281
     1
  3
Standard
350
18
  0
DICTIONARY
  5
19
102
{ACAD_REACTORS
330
C
102
}
330
C
100
AcDbDictionary
281
     1
  0
ACDBDICTIONARYWDFLT
  5
E
102
{ACAD_REACTORS
330
C
102
}
330
C
100
AcDbDictionary
281
     1
  3
Normal
350
F
100
AcDbDictionaryWithDefault
340
F
  0
DICTIONARY
  5
99
102
{ACAD_REACTORS
330
C
102
}
330
C
100
AcDbDictionary
281
     1
  3
A0
350
66
  3
A1
350
67
  3
A2
350
68
  3
A3
350
69
  3
A4
350
6A
  3
A5
350
1F6
  3
A6
350
1F7
  3
A7
350
6D
  3
A8
350
6E
  3
A9
350
6F
  3
B0
350
70
  3
B1
350
71
  3
B2
350
72
  3
B3
350
1F8
  3
B4
350
1F9
  3
B5
350
1FA
  3
B6
350
1FB
  3
B7
350
77
  3
B8
350
78
  3
B9
350
79
  3
C0
350
7A
  3
C1
350
7B
  3
C2
350
7C
  3
C3
350
7D
  3
C4
350
7E
  3
C5
350
7F
  3
C6
350
80
  3
C7
350
81
  3
C8
350
82
  3
C9
350
83
  3
D0
350
84
  3
D1
350
85
  3
D2
350
86
  0
DICTIONARY
  5
92
102
{ACAD_REACTORS
330
C
102
}
330
C
100
AcDbDictionary
281
     1
  3
Standard
350
93
  0
DICTIONARY
  5
2A
102
{ACAD_REACTORS
330
C
102
}
330
C
100
AcDbDictionary
281
     1
  3
2DWIREFRAME
350
2F
  3
3D HIDDEN
350
31
  3
3DWIREFRAME
350
30
  3
BASIC
350
32
  3
BRIGHTEN
350
36
  3
COLORCHANGE
350
3A
  3
CONCEPTUAL
350
34
  3
DIM
350
35
  3
FACEPATTERN
350
39
  3
FLAT
350
2B
  3
FLATWITHEDGES
350
2C
  3
GOURAUD
350
2D
  3
GOURAUDWITHEDGES
350
2E
  3
LINEPATTERN
350
38
  3
REALISTIC
350
33
  3
THICKEN
350
37
  0
DICTIONARY
  5
59
102
{ACAD_REACTORS
330
C
102
}
330
C
100
AcDbDictionary
281
     1
  3
CANNOSCALE
350
221
  3
CTABLESTYLE
350
98
  3
DIMASSOC
350
1E9
  3
HIDETEXT
350
1EA
  0
IMAGEDEF
  5
41
102
{ACAD_REACTORS
330
40
102
}
330
40
100
AcDbRasterImageDef
 90
        0
  1
G:\JSL\PARACHILNA\PRODUCTOS\CHINOZ\CAD\dxf459B.bmp
 10
468.0
 20
40.0
 11
0.002136752136752137
 21
0.002136752136752137
280
     1
281
     0
  0
LAYOUT
  5
74
102
{ACAD_REACTORS
330
1A
102
}
330
1A
100
AcDbPlotSettings
  1

  2
none_device
  4
ISO_C5_(229.00_x_162.00_MM)
  6

 40
0.0
 41
0.0
 42
0.0
 43
0.0
 44
229.0
 45
162.0
 46
0.0
 47
0.0
 48
0.0
 49
0.0
140
0.0
141
0.0
142
1.0
143
1.0
 70
   688
 72
     1
 73
     0
 74
     5
  7

 75
    16
 76
     0
 77
     2
 78
   300
147
1.0
148
0.0
149
0.0
100
AcDbLayout
  1
Layout1
 70
     1
 71
     1
 10
0.0
 20
0.0
 11
420.0
 21
297.0
 12
0.0
 22
0.0
 32
0.0
 14
1.000000000000000E+20
 24
1.000000000000000E+20
 34
1.000000000000000E+20
 15
-1.000000000000000E+20
 25
-1.000000000000000E+20
 35
-1.000000000000000E+20
146
0.0
 13
0.0
 23
0.0
 33
0.0
 16
1.0
 26
0.0
 36
0.0
 17
0.0
 27
1.0
 37
0.0
 76
     0
330
73
  0
LAYOUT
  5
26
102
{ACAD_REACTORS
330
1A
102
}
330
1A
100
AcDbPlotSettings
  1

  2
none_device
  4
ISO_C5_(229.00_x_162.00_MM)
  6

 40
0.0
 41
0.0
 42
0.0
 43
0.0
 44
229.0
 45
162.0
 46
0.0
 47
0.0
 48
0.0
 49
0.0
140
0.0
141
0.0
142
1.0
143
1.0
 70
   688
 72
     1
 73
     0
 74
     5
  7

 75
    16
 76
     0
 77
     2
 78
   300
147
1.0
148
0.0
149
0.0
100
AcDbLayout
  1
Layout2
 70
     1
 71
     2
 10
0.0
 20
0.0
 11
0.0
 21
0.0
 12
0.0
 22
0.0
 32
0.0
 14
0.0
 24
0.0
 34
0.0
 15
0.0
 25
0.0
 35
0.0
146
0.0
 13
0.0
 23
0.0
 33
0.0
 16
1.0
 26
0.0
 36
0.0
 17
0.0
 27
1.0
 37
0.0
 76
     0
330
23
  0
LAYOUT
  5
22
102
{ACAD_REACTORS
330
1A
102
}
330
1A
100
AcDbPlotSettings
  1

  2
none_device
  4
ISO_C5_(229.00_x_162.00_MM)
  6

 40
0.0
 41
0.0
 42
0.0
 43
0.0
 44
229.0
 45
162.0
 46
0.0
 47
0.0
 48
0.0
 49
0.0
140
0.0
141
0.0
142
1.0
143
1.0
 70
 11952
 72
     1
 73
     0
 74
     0
  7

 75
    16
 76
     0
 77
     2
 78
   300
147
1.0
148
0.0
149
0.0
100
AcDbLayout
  1
Model
 70
     1
 71
     0
 10
0.0
 20
0.0
 11
2100.0
 21
2970.0
 12
0.0
 22
0.0
 32
0.0
 14
176.8264998564
 24
49.9980727422
 34
0.0
 15
2049.4323743066
 25
2919.9980727422
 35
0.0
146
0.0
 13
0.0
 23
0.0
 33
0.0
 16
1.0
 26
0.0
 36
0.0
 17
0.0
 27
1.0
 37
0.0
 76
     0
330
1F
331
97
  0
MLINESTYLE
  5
18
102
{ACAD_REACTORS
330
17
102
}
330
17
100
AcDbMlineStyle
  2
Standard
 70
     0
  3

 62
   256
 51
90.0
 52
90.0
 71
     2
 49
0.5
 62
   256
  6
BYLAYER
 49
-0.5
 62
   256
  6
BYLAYER
  0
ACDBPLACEHOLDER
  5
F
102
{ACAD_REACTORS
330
E
102
}
330
E
  0
SCALE
  5
66
102
{ACAD_REACTORS
330
99
102
}
330
99
100
AcDbScale
 70
     0
300
1:1
140
1.0
141
1.0
290
     1
  0
SCALE
  5
67
102
{ACAD_REACTORS
330
99
102
}
330
99
100
AcDbScale
 70
     0
300
1:2
140
1.0
141
2.0
290
     0
  0
SCALE
  5
68
102
{ACAD_REACTORS
330
99
102
}
330
99
100
AcDbScale
 70
     0
300
1:4
140
1.0
141
4.0
290
     0
  0
SCALE
  5
69
102
{ACAD_REACTORS
330
99
102
}
330
99
100
AcDbScale
 70
     0
300
1:5
140
1.0
141
5.0
290
     0
  0
SCALE
  5
6A
102
{ACAD_REACTORS
330
99
102
}
330
99
100
AcDbScale
 70
     0
300
1:8
140
1.0
141
8.0
290
     0
  0
SCALE
  5
1F6
102
{ACAD_REACTORS
330
99
102
}
330
99
100
AcDbScale
 70
     0
300
1:10
140
1.0
141
10.0
290
     0
  0
SCALE
  5
1F7
102
{ACAD_REACTORS
330
99
102
}
330
99
100
AcDbScale
 70
     0
300
1:16
140
1.0
141
16.0
290
     0
  0
SCALE
  5
6D
102
{ACAD_REACTORS
330
99
102
}
330
99
100
AcDbScale
 70
     0
300
1:20
140
1.0
141
20.0
290
     0
  0
SCALE
  5
6E
102
{ACAD_REACTORS
330
99
102
}
330
99
100
AcDbScale
 70
     0
300
1:30
140
1.0
141
30.0
290
     0
  0
SCALE
  5
6F
102
{ACAD_REACTORS
330
99
102
}
330
99
100
AcDbScale
 70
     0
300
1:40
140
1.0
141
40.0
290
     0
  0
SCALE
  5
70
102
{ACAD_REACTORS
330
99
102
}
330
99
100
AcDbScale
 70
     0
300
1:50
140
1.0
141
50.0
290
     0
  0
SCALE
  5
71
102
{ACAD_REACTORS
330
99
102
}
330
99
100
AcDbScale
 70
     0
300
1:100
140
1.0
141
100.0
290
     0
  0
SCALE
  5
72
102
{ACAD_REACTORS
330
99
102
}
330
99
100
AcDbScale
 70
     0
300
2:1
140
2.0
141
1.0
290
     0
  0
SCALE
  5
1F8
102
{ACAD_REACTORS
330
99
102
}
330
99
100
AcDbScale
 70
     0
300
4:1
140
4.0
141
1.0
290
     0
  0
SCALE
  5
1F9
102
{ACAD_REACTORS
330
99
102
}
330
99
100
AcDbScale
 70
     0
300
8:1
140
8.0
141
1.0
290
     0
  0
SCALE
  5
1FA
102
{ACAD_REACTORS
330
99
102
}
330
99
100
AcDbScale
 70
     0
300
10:1
140
10.0
141
1.0
290
     0
  0
SCALE
  5
1FB
102
{ACAD_REACTORS
330
99
102
}
330
99
100
AcDbScale
 70
     0
300
100:1
140
100.0
141
1.0
290
     0
  0
SCALE
  5
77
102
{ACAD_REACTORS
330
99
102
}
330
99
100
AcDbScale
 70
     0
300
1/128" = 1'-0"
140
0.0078125
141
12.0
290
     0
  0
SCALE
  5
78
102
{ACAD_REACTORS
330
99
102
}
330
99
100
AcDbScale
 70
     0
300
1/64" = 1'-0"
140
0.015625
141
12.0
290
     0
  0
SCALE
  5
79
102
{ACAD_REACTORS
330
99
102
}
330
99
100
AcDbScale
 70
     0
300
1/32" = 1'-0"
140
0.03125
141
12.0
290
     0
  0
SCALE
  5
7A
102
{ACAD_REACTORS
330
99
102
}
330
99
100
AcDbScale
 70
     0
300
1/16" = 1'-0"
140
0.0625
141
12.0
290
     0
  0
SCALE
  5
7B
102
{ACAD_REACTORS
330
99
102
}
330
99
100
AcDbScale
 70
     0
300
3/32" = 1'-0"
140
0.09375
141
12.0
290
     0
  0
SCALE
  5
7C
102
{ACAD_REACTORS
330
99
102
}
330
99
100
AcDbScale
 70
     0
300
1/8" = 1'-0"
140
0.125
141
12.0
290
     0
  0
SCALE
  5
7D
102
{ACAD_REACTORS
330
99
102
}
330
99
100
AcDbScale
 70
     0
300
3/16" = 1'-0"
140
0.1875
141
12.0
290
     0
  0
SCALE
  5
7E
102
{ACAD_REACTORS
330
99
102
}
330
99
100
AcDbScale
 70
     0
300
1/4" = 1'-0"
140
0.25
141
12.0
290
     0
  0
SCALE
  5
7F
102
{ACAD_REACTORS
330
99
102
}
330
99
100
AcDbScale
 70
     0
300
3/8" = 1'-0"
140
0.375
141
12.0
290
     0
  0
SCALE
  5
80
102
{ACAD_REACTORS
330
99
102
}
330
99
100
AcDbScale
 70
     0
300
1/2" = 1'-0"
140
0.5
141
12.0
290
     0
  0
SCALE
  5
81
102
{ACAD_REACTORS
330
99
102
}
330
99
100
AcDbScale
 70
     0
300
3/4" = 1'-0"
140
0.75
141
12.0
290
     0
  0
SCALE
  5
82
102
{ACAD_REACTORS
330
99
102
}
330
99
100
AcDbScale
 70
     0
300
1" = 1'-0"
140
1.0
141
12.0
290
     0
  0
SCALE
  5
83
102
{ACAD_REACTORS
330
99
102
}
330
99
100
AcDbScale
 70
     0
300
1-1/2" = 1'-0"
140
1.5
141
12.0
290
     0
  0
SCALE
  5
84
102
{ACAD_REACTORS
330
99
102
}
330
99
100
AcDbScale
 70
     0
300
3" = 1'-0"
140
3.0
141
12.0
290
     0
  0
SCALE
  5
85
102
{ACAD_REACTORS
330
99
102
}
330
99
100
AcDbScale
 70
     0
300
6" = 1'-0"
140
6.0
141
12.0
290
     0
  0
SCALE
  5
86
102
{ACAD_REACTORS
330
99
102
}
330
99
100
AcDbScale
 70
     0
300
1'-0" = 1'-0"
140
12.0
141
12.0
290
     0
  0
TABLESTYLE
  5
93
102
{ACAD_REACTORS
330
92
102
}
330
92
100
AcDbTableStyle
  3
Standard
 70
     0
 71
     0
 40
0.06
 41
0.06
280
     0
281
     0
  7
Standard
140
0.18
170
     2
 62
     0
 63
     7
283
     0
 90
      512
 91
        0
  1

274
    -2
284
     1
 64
     0
275
    -2
285
     1
 65
     0
276
    -2
286
     1
 66
     0
277
    -2
287
     1
 67
     0
278
    -2
288
     1
 68
     0
279
    -2
289
     1
 69
     0
  7
Standard
140
0.25
170
     5
 62
     0
 63
     7
283
     0
 90
      512
 91
        0
  1

274
    -2
284
     1
 64
     0
275
    -2
285
     1
 65
     0
276
    -2
286
     1
 66
     0
277
    -2
287
     1
 67
     0
278
    -2
288
     1
 68
     0
279
    -2
289
     1
 69
     0
  7
Standard
140
0.18
170
     5
 62
     0
 63
     7
283
     0
 90
      512
 91
        0
  1

274
    -2
284
     1
 64
     0
275
    -2
285
     1
 65
     0
276
    -2
286
     1
 66
     0
277
    -2
287
     1
 67
     0
278
    -2
288
     1
 68
     0
279
    -2
289
     1
 69
     0
  0
VISUALSTYLE
  5
2F
102
{ACAD_REACTORS
330
2A
102
}
330
2A
100
AcDbVisualStyle
  2
2dWireframe
 70
     4
 71
     0
 72
     2
 73
     0
 90
        0
 40
-0.6
 41
-30.0
 62
     5
 63
     7
 74
     1
 91
        4
 64
     7
 65
   257
 75
     1
175
     1
 42
1.0
 92
        0
 66
   257
 43
1.0
 76
     1
 77
     6
 78
     2
 67
     7
 79
     5
170
     0
171
     0
290
     1
174
     0
 93
        1
 44
0.0
173
     0
291
     1
 45
0.0
  0
VISUALSTYLE
  5
31
102
{ACAD_REACTORS
330
2A
102
}
330
2A
100
AcDbVisualStyle
  2
3D Hidden
 70
     6
 71
     1
 72
     2
 73
     2
 90
        0
 40
-0.6
 41
-30.0
 62
     5
 63
     7
 74
     2
 91
        2
 64
     7
 65
   257
 75
     2
175
     1
 42
40.0
 92
        0
 66
   257
 43
1.0
 76
     1
 77
     6
 78
     2
 67
     7
 79
     3
170
     0
171
     0
290
     1
174
     0
 93
        1
 44
0.0
173
     0
291
     1
 45
0.0
  0
VISUALSTYLE
  5
30
102
{ACAD_REACTORS
330
2A
102
}
330
2A
100
AcDbVisualStyle
  2
3dWireframe
 70
     5
 71
     0
 72
     2
 73
     0
 90
        0
 40
-0.6
 41
-30.0
 62
     5
 63
     7
 74
     1
 91
        4
 64
     7
 65
   257
 75
     1
175
     1
 42
1.0
 92
        0
 66
   257
 43
1.0
 76
     1
 77
     6
 78
     2
 67
     7
 79
     5
170
     0
171
     0
290
     1
174
     0
 93
        1
 44
0.0
173
     0
291
     1
 45
0.0
  0
VISUALSTYLE
  5
32
102
{ACAD_REACTORS
330
2A
102
}
330
2A
100
AcDbVisualStyle
  2
Basic
 70
     7
 71
     1
 72
     0
 73
     1
 90
        0
 40
-0.6
 41
-30.0
 62
     5
 63
     7
 74
     0
 91
        4
 64
     7
 65
   257
 75
     1
175
     1
 42
1.0
 92
        8
 66
     7
 43
1.0
 76
     1
 77
     6
 78
     2
 67
     7
 79
     5
170
     0
171
     0
290
     1
174
     0
 93
        1
 44
0.0
173
     0
291
     1
 45
0.0
  0
VISUALSTYLE
  5
36
102
{ACAD_REACTORS
330
2A
102
}
330
2A
100
AcDbVisualStyle
  2
Brighten
 70
    12
 71
     2
 72
     2
 73
     0
 90
        0
 40
-0.6
 41
-30.0
 62
     5
 63
     7
 74
     1
 91
        4
 64
     7
 65
   257
 75
     1
175
     1
 42
1.0
 92
        8
 66
     7
 43
1.0
 76
     1
 77
     6
 78
     2
 67
     7
 79
     5
170
     0
171
     0
290
     1
174
     0
 93
        1
 44
50.0
173
     0
291
     1
 45
0.0
  0
VISUALSTYLE
  5
3A
102
{ACAD_REACTORS
330
2A
102
}
330
2A
100
AcDbVisualStyle
  2
ColorChange
 70
    16
 71
     2
 72
     2
 73
     3
 90
        0
 40
-0.6
 41
-30.0
 62
     5
 63
     8
 74
     1
 91
        4
 64
     7
 65
   257
 75
     1
175
     1
 42
1.0
 92
        8
 66
     8
 43
1.0
 76
     1
 77
     6
 78
     2
 67
     7
 79
     5
170
     0
171
     0
290
     1
174
     0
 93
        1
 44
0.0
173
     0
291
     1
 45
0.0
  0
VISUALSTYLE
  5
34
102
{ACAD_REACTORS
330
2A
102
}
330
2A
100
AcDbVisualStyle
  2
Conceptual
 70
     9
 71
     3
 72
     2
 73
     0
 90
        0
 40
-0.6
 41
-30.0
 62
     5
 63
     7
 74
     2
 91
        2
 64
     7
 65
   257
 75
     1
175
     1
 42
40.0
 92
        8
 66
     7
 43
1.0
 76
     1
 77
     6
 78
     2
 67
     7
 79
     3
170
     0
171
     0
290
     1
174
     0
 93
        1
 44
0.0
173
     0
291
     1
 45
0.0
  0
VISUALSTYLE
  5
35
102
{ACAD_REACTORS
330
2A
102
}
330
2A
100
AcDbVisualStyle
  2
Dim
 70
    11
 71
     2
 72
     2
 73
     0
 90
        0
 40
-0.6
 41
-30.0
 62
     5
 63
     7
 74
     1
 91
        4
 64
     7
 65
   257
 75
     1
175
     1
 42
1.0
 92
        8
 66
     7
 43
1.0
 76
     1
 77
     6
 78
     2
 67
     7
 79
     5
170
     0
171
     0
290
     1
174
     0
 93
        1
 44
-50.0
173
     0
291
     1
 45
0.0
  0
VISUALSTYLE
  5
39
102
{ACAD_REACTORS
330
2A
102
}
330
2A
100
AcDbVisualStyle
  2
Facepattern
 70
    15
 71
     2
 72
     2
 73
     0
 90
        0
 40
-0.6
 41
-30.0
 62
     5
 63
     7
 74
     1
 91
        4
 64
     7
 65
   257
 75
     1
175
     1
 42
1.0
 92
        8
 66
     7
 43
1.0
 76
     1
 77
     6
 78
     2
 67
     7
 79
     5
170
     0
171
     0
290
     1
174
     0
 93
        1
 44
0.0
173
     0
291
     1
 45
0.0
  0
VISUALSTYLE
  5
2B
102
{ACAD_REACTORS
330
2A
102
}
330
2A
100
AcDbVisualStyle
  2
Flat
 70
     0
 71
     2
 72
     1
 73
     1
 90
        2
 40
-0.6
 41
30.0
 62
     5
 63
     7
 74
     0
 91
        4
 64
     7
 65
   257
 75
     1
175
     1
 42
1.0
 92
        8
 66
     7
 43
1.0
 76
     1
 77
     6
 78
     2
 67
     7
 79
     5
170
     0
171
     0
290
     1
174
     0
 93
       13
 44
0.0
173
     0
291
     1
 45
0.0
  0
VISUALSTYLE
  5
2C
102
{ACAD_REACTORS
330
2A
102
}
330
2A
100
AcDbVisualStyle
  2
FlatWithEdges
 70
     1
 71
     2
 72
     1
 73
     1
 90
        2
 40
-0.6
 41
30.0
 62
     5
 63
     7
 74
     1
 91
        4
 64
     7
 65
   257
 75
     1
175
     1
 42
1.0
 92
        0
 66
   257
 43
1.0
 76
     1
 77
     6
 78
     2
 67
     7
 79
     5
170
     0
171
     0
290
     1
174
     0
 93
       13
 44
0.0
173
     0
291
     1
 45
0.0
  0
VISUALSTYLE
  5
2D
102
{ACAD_REACTORS
330
2A
102
}
330
2A
100
AcDbVisualStyle
  2
Gouraud
 70
     2
 71
     2
 72
     2
 73
     1
 90
        2
 40
-0.6
 41
30.0
 62
     5
 63
     7
 74
     0
 91
        4
 64
     7
 65
   257
 75
     1
175
     1
 42
1.0
 92
        0
 66
     7
 43
1.0
 76
     1
 77
     6
 78
     2
 67
     7
 79
     5
170
     0
171
     0
290
     1
174
     0
 93
       13
 44
0.0
173
     0
291
     1
 45
0.0
  0
VISUALSTYLE
  5
2E
102
{ACAD_REACTORS
330
2A
102
}
330
2A
100
AcDbVisualStyle
  2
GouraudWithEdges
 70
     3
 71
     2
 72
     2
 73
     1
 90
        2
 40
-0.6
 41
30.0
 62
     5
 63
     7
 74
     1
 91
        4
 64
     7
 65
   257
 75
     1
175
     1
 42
1.0
 92
        0
 66
   257
 43
1.0
 76
     1
 77
     6
 78
     2
 67
     7
 79
     5
170
     0
171
     0
290
     1
174
     0
 93
       13
 44
0.0
173
     0
291
     1
 45
0.0
  0
VISUALSTYLE
  5
38
102
{ACAD_REACTORS
330
2A
102
}
330
2A
100
AcDbVisualStyle
  2
Linepattern
 70
    14
 71
     2
 72
     2
 73
     0
 90
        0
 40
-0.6
 41
-30.0
 62
     5
 63
     7
 74
     1
 91
        4
 64
     7
 65
   257
 75
     7
175
     7
 42
1.0
 92
        8
 66
     7
 43
1.0
 76
     1
 77
     6
 78
     2
 67
     7
 79
     5
170
     0
171
     0
290
     1
174
     0
 93
        1
 44
0.0
173
     0
291
     1
 45
0.0
  0
VISUALSTYLE
  5
33
102
{ACAD_REACTORS
330
2A
102
}
330
2A
100
AcDbVisualStyle
  2
Realistic
 70
     8
 71
     2
 72
     2
 73
     0
 90
        0
 40
-0.6
 41
-30.0
 62
     5
 63
     7
 74
     1
 91
        0
 64
     7
 65
   257
 75
     1
175
     1
 42
1.0
 92
        8
 66
     8
 43
1.0
 76
     1
 77
     6
 78
     2
 67
     7
 79
     5
170
     0
171
     0
290
     1
174
     0
 93
       13
 44
0.0
173
     0
291
     1
 45
0.0
  0
VISUALSTYLE
  5
37
102
{ACAD_REACTORS
330
2A
102
}
330
2A
100
AcDbVisualStyle
  2
Thicken
 70
    13
 71
     2
 72
     2
 73
     0
 90
        0
 40
-0.6
 41
-30.0
 62
     5
 63
     7
 74
     1
 91
        4
 64
     7
 65
   257
 75
     1
175
     1
 42
1.0
 92
       12
 66
     7
 43
1.0
 76
     1
 77
     6
 78
     2
 67
     7
 79
     5
170
     0
171
     0
290
     1
174
     0
 93
        1
 44
0.0
173
     0
291
     1
 45
0.0
  0
DICTIONARYVAR
  5
221
102
{ACAD_REACTORS
330
59
102
}
330
59
100
DictionaryVariables
280
     0
  1
1:1
  0
DICTIONARYVAR
  5
98
102
{ACAD_REACTORS
330
59
102
}
330
59
100
DictionaryVariables
280
     0
  1
Standard
  0
DICTIONARYVAR
  5
1E9
102
{ACAD_REACTORS
330
59
102
}
330
59
100
DictionaryVariables
280
     0
  1
2
  0
DICTIONARYVAR
  5
1EA
102
{ACAD_REACTORS
330
59
102
}
330
59
100
DictionaryVariables
280
     0
  1
1
  0
ENDSEC
  0
EOF
