  0
SECTION
  2
HEADER
  9
$ACADVER
  1
AC1021
  9
$ACADMAINTVER
 70
    25
  9
$DWGCODEPAGE
  3
ANSI_1252
  9
$LASTSAVEDBY
  1
Josep Sancho
  9
$INSBASE
 10
0.0
 20
0.0
 30
0.0
  9
$EXTMIN
 10
176.8264998564
 20
49.9980727422
 30
-172.5876206872
  9
$EXTMAX
 10
2049.4323743066
 20
2919.9980727422
 30
0.1
  9
$LIMMIN
 10
0.0
 20
0.0
  9
$LIMMAX
 10
2100.0
 20
2970.0
  9
$ORTHOMODE
 70
     0
  9
$REGENMODE
 70
     1
  9
$FILLMODE
 70
     1
  9
$QTEXTMODE
 70
     0
  9
$MIRRTEXT
 70
     1
  9
$LTSCALE
 40
10.0
  9
$ATTMODE
 70
     1
  9
$TEXTSIZE
 40
35.0
  9
$TRACEWID
 40
1.0
  9
$TEXTSTYLE
  7
Standard
  9
$CLAYER
  8
0
  9
$CELTYPE
  6
ByLayer
  9
$CECOLOR
 62
   256
  9
$CELTSCALE
 40
1.0
  9
$DISPSILH
 70
     0
  9
$DIMSCALE
 40
1.0
  9
$DIMASZ
 40
33.02
  9
$DIMEXO
 40
10.0
  9
$DIMDLI
 40
3.75
  9
$DIMRND
 40
0.0
  9
$DIMDLE
 40
0.0
  9
$DIMEXE
 40
10.0
  9
$DIMTP
 40
0.0
  9
$DIMTM
 40
0.0
  9
$DIMTXT
 40
35.0
  9
$DIMCEN
 40
2.5
  9
$DIMTSZ
 40
0.0
  9
$DIMTOL
 70
     0
  9
$DIMLIM
 70
     0
  9
$DIMTIH
 70
     1
  9
$DIMTOH
 70
     1
  9
$DIMSE1
 70
     0
  9
$DIMSE2
 70
     0
  9
$DIMTAD
 70
     1
  9
$DIMZIN
 70
     0
  9
$DIMBLK
  1

  9
$DIMASO
 70
     1
  9
$DIMSHO
 70
     1
  9
$DIMPOST
  1

  9
$DIMAPOST
  1

  9
$DIMALT
 70
     0
  9
$DIMALTD
 70
     3
  9
$DIMALTF
 40
0.0393700787
  9
$DIMLFAC
 40
1.0
  9
$DIMTOFL
 70
     1
  9
$DIMTVP
 40
0.0
  9
$DIMTIX
 70
     0
  9
$DIMSOXD
 70
     0
  9
$DIMSAH
 70
     0
  9
$DIMBLK1
  1

  9
$DIMBLK2
  1

  9
$DIMSTYLE
  2
ISO-25
  9
$DIMCLRD
 70
     0
  9
$DIMCLRE
 70
     0
  9
$DIMCLRT
 70
     0
  9
$DIMTFAC
 40
1.0
  9
$DIMGAP
 40
15.24
  9
$DIMJUST
 70
     0
  9
$DIMSD1
 70
     0
  9
$DIMSD2
 70
     0
  9
$DIMTOLJ
 70
     0
  9
$DIMTZIN
 70
     0
  9
$DIMALTZ
 70
     0
  9
$DIMALTTZ
 70
     0
  9
$DIMUPT
 70
     0
  9
$DIMDEC
 70
     3
  9
$DIMTDEC
 70
     3
  9
$DIMALTU
 70
     2
  9
$DIMALTTD
 70
     3
  9
$DIMTXSTY
  7
Standard
  9
$DIMAUNIT
 70
     0
  9
$DIMADEC
 70
     2
  9
$DIMALTRND
 40
0.0
  9
$DIMAZIN
 70
     0
  9
$DIMDSEP
 70
    44
  9
$DIMATFIT
 70
     3
  9
$DIMFRAC
 70
     0
  9
$DIMLDRBLK
  1

  9
$DIMLUNIT
 70
     2
  9
$DIMLWD
 70
    -2
  9
$DIMLWE
 70
    -2
  9
$DIMTMOVE
 70
     0
  9
$DIMFXL
 40
1.0
  9
$DIMFXLON
 70
     0
  9
$DIMJOGANG
 40
0.7853981633974483
  9
$DIMTFILL
 70
     0
  9
$DIMTFILLCLR
 70
     0
  9
$DIMARCSYM
 70
     0
  9
$DIMLTYPE
  6

  9
$DIMLTEX1
  6

  9
$DIMLTEX2
  6

  9
$LUNITS
 70
     2
  9
$LUPREC
 70
     2
  9
$SKETCHINC
 40
1.0
  9
$FILLETRAD
 40
10.0
  9
$AUNITS
 70
     0
  9
$AUPREC
 70
     2
  9
$MENU
  1
.
  9
$ELEVATION
 40
0.0
  9
$PELEVATION
 40
0.0
  9
$THICKNESS
 40
0.0
  9
$LIMCHECK
 70
     0
  9
$CHAMFERA
 40
10.0
  9
$CHAMFERB
 40
10.0
  9
$CHAMFERC
 40
20.0
  9
$CHAMFERD
 40
0.0
  9
$SKPOLY
 70
     0
  9
$TDCREATE
 40
2453353.800459155
  9
$TDUCREATE
 40
2453353.717125822
  9
$TDUPDATE
 40
2457539.762895602
  9
$TDUUPDATE
 40
2457539.679562268
  9
$TDINDWG
 40
0.0430671412
  9
$TDUSRTIMER
 40
0.0430671412
  9
$USRTIMER
 70
     1
  9
$ANGBASE
 50
0.0
  9
$ANGDIR
 70
     0
  9
$PDMODE
 70
     0
  9
$PDSIZE
 40
-1.0
  9
$PLINEWID
 40
0.0
  9
$SPLFRAME
 70
     0
  9
$SPLINETYPE
 70
     6
  9
$SPLINESEGS
 70
     8
  9
$HANDSEED
  5
277
  9
$SURFTAB1
 70
     6
  9
$SURFTAB2
 70
     6
  9
$SURFTYPE
 70
     6
  9
$SURFU
 70
     6
  9
$SURFV
 70
     6
  9
$UCSBASE
  2

  9
$UCSNAME
  2

  9
$UCSORG
 10
0.0
 20
0.0
 30
0.0
  9
$UCSXDIR
 10
1.0
 20
0.0
 30
0.0
  9
$UCSYDIR
 10
0.0
 20
1.0
 30
0.0
  9
$UCSORTHOREF
  2

  9
$UCSORTHOVIEW
 70
     0
  9
$UCSORGTOP
 10
0.0
 20
0.0
 30
0.0
  9
$UCSORGBOTTOM
 10
0.0
 20
0.0
 30
0.0
  9
$UCSORGLEFT
 10
0.0
 20
0.0
 30
0.0
  9
$UCSORGRIGHT
 10
0.0
 20
0.0
 30
0.0
  9
$UCSORGFRONT
 10
0.0
 20
0.0
 30
0.0
  9
$UCSORGBACK
 10
0.0
 20
0.0
 30
0.0
  9
$PUCSBASE
  2

  9
$PUCSNAME
  2

  9
$PUCSORG
 10
0.0
 20
0.0
 30
0.0
  9
$PUCSXDIR
 10
1.0
 20
0.0
 30
0.0
  9
$PUCSYDIR
 10
0.0
 20
1.0
 30
0.0
  9
$PUCSORTHOREF
  2

  9
$PUCSORTHOVIEW
 70
     0
  9
$PUCSORGTOP
 10
0.0
 20
0.0
 30
0.0
  9
$PUCSORGBOTTOM
 10
0.0
 20
0.0
 30
0.0
  9
$PUCSORGLEFT
 10
0.0
 20
0.0
 30
0.0
  9
$PUCSORGRIGHT
 10
0.0
 20
0.0
 30
0.0
  9
$PUCSORGFRONT
 10
0.0
 20
0.0
 30
0.0
  9
$PUCSORGBACK
 10
0.0
 20
0.0
 30
0.0
  9
$USERI1
 70
     0
  9
$USERI2
 70
     0
  9
$USERI3
 70
     0
  9
$USERI4
 70
     0
  9
$USERI5
 70
     0
  9
$USERR1
 40
0.0
  9
$USERR2
 40
0.0
  9
$USERR3
 40
0.0
  9
$USERR4
 40
0.0
  9
$USERR5
 40
0.0
  9
$WORLDVIEW
 70
     1
  9
$SHADEDGE
 70
     3
  9
$SHADEDIF
 70
    70
  9
$TILEMODE
 70
     1
  9
$MAXACTVP
 70
    64
  9
$PINSBASE
 10
0.0
 20
0.0
 30
0.0
  9
$PLIMCHECK
 70
     0
  9
$PEXTMIN
 10
1.000000000000000E+20
 20
1.000000000000000E+20
 30
1.000000000000000E+20
  9
$PEXTMAX
 10
-1.000000000000000E+20
 20
-1.000000000000000E+20
 30
-1.000000000000000E+20
  9
$PLIMMIN
 10
0.0
 20
0.0
  9
$PLIMMAX
 10
420.0
 20
297.0
  9
$UNITMODE
 70
     0
  9
$VISRETAIN
 70
     1
  9
$PLINEGEN
 70
     0
  9
$PSLTSCALE
 70
     1
  9
$TREEDEPTH
 70
  3020
  9
$CMLSTYLE
  2
Standard
  9
$CMLJUST
 70
     0
  9
$CMLSCALE
 40
20.0
  9
$PROXYGRAPHICS
 70
     1
  9
$MEASUREMENT
 70
     1
  9
$CELWEIGHT
370
    -1
  9
$ENDCAPS
280
     0
  9
$JOINSTYLE
280
     0
  9
$LWDISPLAY
290
     1
  9
$INSUNITS
 70
     4
  9
$HYPERLINKBASE
  1

  9
$STYLESHEET
  1

  9
$XEDIT
290
     0
  9
$CEPSNTYPE
380
     0
  9
$PSTYLEMODE
290
     1
  9
$FINGERPRINTGUID
  2
{75FD4B81-2B6B-4F97-8542-385025CB93F1}
  9
$VERSIONGUID
  2
{FAEB1C32-E019-11D5-929B-00C0DF256EC4}
  9
$EXTNAMES
290
     1
  9
$PSVPSCALE
 40
0.0
  9
$OLESTARTUP
290
     0
  9
$SORTENTS
280
   127
  9
$INDEXCTL
280
     0
  9
$HIDETEXT
280
     1
  9
$XCLIPFRAME
290
     0
  9
$HALOGAP
280
     0
  9
$OBSCOLOR
 70
   257
  9
$OBSLTYPE
280
     0
  9
$INTERSECTIONDISPLAY
280
     0
  9
$INTERSECTIONCOLOR
 70
   257
  9
$DIMASSOC
280
     2
  9
$PROJECTNAME
  1

  9
$CAMERADISPLAY
290
     0
  9
$LENSLENGTH
 40
50.0
  9
$CAMERAHEIGHT
 40
0.0
  9
$STEPSPERSEC
 40
2.0
  9
$STEPSIZE
 40
6.0
  9
$3DDWFPREC
 40
2.0
  9
$PSOLWIDTH
 40
0.25
  9
$PSOLHEIGHT
 40
4.0
  9
$LOFTANG1
 40
1.570796326794897
  9
$LOFTANG2
 40
1.570796326794897
  9
$LOFTMAG1
 40
0.0
  9
$LOFTMAG2
 40
0.0
  9
$LOFTPARAM
 70
     7
  9
$LOFTNORMALS
280
     1
  9
$LATITUDE
 40
37.795
  9
$LONGITUDE
 40
-122.394
  9
$NORTHDIRECTION
 40
0.0
  9
$TIMEZONE
 70
 -8000
  9
$LIGHTGLYPHDISPLAY
280
     1
  9
$TILEMODELIGHTSYNCH
280
     1
  9
$SOLIDHIST
280
     1
  9
$SHOWHIST
280
     1
  9
$DWFFRAME
280
     2
  9
$DGNFRAME
280
     2
  9
$REALWORLDSCALE
290
     1
  9
$INTERFERECOLOR
 62
   256
  9
$CSHADOW
280
     0
  9
$SHADOWPLANELOCATION
 40
0.0
  0
ENDSEC
  0
SECTION
  2
CLASSES
  0
CLASS
  1
ACDBDICTIONARYWDFLT
  2
AcDbDictionaryWithDefault
  3
ObjectDBX Classes
 90
        0
 91
        4
280
     0
281
     0
  0
CLASS
  1
ACDBPLACEHOLDER
  2
AcDbPlaceHolder
  3
ObjectDBX Classes
 90
        0
 91
        1
280
     0
281
     0
  0
CLASS
  1
LAYOUT
  2
AcDbLayout
  3
ObjectDBX Classes
 90
        0
 91
        1
280
     0
281
     0
  0
CLASS
  1
DICTIONARYVAR
  2
AcDbDictionaryVar
  3
ObjectDBX Classes
 90
        0
 91
        4
280
     0
281
     0
  0
CLASS
  1
TABLESTYLE
  2
AcDbTableStyle
  3
ObjectDBX Classes
 90
     4095
 91
        4
280
     0
281
     0
  0
CLASS
  1
SCALE
  2
AcDbScale
  3
ObjectDBX Classes
 90
     1153
 91
        4
280
     0
281
     0
  0
ENDSEC
  0
SECTION
  2
TABLES
  0
TABLE
  2
VPORT
  5
8
330
0
100
AcDbSymbolTable
 70
     2
  0
VPORT
  5
97
330
8
100
AcDbSymbolTableRecord
100
AcDbViewportTableRecord
  2
*Active
 70
     0
 10
0.0
 20
0.0
 11
1.0
 21
1.0
 12
1300.004995924931
 22
1831.951210822193
 13
0.0
 23
0.0
 14
10.0
 24
10.0
 15
10.0
 25
10.0
 16
0.0
 26
0.0
 36
1.0
 17
0.0
 27
0.0
 37
0.0
 40
1340.545946635191
 41
0.7070707071
 42
50.0
 43
0.0
 44
0.0
 50
0.0
 51
0.0
 71
    16
 72
  2000
 73
     1
 74
     3
 75
     0
 76
     0
 77
     0
 78
     0
281
     0
 65
     0
110
0.0
120
0.0
130
0.0
111
1.0
121
0.0
131
0.0
112
0.0
122
1.0
132
0.0
 79
     0
146
0.0
 60
     3
 61
     5
292
     1
282
     1
141
0.0
142
0.0
 63
   256
  0
ENDTAB
  0
TABLE
  2
LTYPE
  5
5
330
0
100
AcDbSymbolTable
 70
     6
  0
LTYPE
  5
14
330
5
100
AcDbSymbolTableRecord
100
AcDbLinetypeTableRecord
  2
ByBlock
 70
     0
  3

 72
    65
 73
     0
 40
0.0
  0
LTYPE
  5
15
330
5
100
AcDbSymbolTableRecord
100
AcDbLinetypeTableRecord
  2
ByLayer
 70
     0
  3

 72
    65
 73
     0
 40
0.0
  0
LTYPE
  5
16
330
5
100
AcDbSymbolTableRecord
100
AcDbLinetypeTableRecord
  2
Continuous
 70
     0
  3
Solid line
 72
    65
 73
     0
 40
0.0
  0
LTYPE
  5
237
330
5
100
AcDbSymbolTableRecord
100
AcDbLinetypeTableRecord
  2
HIDDEN
 70
     0
  3
Hidden __ __ __ __ __ __ __ __ __ __ __ __ __ __
 72
    65
 73
     2
 40
1.905
 49
1.27
 74
     4
 75
     0
340
0
 46
1.0
 50
0.0
 44
0.0
 45
0.0
 49
-0.635
 74
     4
 75
     0
340
0
 46
1.0
 50
0.0
 44
0.0
 45
0.0
  0
LTYPE
  5
238
330
5
100
AcDbSymbolTableRecord
100
AcDbLinetypeTableRecord
  2
PHANTOM
 70
     0
  3
Phantom ______  __  __  ______  __  __  ______
 72
    65
 73
     6
 40
12.7
 49
6.35
 74
     4
 75
     0
340
0
 46
1.0
 50
0.0
 44
0.0
 45
0.0
 49
-1.27
 74
     4
 75
     0
340
0
 46
1.0
 50
0.0
 44
0.0
 45
0.0
 49
1.27
 74
     4
 75
     0
340
0
 46
1.0
 50
0.0
 44
0.0
 45
0.0
 49
-1.27
 74
     4
 75
     0
340
0
 46
1.0
 50
0.0
 44
0.0
 45
0.0
 49
1.27
 74
     4
 75
     0
340
0
 46
1.0
 50
0.0
 44
0.0
 45
0.0
 49
-1.27
 74
     4
 75
     0
340
0
 46
1.0
 50
0.0
 44
0.0
 45
0.0
  0
LTYPE
  5
239
330
5
100
AcDbSymbolTableRecord
100
AcDbLinetypeTableRecord
  2
CENTER
 70
     0
  3
Center ____ _ ____ _ ____ _ ____ _ ____ _ ____
 72
    65
 73
     4
 40
10.16
 49
6.35
 74
     4
 75
     0
340
0
 46
1.0
 50
0.0
 44
0.0
 45
0.0
 49
-1.27
 74
     4
 75
     0
340
0
 46
1.0
 50
0.0
 44
0.0
 45
0.0
 49
1.27
 74
     4
 75
     0
340
0
 46
1.0
 50
0.0
 44
0.0
 45
0.0
 49
-1.27
 74
     4
 75
     0
340
0
 46
1.0
 50
0.0
 44
0.0
 45
0.0
  0
LTYPE
  5
23A
330
5
100
AcDbSymbolTableRecord
100
AcDbLinetypeTableRecord
  2
CENTERX2
 70
     0
  3
Center (2x) ________  __  ________  __  _____
 72
    65
 73
     4
 40
20.32
 49
12.7
 74
     4
 75
     0
340
0
 46
1.0
 50
0.0
 44
0.0
 45
0.0
 49
-2.54
 74
     4
 75
     0
340
0
 46
1.0
 50
0.0
 44
0.0
 45
0.0
 49
2.54
 74
     4
 75
     0
340
0
 46
1.0
 50
0.0
 44
0.0
 45
0.0
 49
-2.54
 74
     4
 75
     0
340
0
 46
1.0
 50
0.0
 44
0.0
 45
0.0
  0
LTYPE
  5
23B
330
5
100
AcDbSymbolTableRecord
100
AcDbLinetypeTableRecord
  2
DOT2
 70
     0
  3
Dot (.5x) ........................................
 72
    65
 73
     2
 40
0.635
 49
0.0
 74
     4
 75
     0
340
0
 46
1.0
 50
0.0
 44
0.0
 45
0.0
 49
-0.635
 74
     4
 75
     0
340
0
 46
1.0
 50
0.0
 44
0.0
 45
0.0
  0
ENDTAB
  0
TABLE
  2
LAYER
  5
2
330
0
100
AcDbSymbolTable
 70
     1
  0
LAYER
  5
10
330
2
100
AcDbSymbolTableRecord
100
AcDbLayerTableRecord
  2
0
 70
     0
 62
     7
  6
Continuous
370
    -3
390
F
347
0
  0
ENDTAB
  0
TABLE
  2
STYLE
  5
3
330
0
100
AcDbSymbolTable
 70
     5
  0
STYLE
  5
11
330
3
100
AcDbSymbolTableRecord
100
AcDbTextStyleTableRecord
  2
Standard
 70
     0
 40
0.0
 41
1.0
 50
0.0
 71
     0
 42
35.0
  3
txt
  4

  0
STYLE
  5
65
330
3
100
AcDbSymbolTableRecord
100
AcDbTextStyleTableRecord
  2
SLDTEXTSTYLE0
 70
     0
 40
0.0
 41
0.75
 50
0.0
 71
     0
 42
0.2
  3
TXT
  4

  0
STYLE
  5
69
330
3
100
AcDbSymbolTableRecord
100
AcDbTextStyleTableRecord
  2
SLDTEXTSTYLE1
 70
     0
 40
0.0
 41
0.6944444444
 50
0.0
 71
     0
 42
0.2
  3
TXT
  4

  0
STYLE
  5
78
330
3
100
AcDbSymbolTableRecord
100
AcDbTextStyleTableRecord
  2
SLDTEXTSTYLE2
 70
     0
 40
0.0
 41
0.605
 50
0.0
 71
     0
 42
0.2
  3
TXT
  4

  0
STYLE
  5
7E
330
3
100
AcDbSymbolTableRecord
100
AcDbTextStyleTableRecord
  2
SLDTEXTSTYLE3
 70
     0
 40
0.0
 41
0.6818181818
 50
0.0
 71
     0
 42
0.2
  3
TXT
  4

  0
ENDTAB
  0
TABLE
  2
VIEW
  5
6
330
0
100
AcDbSymbolTable
 70
     0
  0
ENDTAB
  0
TABLE
  2
UCS
  5
7
330
0
100
AcDbSymbolTable
 70
     0
  0
ENDTAB
  0
TABLE
  2
APPID
  5
9
330
0
100
AcDbSymbolTable
 70
     1
  0
APPID
  5
12
330
9
100
AcDbSymbolTableRecord
100
AcDbRegAppTableRecord
  2
ACAD
 70
     0
  0
ENDTAB
  0
TABLE
  2
DIMSTYLE
  5
A
330
0
100
AcDbSymbolTable
 70
     7
100
AcDbDimStyleTable
  0
DIMSTYLE
105
27
330
A
100
AcDbSymbolTableRecord
100
AcDbDimStyleTableRecord
  2
Standard
 70
     0
278
     0
340
11
  0
DIMSTYLE
105
23C
330
A
100
AcDbSymbolTableRecord
100
AcDbDimStyleTableRecord
  2
ISO-25
 70
     0
 41
2.5
 42
0.625
 43
3.75
 44
1.25
 73
     0
 74
     0
 77
     1
 78
     8
140
2.5
141
2.5
143
0.0393700787
147
0.625
171
     3
172
     1
271
     2
272
     2
274
     3
278
    44
283
     0
284
     8
340
11
  0
DIMSTYLE
105
122
102
{ACAD_REACTORS
330
121
330
137
102
}
330
A
100
AcDbSymbolTableRecord
100
AcDbDimStyleTableRecord
  2
SLDDIMSTYLE0
 70
     0
 41
33.02
 44
0.0
 45
0.000000001
 73
     0
 74
     0
 77
     1
 78
    12
 79
     3
140
35.0
147
8.75
173
     1
271
     0
272
     0
276
     2
284
    12
340
65
  0
DIMSTYLE
105
12D
102
{ACAD_REACTORS
330
12C
102
}
330
A
100
AcDbSymbolTableRecord
100
AcDbDimStyleTableRecord
  2
SLDDIMSTYLE1
 70
     0
 41
33.02
 44
0.0
 45
0.000000001
 73
     0
 74
     0
 77
     1
 78
    12
 79
     3
140
35.0
147
8.75
173
     1
271
     0
272
     2
276
     2
284
    12
340
65
  0
DIMSTYLE
105
142
102
{ACAD_REACTORS
330
141
102
}
330
A
100
AcDbSymbolTableRecord
100
AcDbDimStyleTableRecord
  2
SLDDIMSTYLE2
 70
     0
 41
33.02
 44
0.0
 45
0.000000001
 73
     0
 74
     0
 77
     1
 78
    12
 79
     3
140
35.0
147
8.75
172
     1
173
     1
271
     0
272
     2
276
     2
284
    12
289
     0
340
65
  0
DIMSTYLE
105
1F4
102
{ACAD_REACTORS
330
1F3
102
}
330
A
100
AcDbSymbolTableRecord
100
AcDbDimStyleTableRecord
  2
SLDDIMSTYLE3
 70
     0
 41
33.02
 44
0.0
 45
0.000000001
 78
    12
 79
     3
140
35.0
141
0.0
147
8.75
172
     1
173
     1
271
     3
272
     3
276
     2
284
    12
340
65
341
23D
343
23D
  0
DIMSTYLE
105
202
102
{ACAD_REACTORS
330
201
102
}
330
A
100
AcDbSymbolTableRecord
100
AcDbDimStyleTableRecord
  2
SLDDIMSTYLE4
 70
     0
 41
33.02
 44
0.0
 45
0.000000001
 73
     0
 74
     0
 77
     1
 78
    12
 79
     3
140
35.0
147
8.75
172
     1
173
     1
271
     3
272
     3
276
     2
284
    12
289
     0
340
65
  0
ENDTAB
  0
TABLE
  2
BLOCK_RECORD
  5
1
330
0
100
AcDbSymbolTable
 70
     8
  0
BLOCK_RECORD
  5
1F
102
{ACAD_XDICTIONARY
360
274
102
}
330
1
100
AcDbSymbolTableRecord
100
AcDbBlockTableRecord
  2
*Model_Space
340
22
 70
     0
280
     1
281
     0
  0
BLOCK_RECORD
  5
73
330
1
100
AcDbSymbolTableRecord
100
AcDbBlockTableRecord
  2
*Paper_Space
340
74
 70
     0
280
     1
281
     0
  0
BLOCK_RECORD
  5
23D
330
1
100
AcDbSymbolTableRecord
100
AcDbBlockTableRecord
  2
_NONE
340
0
 70
     0
280
     1
281
     0
  0
BLOCK_RECORD
  5
23
330
1
100
AcDbSymbolTableRecord
100
AcDbBlockTableRecord
  2
*Paper_Space1
340
26
 70
     0
280
     1
281
     0
  0
BLOCK_RECORD
  5
123
330
1
100
AcDbSymbolTableRecord
100
AcDbBlockTableRecord
  2
_D
340
0
 70
     0
280
     1
281
     0
  0
BLOCK_RECORD
  5
12E
330
1
100
AcDbSymbolTableRecord
100
AcDbBlockTableRecord
  2
_D_1
340
0
 70
     0
280
     1
281
     0
  0
BLOCK_RECORD
  5
138
330
1
100
AcDbSymbolTableRecord
100
AcDbBlockTableRecord
  2
_D_2
340
0
 70
     0
280
     1
281
     0
  0
BLOCK_RECORD
  5
143
330
1
100
AcDbSymbolTableRecord
100
AcDbBlockTableRecord
  2
_D_3
340
0
 70
     0
280
     1
281
     0
  0
BLOCK_RECORD
  5
1F8
330
1
100
AcDbSymbolTableRecord
100
AcDbBlockTableRecord
  2
_D_4
340
0
 70
     0
280
     1
281
     0
  0
BLOCK_RECORD
  5
203
330
1
100
AcDbSymbolTableRecord
100
AcDbBlockTableRecord
  2
_D_5
340
0
 70
     0
280
     1
281
     0
  0
ENDTAB
  0
ENDSEC
  0
SECTION
  2
BLOCKS
  0
BLOCK
  5
20
330
1F
100
AcDbEntity
  8
0
100
AcDbBlockBegin
  2
*Model_Space
 70
     0
 10
0.0
 20
0.0
 30
0.0
  3
*Model_Space
  1

  0
ENDBLK
  5
21
330
1F
100
AcDbEntity
  8
0
100
AcDbBlockEnd
  0
BLOCK
  5
75
330
73
100
AcDbEntity
 67
     1
  8
0
100
AcDbBlockBegin
  2
*Paper_Space
 70
     0
 10
0.0
 20
0.0
 30
0.0
  3
*Paper_Space
  1

  0
ENDBLK
  5
76
330
73
100
AcDbEntity
 67
     1
  8
0
100
AcDbBlockEnd
  0
BLOCK
  5
23E
330
23D
100
AcDbEntity
  8
0
100
AcDbBlockBegin
  2
_NONE
 70
     0
 10
0.0
 20
0.0
 30
0.0
  3
_NONE
  1

  0
ENDBLK
  5
23F
330
23D
100
AcDbEntity
  8
0
100
AcDbBlockEnd
  0
BLOCK
  5
240
330
23
100
AcDbEntity
  8
0
100
AcDbBlockBegin
  2
*Paper_Space1
 70
     0
 10
0.0
 20
0.0
 30
0.0
  3
*Paper_Space1
  1

  0
ENDBLK
  5
241
330
23
100
AcDbEntity
  8
0
100
AcDbBlockEnd
  0
BLOCK
  5
242
330
123
100
AcDbEntity
  8
0
100
AcDbBlockBegin
  2
_D
 70
     0
 10
0.0
 20
0.0
 30
0.0
  3
_D
  1

  0
SOLID
  5
126
330
123
100
AcDbEntity
  8
0
  6
Continuous
 62
     7
370
     0
100
AcDbTrace
 10
1241.0156580014
 20
2310.4803459813
 30
0.0
 11
1274.0356580014
 21
2305.4003459813
 31
0.0
 12
1274.0356580014
 22
2315.5603459813
 32
0.0
 13
1274.0356580014
 23
2315.5603459813
 33
0.0
  0
SOLID
  5
127
330
123
100
AcDbEntity
  8
0
  6
Continuous
 62
     7
370
     0
100
AcDbTrace
 10
1586.3909493757
 20
2310.4803459813
 30
0.0
 11
1553.3709493757
 21
2315.5603459813
 31
0.0
 12
1553.3709493757
 22
2305.4003459813
 32
0.0
 13
1553.3709493757
 23
2305.4003459813
 33
0.0
  0
LINE
  5
128
330
123
100
AcDbEntity
  8
0
  6
Continuous
 62
     7
370
     0
100
AcDbLine
 10
1241.0156580014
 20
2209.6803459813
 30
0.0
 11
1241.0156580014
 21
2320.4803459813
 31
0.0
  0
LINE
  5
129
330
123
100
AcDbEntity
  8
0
  6
Continuous
 62
     7
370
     0
100
AcDbLine
 10
1586.3909493757
 20
1829.0725860737
 30
0.0
 11
1586.3909493757
 21
2320.4803459813
 31
0.0
  0
LINE
  5
12A
330
123
100
AcDbEntity
  8
0
  6
Continuous
 62
     7
370
     0
100
AcDbLine
 10
1241.0156580014
 20
2310.4803459813
 30
0.0
 11
1586.3909493757
 21
2310.4803459813
 31
0.0
  0
MTEXT
  5
12B
330
123
100
AcDbEntity
  8
0
  6
Continuous
 62
     7
370
     0
100
AcDbMText
 10
1385.515914973
 20
2355.5977151271
 30
0.1
 40
35.0
 41
0.0
 46
0.0
 71
     1
 72
     1
  1
345
  7
SLDTEXTSTYLE0
 73
     1
 44
1.0
  0
ENDBLK
  5
243
330
123
100
AcDbEntity
  8
0
100
AcDbBlockEnd
  0
BLOCK
  5
244
330
12E
100
AcDbEntity
  8
0
100
AcDbBlockBegin
  2
_D_1
 70
     0
 10
0.0
 20
0.0
 30
0.0
  3
_D_1
  1

  0
SOLID
  5
131
330
12E
100
AcDbEntity
  8
0
  6
Continuous
 62
     7
370
     0
100
AcDbTrace
 10
1686.3909493757
 20
1965.0781397299
 30
0.0
 11
1681.3109493757
 21
1932.0581397299
 31
0.0
 12
1691.4709493757
 22
1932.0581397299
 32
0.0
 13
1691.4709493757
 23
1932.0581397299
 33
0.0
  0
SOLID
  5
132
330
12E
100
AcDbEntity
  8
0
  6
Continuous
 62
     7
370
     0
100
AcDbTrace
 10
1686.3909493757
 20
1405.1294900843
 30
0.0
 11
1691.4709493757
 21
1438.1494900843
 31
0.0
 12
1681.3109493757
 22
1438.1494900843
 32
0.0
 13
1681.3109493757
 23
1438.1494900843
 33
0.0
  0
LINE
  5
133
330
12E
100
AcDbEntity
  8
0
  6
Continuous
 62
     7
370
     0
100
AcDbLine
 10
1518.3909493757
 20
1965.07813973
 30
0.0
 11
1696.3909493757
 21
1965.0781397299
 31
0.0
  0
LINE
  5
134
330
12E
100
AcDbEntity
  8
0
  6
Continuous
 62
     7
370
     0
100
AcDbLine
 10
1518.3909493757
 20
1405.1294900843
 30
0.0
 11
1696.3909493757
 21
1405.1294900843
 31
0.0
  0
LINE
  5
135
330
12E
100
AcDbEntity
  8
0
  6
Continuous
 62
     7
370
     0
100
AcDbLine
 10
1686.3909493757
 20
1965.0781397299
 30
0.0
 11
1686.3909493757
 21
1405.1294900843
 31
0.0
  0
MTEXT
  5
136
330
12E
100
AcDbEntity
  8
0
  6
Continuous
 62
     7
370
     0
100
AcDbMText
 10
1641.2735802299
 20
1611.9655897345
 30
0.1
 40
35.0
 41
0.0
 46
0.0
 71
     1
 72
     1
  1
560
  7
SLDTEXTSTYLE0
 11
-3.491481338843133E-15
 21
1.0
 31
0.0
 73
     1
 44
1.0
  0
ENDBLK
  5
245
330
12E
100
AcDbEntity
  8
0
100
AcDbBlockEnd
  0
BLOCK
  5
246
330
138
100
AcDbEntity
  8
0
100
AcDbBlockBegin
  2
_D_2
 70
     0
 10
0.0
 20
0.0
 30
0.0
  3
_D_2
  1

  0
SOLID
  5
13B
330
138
100
AcDbEntity
  8
0
  6
Continuous
 62
     7
370
     0
100
AcDbTrace
 10
1686.3909493757
 20
2210.4803459813
 30
0.0
 11
1681.3109493757
 21
2177.4603459813
 31
0.0
 12
1691.4709493757
 22
2177.4603459813
 32
0.0
 13
1691.4709493757
 23
2177.4603459813
 33
0.0
  0
SOLID
  5
13C
330
138
100
AcDbEntity
  8
0
  6
Continuous
 62
     7
370
     0
100
AcDbTrace
 10
1686.3909493757
 20
1965.0781397299
 30
0.0
 11
1691.4709493757
 21
1998.0981397299
 31
0.0
 12
1681.3109493757
 22
1998.0981397299
 32
0.0
 13
1681.3109493757
 23
1998.0981397299
 33
0.0
  0
LINE
  5
13D
330
138
100
AcDbEntity
  8
0
  6
Continuous
 62
     7
370
     0
100
AcDbLine
 10
1293.0156580014
 20
2210.4803459813
 30
0.0
 11
1696.3909493757
 21
2210.4803459813
 31
0.0
  0
LINE
  5
13E
330
138
100
AcDbEntity
  8
0
  6
Continuous
 62
     7
370
     0
100
AcDbLine
 10
1518.3909493757
 20
1965.07813973
 30
0.0
 11
1696.3909493757
 21
1965.0781397299
 31
0.0
  0
LINE
  5
13F
330
138
100
AcDbEntity
  8
0
  6
Continuous
 62
     7
370
     0
100
AcDbLine
 10
1686.3909493757
 20
2210.4803459813
 30
0.0
 11
1686.3909493757
 21
1965.0781397299
 31
0.0
  0
MTEXT
  5
140
330
138
100
AcDbEntity
  8
0
  6
Continuous
 62
     7
370
     0
100
AcDbMText
 10
1641.2735802299
 20
2052.3197880292
 30
0.1
 40
35.0
 41
0.0
 46
0.0
 71
     1
 72
     1
  1
245
  7
SLDTEXTSTYLE0
 11
-3.491481338843133E-15
 21
1.0
 31
0.0
 73
     1
 44
1.0
  0
ENDBLK
  5
247
330
138
100
AcDbEntity
  8
0
100
AcDbBlockEnd
  0
BLOCK
  5
248
330
143
100
AcDbEntity
  8
0
100
AcDbBlockBegin
  2
_D_3
 70
     0
 10
0.0
 20
0.0
 30
0.0
  3
_D_3
  1

  0
SOLID
  5
146
330
143
100
AcDbEntity
  8
0
  6
Continuous
 62
     7
370
     0
100
AcDbTrace
 10
1141.0156080014
 20
2199.6803459813
 30
0.0
 11
1146.0956080014
 21
2232.7003459813
 31
0.0
 12
1135.9356080014
 22
2232.7003459813
 32
0.0
 13
1135.9356080014
 23
2232.7003459813
 33
0.0
  0
SOLID
  5
147
330
143
100
AcDbEntity
  8
0
  6
Continuous
 62
     7
370
     0
100
AcDbTrace
 10
1141.0156080014
 20
2031.2803459813
 30
0.0
 11
1135.9356080014
 21
1998.2603459813
 31
0.0
 12
1146.0956080014
 22
1998.2603459813
 32
0.0
 13
1146.0956080014
 23
1998.2603459813
 33
0.0
  0
LINE
  5
148
330
143
100
AcDbEntity
  8
0
  6
Continuous
 62
     7
370
     0
100
AcDbLine
 10
1231.0156580014
 20
2199.6803459813
 30
0.0
 11
1131.0156080014
 21
2199.6803459813
 31
0.0
  0
LINE
  5
149
330
143
100
AcDbEntity
  8
0
  6
Continuous
 62
     7
370
     0
100
AcDbLine
 10
1231.0156580014
 20
2031.2803459813
 30
0.0
 11
1131.0156080014
 21
2031.2803459813
 31
0.0
  0
LINE
  5
14A
330
143
100
AcDbEntity
  8
0
  6
Continuous
 62
     7
370
     0
100
AcDbLine
 10
1141.0156080014
 20
2199.6803459813
 30
0.0
 11
1141.0156080014
 21
2263.1803459813
 31
0.0
  0
LINE
  5
14B
330
143
100
AcDbEntity
  8
0
  6
Continuous
 62
     7
370
     0
100
AcDbLine
 10
1141.0156080014
 20
2199.6803459813
 30
0.0
 11
1141.0156080014
 21
2031.2803459813
 31
0.0
  0
LINE
  5
14C
330
143
100
AcDbEntity
  8
0
  6
Continuous
 62
     7
370
     0
100
AcDbLine
 10
1141.0156080014
 20
2031.2803459813
 30
0.0
 11
1141.0156080014
 21
1967.7803459813
 31
0.0
  0
MTEXT
  5
14D
330
143
100
AcDbEntity
  8
0
  6
Continuous
 62
     7
370
     0
100
AcDbMText
 10
1095.8982371094
 20
2014.9858748148
 30
0.1
 40
35.0
 41
0.0
 46
0.0
 71
     1
 72
     1
  1
%%c
  7
SLDTEXTSTYLE0
 11
-3.491481338843133E-15
 21
1.0
 31
0.0
 73
     1
 44
1.0
  0
MTEXT
  5
14E
330
143
100
AcDbEntity
  8
0
  6
Continuous
 62
     7
370
     0
100
AcDbMText
 10
1095.3635153428
 20
2067.7702487985
 30
0.1
 40
35.0
 41
0.0
 46
0.0
 71
     1
 72
     1
  1
168
  7
SLDTEXTSTYLE0
 11
-3.491481338843133E-15
 21
1.0
 31
0.0
 73
     1
 44
1.0
  0
ENDBLK
  5
249
330
143
100
AcDbEntity
  8
0
100
AcDbBlockEnd
  0
BLOCK
  5
24A
330
1F8
100
AcDbEntity
  8
0
100
AcDbBlockBegin
  2
_D_4
 70
     0
 10
0.0
 20
0.0
 30
0.0
  3
_D_4
  1

  0
SOLID
  5
1FB
330
1F8
100
AcDbEntity
  8
0
  6
Continuous
 62
     7
370
     0
100
AcDbTrace
 10
736.038225223
 20
2199.8116679807
 30
0.0
 11
725.3444675129
 21
2231.4624238332
 31
0.0
 12
716.3254545496
 22
2226.7844963896
 32
0.0
 13
716.3254545496
 23
2226.7844963896
 33
0.0
  0
LINE
  5
1FC
330
1F8
100
AcDbEntity
  8
0
  6
Continuous
 62
     7
370
     0
100
AcDbLine
 10
736.038225223
 20
2199.8116679807
 30
0.0
 11
707.3331307642
 21
2255.1548989643
 31
0.0
  0
LINE
  5
1FD
330
1F8
100
AcDbEntity
  8
0
  6
Continuous
 62
     7
370
     0
100
AcDbLine
 10
823.5191518262
 20
2031.1490239819
 30
0.0
 11
736.038225223
 21
2199.8116679807
 31
0.0
  0
LINE
  5
1FE
330
1F8
100
AcDbEntity
  8
0
  6
Continuous
 62
     7
370
     0
100
AcDbLine
 10
707.3331307642
 20
2255.1548989643
 30
0.0
 11
532.6529168956
 21
2255.1548989643
 31
0.0
  0
MTEXT
  5
1FF
330
1F8
100
AcDbEntity
  8
0
  6
Continuous
 62
     7
370
     0
100
AcDbMText
 10
532.6529168956
 20
2300.2722698563
 30
-172.5876206872
 40
35.0
 41
0.0
 46
0.0
 71
     1
 72
     1
  1
%%c
  7
SLDTEXTSTYLE0
 73
     1
 44
1.0
  0
MTEXT
  5
200
330
1F8
100
AcDbEntity
  8
0
  6
Continuous
 62
     7
370
     0
100
AcDbMText
 10
585.4372908793
 20
2300.8069916229
 30
-172.5876206872
 40
35.0
 41
0.0
 46
0.0
 71
     1
 72
     1
  1
190
  7
SLDTEXTSTYLE0
 73
     1
 44
1.0
  0
ENDBLK
  5
24B
330
1F8
100
AcDbEntity
  8
0
100
AcDbBlockEnd
  0
BLOCK
  5
24C
330
203
100
AcDbEntity
  8
0
100
AcDbBlockBegin
  2
_D_5
 70
     0
 10
0.0
 20
0.0
 30
0.0
  3
_D_5
  1

  0
SOLID
  5
206
330
203
100
AcDbEntity
  8
0
  6
Continuous
 62
     7
370
     0
100
AcDbTrace
 10
914.7786885245
 20
1305.1294900843
 30
0.0
 11
947.7986885245
 21
1300.0494900843
 31
0.0
 12
947.7986885245
 22
1310.2094900843
 32
0.0
 13
947.7986885245
 23
1310.2094900843
 33
0.0
  0
SOLID
  5
207
330
203
100
AcDbEntity
  8
0
  6
Continuous
 62
     7
370
     0
100
AcDbTrace
 10
644.7786885246
 20
1305.1294900843
 30
0.0
 11
611.7586885246
 21
1310.2094900843
 31
0.0
 12
611.7586885246
 22
1300.0494900843
 32
0.0
 13
611.7586885246
 23
1300.0494900843
 33
0.0
  0
LINE
  5
208
330
203
100
AcDbEntity
  8
0
  6
Continuous
 62
     7
370
     0
100
AcDbLine
 10
914.7786885245
 20
1540.271330789
 30
0.0
 11
914.7786885245
 21
1295.1294900843
 31
0.0
  0
LINE
  5
209
330
203
100
AcDbEntity
  8
0
  6
Continuous
 62
     7
370
     0
100
AcDbLine
 10
644.7786885246
 20
1540.271330789
 30
0.0
 11
644.7786885246
 21
1295.1294900843
 31
0.0
  0
LINE
  5
20A
330
203
100
AcDbEntity
  8
0
  6
Continuous
 62
     7
370
     0
100
AcDbLine
 10
914.7786885245
 20
1305.1294900843
 30
0.0
 11
978.2786885245
 21
1305.1294900843
 31
0.0
  0
LINE
  5
20B
330
203
100
AcDbEntity
  8
0
  6
Continuous
 62
     7
370
     0
100
AcDbLine
 10
914.7786885245
 20
1305.1294900843
 30
0.0
 11
644.7786885246
 21
1305.1294900843
 31
0.0
  0
LINE
  5
20C
330
203
100
AcDbEntity
  8
0
  6
Continuous
 62
     7
370
     0
100
AcDbLine
 10
644.7786885246
 20
1305.1294900843
 30
0.0
 11
581.2786885246
 21
1305.1294900843
 31
0.0
  0
MTEXT
  5
20D
330
203
100
AcDbEntity
  8
0
  6
Continuous
 62
     7
370
     0
100
AcDbMText
 10
673.5389135477
 20
1350.2468609763
 30
-172.5876206872
 40
35.0
 41
0.0
 46
0.0
 71
     1
 72
     1
  1
%%c
  7
SLDTEXTSTYLE0
 73
     1
 44
1.0
  0
MTEXT
  5
20E
330
203
100
AcDbEntity
  8
0
  6
Continuous
 62
     7
370
     0
100
AcDbMText
 10
726.3232875314
 20
1350.7815827429
 30
-172.5876206872
 40
35.0
 41
0.0
 46
0.0
 71
     1
 72
     1
  1
270
  7
SLDTEXTSTYLE0
 73
     1
 44
1.0
  0
ENDBLK
  5
24D
330
203
100
AcDbEntity
  8
0
100
AcDbBlockEnd
  0
ENDSEC
  0
SECTION
  2
ENTITIES
  0
LINE
  5
81
330
1F
100
AcDbEntity
  8
0
  6
Continuous
 62
     7
370
    15
100
AcDbLine
 10
1283.0156574351
 20
2092.4803459366
 30
0.0
 11
1285.015657763
 21
2092.4803459366
 31
0.0
  0
LINE
  5
82
330
1F
100
AcDbEntity
  8
0
  6
Continuous
 62
     7
370
    15
100
AcDbLine
 10
1285.015657763
 20
2138.480346026
 30
0.0
 11
1283.0156574351
 21
2138.480346026
 31
0.0
  0
LINE
  5
83
330
1F
100
AcDbEntity
  8
0
  6
Continuous
 62
     7
370
    15
100
AcDbLine
 10
1459.938764791
 20
2105.4803462048
 30
0.0
 11
1508.0156477494
 21
2105.4803462048
 31
0.0
  0
LINE
  5
84
330
1F
100
AcDbEntity
  8
0
  6
Continuous
 62
     7
370
    15
100
AcDbLine
 10
1285.015657763
 20
2105.4803462048
 30
0.0
 11
1446.0156562132
 21
2105.4803462048
 31
0.0
  0
LINE
  5
85
330
1F
100
AcDbEntity
  8
0
  6
Continuous
 62
     7
370
    15
100
AcDbLine
 10
1448.515653829
 20
2125.4803457578
 30
0.0
 11
1285.015657763
 21
2125.4803457578
 31
0.0
  0
LINE
  5
86
330
1F
100
AcDbEntity
  8
0
  6
Continuous
 62
     7
370
    15
100
AcDbLine
 10
1508.0156477494
 20
2125.4803457578
 30
0.0
 11
1457.5156571669
 21
2125.4803457578
 31
0.0
  0
LINE
  5
87
330
1F
100
AcDbEntity
  8
0
  6
Continuous
 62
     7
370
    15
100
AcDbLine
 10
1460.0156547827
 20
2102.4803457131
 30
0.0
 11
1460.0156547827
 21
2105.5340183248
 31
0.0
  0
LINE
  5
88
330
1F
100
AcDbEntity
  8
0
  6
Continuous
 62
     7
370
    15
100
AcDbLine
 10
1446.0156562132
 20
2105.4803462048
 30
0.0
 11
1446.0156562132
 21
2102.4803457131
 31
0.0
  0
LINE
  5
89
330
1F
100
AcDbEntity
  8
0
  6
Continuous
 62
     7
370
    15
100
AcDbLine
 10
1504.390940289
 20
1408.129495876
 30
0.0
 11
1504.390940289
 21
1409.6295063664
 31
0.0
  0
LINE
  5
8A
330
1F
100
AcDbEntity
  8
0
  6
Continuous
 62
     7
370
    15
100
AcDbLine
 10
1398.3909489912
 20
1409.6295063664
 30
0.0
 11
1398.3909489912
 21
1408.129495876
 31
0.0
  0
LINE
  5
8B
330
1F
100
AcDbEntity
  8
0
  6
Continuous
 62
     7
370
    15
100
AcDbLine
 10
1504.390940289
 20
1960.5781411101
 30
0.0
 11
1504.390940289
 21
1962.0781366994
 31
0.0
  0
LINE
  5
8C
330
1F
100
AcDbEntity
  8
0
  6
Continuous
 62
     7
370
    15
100
AcDbLine
 10
1398.3909489912
 20
1962.0781366994
 30
0.0
 11
1398.3909489912
 21
1960.5781411101
 31
0.0
  0
ARC
  5
8D
330
1F
100
AcDbEntity
  8
0
  6
Continuous
 62
     7
370
    15
100
AcDbCircle
 10
1450.2656580014
 20
2131.7303459813
 30
0.0
 40
1.000000000000172
100
AcDbArc
 50
90.0
 51
168.0
  0
LINE
  5
8E
330
1F
100
AcDbEntity
  8
0
  6
Continuous
 62
     7
370
    15
100
AcDbLine
 10
1450.5467715067
 20
2132.7303455492
 30
0.0
 11
1450.2656611008
 21
2132.7303455492
 31
0.0
  0
LINE
  5
8F
330
1F
100
AcDbEntity
  8
0
  6
Continuous
 62
     7
370
    15
100
AcDbLine
 10
1455.7656647963
 20
2132.7303455492
 30
0.0
 11
1455.5156531138
 21
2132.7303455492
 31
0.0
  0
ARC
  5
90
330
1F
100
AcDbEntity
  8
0
  6
Continuous
 62
     7
370
    15
100
AcDbCircle
 10
1455.7656580014
 20
2131.7303459813
 30
0.0
 40
1.0
100
AcDbArc
 50
12.0
 51
90.0
  0
LINE
  5
91
330
1F
100
AcDbEntity
  8
0
  6
Continuous
 62
     7
370
    15
100
AcDbLine
 10
1457.5156571669
 20
2128.3069777583
 30
0.0
 11
1456.7438068194
 21
2131.9382575621
 31
0.0
  0
LINE
  5
24E
330
1F
100
AcDbEntity
  8
0
  6
Continuous
 62
     7
370
    15
100
AcDbLine
 10
1449.2875041766
 20
2131.9382575621
 30
0.0
 11
1448.515653829
 21
2128.3069777583
 31
0.0
  0
LINE
  5
24F
330
1F
100
AcDbEntity
  8
0
  6
Continuous
 62
     7
370
    15
100
AcDbLine
 10
1442.5156565709
 20
1966.4803420474
 30
0.0
 11
1442.5156565709
 21
1965.0781427791
 31
0.0
  0
LINE
  5
94
330
1F
100
AcDbEntity
  8
0
  6
Continuous
 62
     7
370
    15
100
AcDbLine
 10
1463.5156544251
 20
1965.0781427791
 30
0.0
 11
1463.5156544251
 21
1966.4803420474
 31
0.0
  0
ARC
  5
95
330
1F
100
AcDbEntity
  8
0
  6
Continuous
 62
     7
370
    15
100
AcDbCircle
 10
1442.5156580014
 20
1968.4803459813
 30
0.0
 40
2.0
100
AcDbArc
 50
270.0
 51
0.0
  0
ARC
  5
96
330
1F
100
AcDbEntity
  8
0
  6
Continuous
 62
     7
370
    15
100
AcDbCircle
 10
1463.5156580014
 20
1968.4803459813
 30
0.0
 40
2.0
100
AcDbArc
 50
180.0
 51
270.0
  0
LINE
  5
250
330
1F
100
AcDbEntity
  8
0
  6
Continuous
 62
     7
370
    15
100
AcDbLine
 10
1444.515660624
 20
1992.9803435971
 30
0.0
 11
1444.515660624
 21
1968.4803461005
 31
0.0
  0
LINE
  5
251
330
1F
100
AcDbEntity
  8
0
  6
Continuous
 62
     7
370
    15
100
AcDbLine
 10
1461.5156652731
 20
1968.4803461005
 30
0.0
 11
1461.5156652731
 21
1992.9803435971
 31
0.0
  0
ARC
  5
252
330
1F
100
AcDbEntity
  8
0
  6
Continuous
 62
     7
370
    15
100
AcDbCircle
 10
1445.0156580014
 20
1992.9803459813
 30
0.0
 40
0.5
100
AcDbArc
 50
90.0
 51
180.0
  0
ARC
  5
253
330
1F
100
AcDbEntity
  8
0
  6
Continuous
 62
     7
370
    15
100
AcDbCircle
 10
1461.0156580014
 20
1992.9803459813
 30
0.0
 40
0.5000000000002274
100
AcDbArc
 50
0.0
 51
90.0
  0
LINE
  5
254
330
1F
100
AcDbEntity
  8
0
  6
Continuous
 62
     7
370
    15
100
AcDbLine
 10
1509.3909355206
 20
1406.1294620206
 30
0.0
 11
1509.3909355206
 21
1408.129495876
 31
0.0
  0
LINE
  5
255
330
1F
100
AcDbEntity
  8
0
  6
Continuous
 62
     7
370
    15
100
AcDbLine
 10
1393.3909537596
 20
1408.129495876
 30
0.0
 11
1393.3909537596
 21
1406.1294620206
 31
0.0
  0
LINE
  5
256
330
1F
100
AcDbEntity
  8
0
  6
Continuous
 62
     7
370
    15
100
AcDbLine
 10
1393.3909537596
 20
1406.1294620206
 30
0.0
 11
1394.3909557862
 21
1405.1294748952
 31
0.0
  0
LINE
  5
257
330
1F
100
AcDbEntity
  8
0
  6
Continuous
 62
     7
370
    15
100
AcDbLine
 10
1508.3909483952
 20
1405.1294748952
 30
0.0
 11
1509.3909355206
 21
1406.1294620206
 31
0.0
  0
LINE
  5
258
330
1F
100
AcDbEntity
  8
0
  6
Continuous
 62
     7
370
    15
100
AcDbLine
 10
1406.8909438652
 20
1409.6719448735
 30
0.0
 11
1406.8909438652
 21
1409.6295063664
 31
0.0
  0
LINE
  5
259
330
1F
100
AcDbEntity
  8
0
  6
Continuous
 62
     7
370
    15
100
AcDbLine
 10
1495.8909603161
 20
1409.6295063664
 30
0.0
 11
1495.8909603161
 21
1409.6719448735
 31
0.0
  0
LINE
  5
25A
330
1F
100
AcDbEntity
  8
0
  6
Continuous
 62
     7
370
    15
100
AcDbLine
 10
1509.3909355206
 20
1962.0781366994
 30
0.0
 11
1509.3909355206
 21
1964.0781407525
 31
0.0
  0
LINE
  5
25B
330
1F
100
AcDbEntity
  8
0
  6
Continuous
 62
     7
370
    15
100
AcDbLine
 10
1393.3909537596
 20
1964.0781407525
 30
0.0
 11
1393.3909537596
 21
1962.0781366994
 31
0.0
  0
LINE
  5
25C
330
1F
100
AcDbEntity
  8
0
  6
Continuous
 62
     7
370
    15
100
AcDbLine
 10
1509.3909355206
 20
1964.0781407525
 30
0.0
 11
1508.3909483952
 21
1965.0781427791
 31
0.0
  0
LINE
  5
25D
330
1F
100
AcDbEntity
  8
0
  6
Continuous
 62
     7
370
    15
100
AcDbLine
 10
1394.3909557862
 20
1965.0781427791
 30
0.0
 11
1393.3909537596
 21
1964.0781407525
 31
0.0
  0
LINE
  5
25E
330
1F
100
AcDbEntity
  8
0
  6
Continuous
 62
     7
370
    15
100
AcDbLine
 10
1496.3909538788
 20
1959.6719567944
 30
0.0
 11
1496.3909538788
 21
1960.5781411101
 31
0.0
  0
LINE
  5
25F
330
1F
100
AcDbEntity
  8
0
  6
Continuous
 62
     7
370
    15
100
AcDbLine
 10
1406.3909503026
 20
1960.5781411101
 30
0.0
 11
1406.3909503026
 21
1959.6719567944
 31
0.0
  0
ARC
  5
260
330
1F
100
AcDbEntity
  8
0
  6
Continuous
 62
     7
370
    15
100
AcDbCircle
 10
1447.3909493757
 20
1550.271330789
 30
0.0
 40
139.0000000000003
100
AcDbArc
 50
339.6642731901
 51
0.0
  0
ARC
  5
261
330
1F
100
AcDbEntity
  8
0
  6
Continuous
 62
     7
370
    15
100
AcDbCircle
 10
1455.3909493758
 20
1550.271330789
 30
0.0
 40
138.9999999999999
100
AcDbArc
 50
180.0
 51
200.3357268099
  0
LINE
  5
262
330
1F
100
AcDbEntity
  8
0
  6
Continuous
 62
     7
370
    15
100
AcDbLine
 10
1316.3909467263
 20
1819.0725867917
 30
0.0
 11
1316.3909467263
 21
1550.2713148763
 31
0.0
  0
LINE
  5
263
330
1F
100
AcDbEntity
  8
0
  6
Continuous
 62
     7
370
    15
100
AcDbLine
 10
1586.3909574551
 20
1550.2713148763
 30
0.0
 11
1586.3909574551
 21
1819.0725867917
 31
0.0
  0
ARC
  5
264
330
1F
100
AcDbEntity
  8
0
  6
Continuous
 62
     7
370
    15
100
AcDbCircle
 10
1447.3909493757
 20
1819.0725860737
 30
0.0
 40
139.0000000000002
100
AcDbArc
 50
0.0
 51
20.3357268099
  0
ARC
  5
265
330
1F
100
AcDbEntity
  8
0
  6
Continuous
 62
     7
370
    15
100
AcDbCircle
 10
1455.3909493758
 20
1819.0725860737
 30
0.0
 40
138.9999999999998
100
AcDbArc
 50
159.6642731901
 51
180.0
  0
ARC
  5
266
330
1F
100
AcDbEntity
  8
0
  6
Continuous
 62
     7
370
    15
100
AcDbCircle
 10
1426.7919405534
 20
1829.6719584313
 30
0.0
 40
108.4999999999999
100
AcDbArc
 50
111.2083774985
 51
159.6642731901
  0
ARC
  5
267
330
1F
100
AcDbEntity
  8
0
  6
Continuous
 62
     7
370
    15
100
AcDbCircle
 10
1475.9899581981
 20
1829.6719584313
 30
0.0
 40
108.5000000000003
100
AcDbArc
 50
20.3357268099
 51
68.7916225015
  0
ARC
  5
268
330
1F
100
AcDbEntity
  8
0
  6
Continuous
 62
     7
370
    15
100
AcDbCircle
 10
1426.7919405534
 20
1539.6719584313
 30
0.0
 40
108.5000000000002
100
AcDbArc
 50
200.3357268099
 51
248.7916225015
  0
ARC
  5
269
330
1F
100
AcDbEntity
  8
0
  6
Continuous
 62
     7
370
    15
100
AcDbCircle
 10
1475.9899581981
 20
1539.6719584313
 30
0.0
 40
108.5000000000004
100
AcDbArc
 50
291.2083774985
 51
339.6642731901
  0
ARC
  5
26A
330
1F
100
AcDbEntity
  8
0
  6
Continuous
 62
     7
370
    15
100
AcDbCircle
 10
1381.3909493757
 20
1422.671958431
 30
0.0
 40
16.99999999998954
100
AcDbArc
 50
0.0
 51
68.7916225015
  0
ARC
  5
26B
330
1F
100
AcDbEntity
  8
0
  6
Continuous
 62
     7
370
    15
100
AcDbCircle
 10
1521.3909493757
 20
1422.671958431
 30
0.0
 40
16.99999999998921
100
AcDbArc
 50
111.2083774985
 51
180.0
  0
ARC
  5
26C
330
1F
100
AcDbEntity
  8
0
  6
Continuous
 62
     7
370
    15
100
AcDbCircle
 10
1381.3909493757
 20
1946.6719584317
 30
0.0
 40
16.99999999998954
100
AcDbArc
 50
291.2083774985
 51
0.0
  0
ARC
  5
26D
330
1F
100
AcDbEntity
  8
0
  6
Continuous
 62
     7
370
    15
100
AcDbCircle
 10
1521.3909493757
 20
1946.6719584317
 30
0.0
 40
16.99999999998943
100
AcDbArc
 50
180.0
 51
248.7916225015
  0
LINE
  5
26E
330
1F
100
AcDbEntity
  8
0
  6
Continuous
 62
     7
370
    15
100
AcDbLine
 10
1398.3909489912
 20
1422.6719563176
 30
0.0
 11
1398.3909489912
 21
1410.1719682385
 31
0.0
  0
LINE
  5
26F
330
1F
100
AcDbEntity
  8
0
  6
Continuous
 62
     7
370
    15
100
AcDbLine
 10
1504.390940289
 20
1410.1719682385
 30
0.0
 11
1504.390940289
 21
1422.6719563176
 31
0.0
  0
LINE
  5
270
330
1F
100
AcDbEntity
  8
0
  6
Continuous
 62
     7
370
    15
100
AcDbLine
 10
1398.3909489912
 20
1410.1719682385
 30
0.0
 11
1398.8909425539
 21
1409.6719448735
 31
0.0
  0
LINE
  5
271
330
1F
100
AcDbEntity
  8
0
  6
Continuous
 62
     7
370
    15
100
AcDbLine
 10
1503.8909467263
 20
1409.6719448735
 30
0.0
 11
1504.390940289
 21
1410.1719682385
 31
0.0
  0
LINE
  5
272
330
1F
100
AcDbEntity
  8
0
  6
Continuous
 62
     7
370
    15
100
AcDbLine
 10
1504.390940289
 20
1959.1719632317
 30
0.0
 11
1503.8909467263
 21
1959.6719567944
 31
0.0
  0
LINE
  5
273
330
1F
100
AcDbEntity
  8
0
  6
Continuous
 62
     7
370
    15
100
AcDbLine
 10
1398.8909425539
 20
1959.6719567944
 30
0.0
 11
1398.3909489912
 21
1959.1719632317
 31
0.0
  0
LINE
  5
BB
330
1F
100
AcDbEntity
  8
0
  6
Continuous
 62
     7
370
    15
100
AcDbLine
 10
1398.3909489912
 20
1959.1719632317
 30
0.0
 11
1398.3909489912
 21
1946.6719602515
 31
0.0
  0
LINE
  5
BC
330
1F
100
AcDbEntity
  8
0
  6
Continuous
 62
     7
370
    15
100
AcDbLine
 10
1504.390940289
 20
1946.6719602515
 30
0.0
 11
1504.390940289
 21
1959.1719632317
 31
0.0
  0
LINE
  5
BD
330
1F
100
AcDbEntity
  8
0
  6
Continuous
 62
     7
370
    15
100
AcDbLine
 10
1508.0156477494
 20
2100.4803463166
 30
0.0
 11
1510.0156518025
 21
2100.4803463166
 31
0.0
  0
LINE
  5
BE
330
1F
100
AcDbEntity
  8
0
  6
Continuous
 62
     7
370
    15
100
AcDbLine
 10
1510.0156518025
 20
2130.480345646
 30
0.0
 11
1508.0156477494
 21
2130.480345646
 31
0.0
  0
LINE
  5
BF
330
1F
100
AcDbEntity
  8
0
  6
Continuous
 62
     7
370
    15
100
AcDbLine
 10
1283.0156574351
 20
2210.4803447892
 30
0.0
 11
1281.0156571073
 21
2210.4803447892
 31
0.0
  0
LINE
  5
C0
330
1F
100
AcDbEntity
  8
0
  6
Continuous
 62
     7
370
    15
100
AcDbLine
 10
1281.0156571073
 20
2020.4803471734
 30
0.0
 11
1283.0156574351
 21
2020.4803471734
 31
0.0
  0
LINE
  5
C1
330
1F
100
AcDbEntity
  8
0
  6
Continuous
 62
     7
370
    15
100
AcDbLine
 10
1249.6678477479
 20
2199.6803482344
 30
0.0
 11
1241.0156580014
 21
2199.6803482344
 31
0.0
  0
LINE
  5
C2
330
1F
100
AcDbEntity
  8
0
  6
Continuous
 62
     7
370
    15
100
AcDbLine
 10
1278.0156584782
 20
2199.6803482344
 30
0.0
 11
1262.3771468503
 21
2199.6803482344
 31
0.0
  0
LINE
  5
C3
330
1F
100
AcDbEntity
  8
0
  6
Continuous
 62
     7
370
    15
100
AcDbLine
 10
1262.3383684409
 20
2031.2803437282
 30
0.0
 11
1278.0156584782
 21
2031.2803437282
 31
0.0
  0
LINE
  5
C4
330
1F
100
AcDbEntity
  8
0
  6
Continuous
 62
     7
370
    15
100
AcDbLine
 10
1241.0156580014
 20
2031.2803437282
 30
0.0
 11
1249.6923555014
 21
2031.2803437282
 31
0.0
  0
ARC
  5
C5
330
1F
100
AcDbEntity
  8
0
  6
Continuous
 62
     7
370
    15
100
AcDbCircle
 10
1278.0156580014
 20
2196.6803459813
 30
0.0
 40
3.0
100
AcDbArc
 50
0.0
 51
90.0
  0
ARC
  5
C6
330
1F
100
AcDbEntity
  8
0
  6
Continuous
 62
     7
370
    15
100
AcDbCircle
 10
1278.0156580014
 20
2034.2803459813
 30
0.0
 40
3.0
100
AcDbArc
 50
270.0
 51
0.0
  0
LINE
  5
C7
330
1F
100
AcDbEntity
  8
0
  6
Continuous
 62
     7
370
    15
100
AcDbLine
 10
1285.015657763
 20
2115.4803459813
 30
0.0
 11
1285.015657763
 21
2138.480346026
 31
0.0
  0
LINE
  5
C8
330
1F
100
AcDbEntity
  8
0
  6
Continuous
 62
     7
370
    15
100
AcDbLine
 10
1285.015657763
 20
2092.4803459366
 30
0.0
 11
1285.015657763
 21
2115.4803459813
 31
0.0
  0
SPLINE
  5
C9
330
1F
100
AcDbEntity
  8
0
  6
Continuous
 62
     7
370
    15
100
AcDbSpline
210
0.0
220
0.0
230
1.0
 70
     8
 71
     3
 72
    11
 73
     7
 74
     0
 42
0.00000001
 43
0.00000001
 40
0.0
 40
0.0
 40
0.0
 40
0.0
 40
0.1674958163668556
 40
0.4778730708564905
 40
0.8104998058225348
 40
1.0
 40
1.0
 40
1.0
 40
1.0
 10
1459.938764790962
 20
2105.534019256116
 30
0.0
 10
1459.953755997897
 20
2105.523852855931
 30
0.0
 10
1459.996526583153
 20
2105.494847660569
 30
0.0
 10
1459.426781933937
 20
2105.881578468213
 30
0.0
 10
1458.608894139785
 20
2106.444880210793
 30
0.0
 10
1457.8067767882
 20
2106.858048239505
 30
0.0
 10
1457.515657166908
 20
2107.008003005863
 30
0.0
  0
SPLINE
  5
CA
330
1F
100
AcDbEntity
  8
0
  6
Continuous
 62
     7
370
    15
100
AcDbSpline
210
0.0
220
0.0
230
1.0
 70
     8
 71
     3
 72
    10
 73
     6
 74
     0
 42
0.00000001
 43
0.00000001
 40
0.0
 40
0.0
 40
0.0
 40
0.0
 40
0.1927016210275808
 40
0.6294979558179038
 40
1.0
 40
1.0
 40
1.0
 40
1.0
 10
1448.515653829048
 20
2107.011839123548
 30
0.0
 10
1448.225136068122
 20
2106.860495689249
 30
0.0
 10
1447.27610234616
 20
2106.366102429817
 30
0.0
 10
1446.273445201508
 20
2105.653970459874
 30
0.0
 10
1446.096749194053
 20
2105.534963387962
 30
0.0
 10
1446.015656213234
 20
2105.480346204818
 30
0.0
  0
LINE
  5
CB
330
1F
100
AcDbEntity
  8
0
  6
Continuous
 62
     7
370
    15
100
AcDbLine
 10
1446.0156562132
 20
2102.4803457131
 30
0.0
 11
1448.515653829
 21
2102.4803457131
 31
0.0
  0
LINE
  5
CC
330
1F
100
AcDbEntity
  8
0
  6
Continuous
 62
     7
370
    15
100
AcDbLine
 10
1457.5156571669
 20
2102.4803457131
 30
0.0
 11
1460.0156547827
 21
2102.4803457131
 31
0.0
  0
LINE
  5
CD
330
1F
100
AcDbEntity
  8
0
  6
Continuous
 62
     7
370
    15
100
AcDbLine
 10
1398.3909489912
 20
1409.6295063664
 30
0.0
 11
1504.390940289
 21
1409.6295063664
 31
0.0
  0
LINE
  5
CE
330
1F
100
AcDbEntity
  8
0
  6
Continuous
 62
     7
370
    15
100
AcDbLine
 10
1398.3909489912
 20
1960.5781411101
 30
0.0
 11
1504.390940289
 21
1960.5781411101
 31
0.0
  0
LINE
  5
CF
330
1F
100
AcDbEntity
  8
0
  6
Continuous
 62
     7
370
    15
100
AcDbLine
 10
1450.2656611008
 20
2002.4803479483
 30
0.0
 11
1450.2656611008
 21
2107.4803456013
 31
0.0
  0
LINE
  5
D0
330
1F
100
AcDbEntity
  8
0
  6
Continuous
 62
     7
370
    15
100
AcDbLine
 10
1450.2656611008
 20
2107.4803456013
 30
0.0
 11
1455.7656647963
 21
2107.4803456013
 31
0.0
  0
LINE
  5
D1
330
1F
100
AcDbEntity
  8
0
  6
Continuous
 62
     7
370
    15
100
AcDbLine
 10
1455.7656647963
 20
2002.4803479483
 30
0.0
 11
1455.7656647963
 21
2107.4803456013
 31
0.0
  0
LINE
  5
D2
330
1F
100
AcDbEntity
  8
0
  6
Continuous
 62
     7
370
    15
100
AcDbLine
 10
1450.2656611008
 20
2002.4803479483
 30
0.0
 11
1455.7656647963
 21
2002.4803479483
 31
0.0
  0
LINE
  5
D3
330
1F
100
AcDbEntity
  8
0
  6
Continuous
 62
     7
370
    15
100
AcDbLine
 10
1455.7656647963
 20
2107.4803456013
 30
0.0
 11
1456.7438068194
 21
2107.4803456013
 31
0.0
  0
LINE
  5
D4
330
1F
100
AcDbEntity
  8
0
  6
Continuous
 62
     7
370
    15
100
AcDbLine
 10
1456.7438068194
 20
2002.4803479483
 30
0.0
 11
1456.7438068194
 21
2107.4803456013
 31
0.0
  0
LINE
  5
D5
330
1F
100
AcDbEntity
  8
0
  6
Continuous
 62
     7
370
    15
100
AcDbLine
 10
1455.7656647963
 20
2002.4803479483
 30
0.0
 11
1456.7438068194
 21
2002.4803479483
 31
0.0
  0
LINE
  5
D6
330
1F
100
AcDbEntity
  8
0
  6
Continuous
 62
     7
370
    15
100
AcDbLine
 10
1449.2875041766
 20
2002.4803479483
 30
0.0
 11
1449.2875041766
 21
2107.4803456013
 31
0.0
  0
LINE
  5
D7
330
1F
100
AcDbEntity
  8
0
  6
Continuous
 62
     7
370
    15
100
AcDbLine
 10
1449.2875041766
 20
2107.4803456013
 30
0.0
 11
1450.2656611008
 21
2107.4803456013
 31
0.0
  0
LINE
  5
D8
330
1F
100
AcDbEntity
  8
0
  6
Continuous
 62
     7
370
    15
100
AcDbLine
 10
1449.2875041766
 20
2002.4803479483
 30
0.0
 11
1450.2656611008
 21
2002.4803479483
 31
0.0
  0
LINE
  5
D9
330
1F
100
AcDbEntity
  8
0
  6
Continuous
 62
     7
370
    15
100
AcDbLine
 10
1450.2656611008
 20
1978.5455440452
 30
0.0
 11
1450.2656611008
 21
2002.4803479483
 31
0.0
  0
LINE
  5
DA
330
1F
100
AcDbEntity
  8
0
  6
Continuous
 62
     7
370
    15
100
AcDbLine
 10
1455.7656647963
 20
1978.5455440452
 30
0.0
 11
1455.7656647963
 21
2002.4803479483
 31
0.0
  0
SPLINE
  5
DB
330
1F
100
AcDbEntity
  8
0
  6
Continuous
 62
     7
370
    15
100
AcDbSpline
210
0.0
220
0.0
230
1.0
 70
     8
 71
     3
 72
    10
 73
     6
 74
     0
 42
0.00000001
 43
0.00000001
 40
0.0
 40
0.0
 40
0.0
 40
0.0
 40
0.1301525533925613
 40
0.6368099445895714
 40
1.0
 40
1.0
 40
1.0
 40
1.0
 10
1455.765664796303
 20
1978.545544045151
 30
0.0
 10
1455.535391124497
 20
1978.569953842545
 30
0.0
 10
1454.408708932252
 20
1978.689386011339
 30
0.0
 10
1452.487200942391
 20
1978.749582427799
 30
0.0
 10
1450.920013605777
 20
1978.605643361983
 30
0.0
 10
1450.265661100815
 20
1978.545544045151
 30
0.0
  0
SPLINE
  5
DC
330
1F
100
AcDbEntity
  8
0
  6
Continuous
 62
     7
370
    15
100
AcDbSpline
210
0.0
220
0.0
230
1.0
 70
     8
 71
     3
 72
    17
 73
    13
 74
     0
 42
0.00000001
 43
0.00000001
 40
0.0
 40
0.0
 40
0.0
 40
0.0
 40
0.107013709597585
 40
0.2140158909426204
 40
0.3213440098891173
 40
0.428891378950839
 40
0.5360812938763287
 40
0.642895426796205
 40
0.7498995141531823
 40
0.8573652385802378
 40
0.9648438785825589
 40
1.0
 40
1.0
 40
1.0
 40
1.0
 10
1455.515653113792
 20
2132.730345549167
 30
0.0
 10
1455.488155668479
 20
2132.727546144765
 30
0.0
 10
1455.433163740067
 20
2132.721947637531
 30
0.0
 10
1455.004546339194
 20
2132.68297913759
 30
0.0
 10
1454.372266331703
 20
2132.639450201038
 30
0.0
 10
1453.58076155365
 20
2132.607949296229
 30
0.0
 10
1452.727389906358
 20
2132.603149610609
 30
0.0
 10
1451.909325190091
 20
2132.626665666537
 30
0.0
 10
1451.209984398764
 20
2132.668787551141
 30
0.0
 10
1450.731432918001
 20
2132.708976831462
 30
0.0
 10
1450.502861175307
 20
2132.731597298315
 30
0.0
 10
1450.53808873899
 20
2132.728145358555
 30
0.0
 10
1450.546771506737
 20
2132.727294536413
 30
0.0
  0
LINE
  5
DD
330
1F
100
AcDbEntity
  8
0
  6
Continuous
 62
     7
370
    15
100
AcDbLine
 10
1456.7438068194
 20
1979.2459135224
 30
0.0
 11
1456.7438068194
 21
2002.4803479483
 31
0.0
  0
SPLINE
  5
DE
330
1F
100
AcDbEntity
  8
0
  6
Continuous
 62
     7
370
    15
100
AcDbSpline
210
0.0
220
0.0
230
1.0
 70
     8
 71
     3
 72
    12
 73
     8
 74
     0
 42
0.00000001
 43
0.00000001
 40
0.0
 40
0.0
 40
0.0
 40
0.0
 40
0.2144744098575952
 40
0.4297291907367511
 40
0.6452535656951214
 40
0.8752491800223188
 40
1.0
 40
1.0
 40
1.0
 40
1.0
 10
1456.743806819389
 20
1979.245913522423
 30
0.0
 10
1456.715214329516
 20
1979.151132216098
 30
0.0
 10
1456.657925315212
 20
1978.961224739067
 30
0.0
 10
1456.467925651778
 20
1978.737062497416
 30
0.0
 10
1456.220146080246
 20
1978.587070377214
 30
0.0
 10
1455.974608366143
 20
1978.531852970276
 30
0.0
 10
1455.820025653292
 20
1978.541982037649
 30
0.0
 10
1455.765664796303
 20
1978.545544045151
 30
0.0
  0
LINE
  5
DF
330
1F
100
AcDbEntity
  8
0
  6
Continuous
 62
     7
370
    15
100
AcDbLine
 10
1449.2875041766
 20
1979.2459135224
 30
0.0
 11
1449.2875041766
 21
2002.4803479483
 31
0.0
  0
SPLINE
  5
E0
330
1F
100
AcDbEntity
  8
0
  6
Continuous
 62
     7
370
    15
100
AcDbSpline
210
0.0
220
0.0
230
1.0
 70
     8
 71
     3
 72
    12
 73
     8
 74
     0
 42
0.00000001
 43
0.00000001
 40
0.0
 40
0.0
 40
0.0
 40
0.0
 40
0.25433107531907
 40
0.5094555379342542
 40
0.747988012136105
 40
0.9668397844383527
 40
1.0
 40
1.0
 40
1.0
 40
1.0
 10
1450.265661100815
 20
1978.545544045151
 30
0.0
 10
1450.154148709074
 20
1978.543550333659
 30
0.0
 10
1449.930776062026
 20
1978.539556691278
 30
0.0
 10
1449.628926209005
 20
1978.680065393426
 30
0.0
 10
1449.407255065377
 20
1978.9095942086
 30
0.0
 10
1449.316077353934
 20
1979.118302166966
 30
0.0
 10
1449.290826704883
 20
1979.231074698708
 30
0.0
 10
1449.287504176567
 20
1979.245913522423
 30
0.0
  0
LINE
  5
E1
330
1F
100
AcDbEntity
  8
0
  6
Continuous
 62
     7
370
    15
100
AcDbLine
 10
1456.7438068194
 20
2107.4803456013
 30
0.0
 11
1457.5156571669
 21
2107.4803456013
 31
0.0
  0
LINE
  5
E2
330
1F
100
AcDbEntity
  8
0
  6
Continuous
 62
     7
370
    15
100
AcDbLine
 10
1457.5156571669
 20
2002.4803479483
 30
0.0
 11
1457.5156571669
 21
2107.4803456013
 31
0.0
  0
LINE
  5
E3
330
1F
100
AcDbEntity
  8
0
  6
Continuous
 62
     7
370
    15
100
AcDbLine
 10
1456.7438068194
 20
2002.4803479483
 30
0.0
 11
1457.5156571669
 21
2002.4803479483
 31
0.0
  0
LINE
  5
E4
330
1F
100
AcDbEntity
  8
0
  6
Continuous
 62
     7
370
    15
100
AcDbLine
 10
1448.515653829
 20
2002.4803479483
 30
0.0
 11
1448.515653829
 21
2107.4803456013
 31
0.0
  0
LINE
  5
E5
330
1F
100
AcDbEntity
  8
0
  6
Continuous
 62
     7
370
    15
100
AcDbLine
 10
1448.515653829
 20
2107.4803456013
 30
0.0
 11
1449.2875041766
 21
2107.4803456013
 31
0.0
  0
LINE
  5
E6
330
1F
100
AcDbEntity
  8
0
  6
Continuous
 62
     7
370
    15
100
AcDbLine
 10
1448.515653829
 20
2002.4803479483
 30
0.0
 11
1449.2875041766
 21
2002.4803479483
 31
0.0
  0
LINE
  5
E7
330
1F
100
AcDbEntity
  8
0
  6
Continuous
 62
     7
370
    15
100
AcDbLine
 10
1448.515653829
 20
1982.9419528415
 30
0.0
 11
1448.515653829
 21
2002.4803479483
 31
0.0
  0
LINE
  5
E8
330
1F
100
AcDbEntity
  8
0
  6
Continuous
 62
     7
370
    15
100
AcDbLine
 10
1449.2875041766
 20
1979.2459135224
 30
0.0
 11
1448.515653829
 21
1982.9419528415
 31
0.0
  0
LINE
  5
E9
330
1F
100
AcDbEntity
  8
0
  6
Continuous
 62
     7
370
    15
100
AcDbLine
 10
1457.5156571669
 20
2128.3069777583
 30
0.0
 11
1457.5156571669
 21
2107.4803456013
 31
0.0
  0
LINE
  5
EA
330
1F
100
AcDbEntity
  8
0
  6
Continuous
 62
     7
370
    15
100
AcDbLine
 10
1457.5156571669
 20
1982.9419528415
 30
0.0
 11
1457.5156571669
 21
2002.4803479483
 31
0.0
  0
LINE
  5
EB
330
1F
100
AcDbEntity
  8
0
  6
Continuous
 62
     7
370
    15
100
AcDbLine
 10
1457.5156571669
 20
1982.9419528415
 30
0.0
 11
1456.7438068194
 21
1979.2459135224
 31
0.0
  0
LINE
  5
EC
330
1F
100
AcDbEntity
  8
0
  6
Continuous
 62
     7
370
    15
100
AcDbLine
 10
1448.515653829
 20
2128.3069777583
 30
0.0
 11
1448.515653829
 21
2107.4803456013
 31
0.0
  0
LINE
  5
ED
330
1F
100
AcDbEntity
  8
0
  6
Continuous
 62
     7
370
    15
100
AcDbLine
 10
1442.5156565709
 20
1966.4803420474
 30
0.0
 11
1463.5156544251
 21
1966.4803420474
 31
0.0
  0
LINE
  5
EE
330
1F
100
AcDbEntity
  8
0
  6
Continuous
 62
     7
370
    15
100
AcDbLine
 10
1445.0156541867
 20
1993.4803446104
 30
0.0
 11
1448.515653829
 21
1993.4803446104
 31
0.0
  0
LINE
  5
EF
330
1F
100
AcDbEntity
  8
0
  6
Continuous
 62
     7
370
    15
100
AcDbLine
 10
1457.5156571669
 20
1993.4803446104
 30
0.0
 11
1461.0156568093
 21
1993.4803446104
 31
0.0
  0
LINE
  5
F0
330
1F
100
AcDbEntity
  8
0
  6
Continuous
 62
     7
370
    15
100
AcDbLine
 10
1393.3909537596
 20
1406.1294620206
 30
0.0
 11
1509.3909355206
 21
1406.1294620206
 31
0.0
  0
LINE
  5
F1
330
1F
100
AcDbEntity
  8
0
  6
Continuous
 62
     7
370
    15
100
AcDbLine
 10
1509.3909355206
 20
1408.129495876
 30
0.0
 11
1393.3909537596
 21
1408.129495876
 31
0.0
  0
LINE
  5
F2
330
1F
100
AcDbEntity
  8
0
  6
Continuous
 62
     7
370
    15
100
AcDbLine
 10
1508.3909483952
 20
1405.1294748952
 30
0.0
 11
1394.3909557862
 21
1405.1294748952
 31
0.0
  0
LINE
  5
F3
330
1F
100
AcDbEntity
  8
0
  6
Continuous
 62
     7
370
    15
100
AcDbLine
 10
1393.3909537596
 20
1962.0781366994
 30
0.0
 11
1509.3909355206
 21
1962.0781366994
 31
0.0
  0
LINE
  5
F4
330
1F
100
AcDbEntity
  8
0
  6
Continuous
 62
     7
370
    15
100
AcDbLine
 10
1509.3909355206
 20
1964.0781407525
 30
0.0
 11
1393.3909537596
 21
1964.0781407525
 31
0.0
  0
LINE
  5
F5
330
1F
100
AcDbEntity
  8
0
  6
Continuous
 62
     7
370
    15
100
AcDbLine
 10
1394.3909557862
 20
1965.0781427791
 30
0.0
 11
1508.3909483952
 21
1965.0781427791
 31
0.0
  0
LINE
  5
F6
330
1F
100
AcDbEntity
  8
0
  6
Continuous
 62
     7
370
    15
100
AcDbLine
 10
1398.3909489912
 20
1410.1719682385
 30
0.0
 11
1504.390940289
 21
1410.1719682385
 31
0.0
  0
LINE
  5
F7
330
1F
100
AcDbEntity
  8
0
  6
Continuous
 62
     7
370
    15
100
AcDbLine
 10
1503.8909467263
 20
1409.6719448735
 30
0.0
 11
1398.8909425539
 21
1409.6719448735
 31
0.0
  0
LINE
  5
F8
330
1F
100
AcDbEntity
  8
0
  6
Continuous
 62
     7
370
    15
100
AcDbLine
 10
1398.8909425539
 20
1959.6719567944
 30
0.0
 11
1503.8909467263
 21
1959.6719567944
 31
0.0
  0
LINE
  5
F9
330
1F
100
AcDbEntity
  8
0
  6
Continuous
 62
     7
370
    15
100
AcDbLine
 10
1504.390940289
 20
1959.1719632317
 30
0.0
 11
1398.3909489912
 21
1959.1719632317
 31
0.0
  0
LINE
  5
FA
330
1F
100
AcDbEntity
  8
0
  6
Continuous
 62
     7
370
    15
100
AcDbLine
 10
1508.0156477494
 20
2130.480345646
 30
0.0
 11
1508.0156477494
 21
2100.4803463166
 31
0.0
  0
LINE
  5
FB
330
1F
100
AcDbEntity
  8
0
  6
Continuous
 62
     7
370
    15
100
AcDbLine
 10
1510.0156518025
 20
2130.480345646
 30
0.0
 11
1510.0156518025
 21
2100.4803463166
 31
0.0
  0
LINE
  5
FC
330
1F
100
AcDbEntity
  8
0
  6
Continuous
 62
     7
370
    15
100
AcDbLine
 10
1252.0156579418
 20
2199.6803482344
 30
0.0
 11
1260.0156573904
 21
2199.6803482344
 31
0.0
  0
LINE
  5
FD
330
1F
100
AcDbEntity
  8
0
  6
Continuous
 62
     7
370
    15
100
AcDbLine
 10
1257.6131785614
 20
2031.2803437282
 30
0.0
 11
1252.0156579418
 21
2031.2803437282
 31
0.0
  0
LINE
  5
FE
330
1F
100
AcDbEntity
  8
0
  6
Continuous
 62
     7
370
    15
100
AcDbLine
 10
1260.0156573904
 20
2031.2803437282
 30
0.0
 11
1257.6131785614
 21
2031.2803437282
 31
0.0
  0
LINE
  5
FF
330
1F
100
AcDbEntity
  8
0
  6
Continuous
 62
     7
370
    15
100
AcDbLine
 10
1254.6923926426
 20
2116.0568018841
 30
0.0
 11
1254.8547994671
 21
2114.6225923021
 31
0.0
  0
LINE
  5
100
330
1F
100
AcDbEntity
  8
0
  6
Continuous
 62
     7
370
    15
100
AcDbLine
 10
1254.8547994671
 20
2114.6225923021
 30
0.0
 11
1256.1780654219
 21
2114.0461363412
 31
0.0
  0
LINE
  5
101
330
1F
100
AcDbEntity
  8
0
  6
Continuous
 62
     7
370
    15
100
AcDbLine
 10
1256.1780654219
 20
2114.0461363412
 30
0.0
 11
1257.3389245523
 21
2114.9038900785
 31
0.0
  0
LINE
  5
102
330
1F
100
AcDbEntity
  8
0
  6
Continuous
 62
     7
370
    15
100
AcDbLine
 10
1257.3389245523
 20
2114.9038900785
 30
0.0
 11
1257.1765167964
 21
2116.3380996605
 31
0.0
  0
LINE
  5
103
330
1F
100
AcDbEntity
  8
0
  6
Continuous
 62
     7
370
    15
100
AcDbLine
 10
1257.1765167964
 20
2116.3380996605
 30
0.0
 11
1255.8532508416
 21
2116.9145556214
 31
0.0
  0
LINE
  5
104
330
1F
100
AcDbEntity
  8
0
  6
Continuous
 62
     7
370
    15
100
AcDbLine
 10
1255.8532508416
 20
2116.9145556214
 30
0.0
 11
1254.6923926426
 21
2116.0568018841
 31
0.0
  0
CIRCLE
  5
105
330
1F
100
AcDbEntity
  8
0
  6
Continuous
 62
     7
370
    15
100
AcDbCircle
 10
1256.0156580014
 20
2115.4803459811
 30
0.0
 40
3.999999999999814
  0
LINE
  5
106
330
1F
100
AcDbEntity
  8
0
  6
Continuous
 62
     7
370
    15
100
AcDbLine
 10
1283.0156574351
 20
2115.4803459813
 30
0.0
 11
1283.0156574351
 21
2210.4803447892
 31
0.0
  0
LINE
  5
107
330
1F
100
AcDbEntity
  8
0
  6
Continuous
 62
     7
370
    15
100
AcDbLine
 10
1283.0156574351
 20
2020.4803471734
 30
0.0
 11
1283.0156574351
 21
2115.4803459813
 31
0.0
  0
LINE
  5
108
330
1F
100
AcDbEntity
  8
0
  6
Continuous
 62
     7
370
    15
100
AcDbLine
 10
1281.0156571073
 20
2115.4803459813
 30
0.0
 11
1281.0156571073
 21
2210.4803447892
 31
0.0
  0
LINE
  5
109
330
1F
100
AcDbEntity
  8
0
  6
Continuous
 62
     7
370
    15
100
AcDbLine
 10
1281.0156571073
 20
2020.4803471734
 30
0.0
 11
1281.0156571073
 21
2115.4803459813
 31
0.0
  0
SPLINE
  5
10A
330
1F
100
AcDbEntity
  8
0
  6
Continuous
 62
     7
370
    15
100
AcDbSpline
210
0.0
220
0.0
230
1.0
 70
    11
 71
     3
 72
    27
 73
    23
 74
     0
 42
0.00000001
 43
0.00000001
 40
0.0
 40
0.0
 40
0.0
 40
0.0
 40
0.0108742107523236
 40
0.0645146295701395
 40
0.1192800967374288
 40
0.1747185659269679
 40
0.2302078351542788
 40
0.284960853967144
 40
0.3383224129615389
 40
0.3903444145260352
 40
0.4418646196188564
 40
0.4788453417254853
 40
0.527786789128294
 40
0.5818767943387593
 40
0.6369144025418811
 40
0.6924451346481553
 40
0.7477896106594701
 40
0.8021465981887296
 40
0.8550312491612987
 40
0.9067777186185333
 40
0.958366601966929
 40
1.0
 40
1.0
 40
1.0
 40
1.0
 10
1252.308811279903
 20
2120.661212904484
 30
0.0
 10
1252.428694273091
 20
2120.742014440642
 30
0.0
 10
1253.13993733003
 20
2121.221394626723
 30
0.0
 10
1254.650577420498
 20
2121.813493112138
 30
0.0
 10
1256.86763842761
 20
2121.908498418604
 30
0.0
 10
1259.015355320081
 20
2121.240513543908
 30
0.0
 10
1260.80721510576
 20
2119.88495030381
 30
0.0
 10
1262.017369932231
 20
2118.025237916364
 30
0.0
 10
1262.521555698854
 20
2115.913187011955
 30
0.0
 10
1262.30790348352
 20
2113.798547859368
 30
0.0
 10
1261.514302500871
 20
2112.068141842945
 30
0.0
 10
1260.316271595129
 20
2110.66947441399
 30
0.0
 10
1258.749007636594
 20
2109.610448825587
 30
0.0
 10
1256.685236726455
 20
2109.03389029148
 30
0.0
 10
1254.456373145806
 20
2109.183943347188
 30
0.0
 10
1252.393539058921
 20
2110.08447417509
 30
0.0
 10
1250.766475864839
 20
2111.625621517191
 30
0.0
 10
1249.774190195657
 20
2113.593830949777
 30
0.0
 10
1249.50064620301
 20
2115.734078977832
 30
0.0
 10
1249.939035625111
 20
2117.797345933314
 30
0.0
 10
1250.919464909769
 20
2119.512976633425
 30
0.0
 10
1251.87988451401
 20
2120.306722994111
 30
0.0
 10
1252.308811279903
 20
2120.661212904484
 30
0.0
  0
LINE
  5
10B
330
1F
100
AcDbEntity
  8
0
  6
Continuous
 62
     7
370
    15
100
AcDbLine
 10
1241.0156580014
 20
2115.4803459813
 30
0.0
 11
1241.0156580014
 21
2031.2803437282
 31
0.0
  0
LINE
  5
10C
330
1F
100
AcDbEntity
  8
0
  6
Continuous
 62
     7
370
    15
100
AcDbLine
 10
1241.0156580014
 20
2199.6803482344
 30
0.0
 11
1241.0156580014
 21
2115.4803459813
 31
0.0
  0
SPLINE
  5
10D
330
1F
100
AcDbEntity
  8
0
  6
Continuous
 62
     7
370
    15
100
AcDbSpline
210
0.0
220
0.0
230
1.0
 70
     8
 71
     3
 72
    18
 73
    14
 74
     0
 42
0.00000001
 43
0.00000001
 40
0.0
 40
0.0
 40
0.0
 40
0.0
 40
0.0350739652918719
 40
0.1382841058963071
 40
0.2416305369137254
 40
0.3468717008605656
 40
0.454640096115182
 40
0.5645046839358265
 40
0.6754809785181023
 40
0.7576093410778448
 40
0.8565427354512976
 40
0.9634998125924612
 40
1.0
 40
1.0
 40
1.0
 40
1.0
 10
1249.692355501423
 20
2031.28614027995
 30
0.0
 10
1249.670626601219
 20
2031.284531942847
 30
0.0
 10
1249.584957315986
 20
2031.278190844647
 30
0.0
 10
1250.139601373192
 20
2031.319646202123
 30
0.0
 10
1251.296723062533
 20
2031.39386324781
 30
0.0
 10
1253.023239506404
 20
2031.475296831974
 30
0.0
 10
1255.105267699237
 20
2031.52515082085
 30
0.0
 10
1257.335182864304
 20
2031.519917789058
 30
0.0
 10
1259.247660095432
 20
2031.464687672765
 30
0.0
 10
1260.785927464589
 20
2031.39008008349
 30
0.0
 10
1261.870767266475
 20
2031.321234892427
 30
0.0
 10
1262.443466279351
 20
2031.278387837864
 30
0.0
 10
1262.359685095271
 20
2031.284609453042
 30
0.0
 10
1262.338368440936
 20
2031.286192434014
 30
0.0
  0
SPLINE
  5
10E
330
1F
100
AcDbEntity
  8
0
  6
Continuous
 62
     7
370
    15
100
AcDbSpline
210
0.0
220
0.0
230
1.0
 70
     8
 71
     3
 72
    17
 73
    13
 74
     0
 42
0.00000001
 43
0.00000001
 40
0.0
 40
0.0
 40
0.0
 40
0.0
 40
0.0899250050687606
 40
0.1597597967163536
 40
0.2594313923183738
 40
0.3652328146076593
 40
0.4734867559532779
 40
0.5836976154069202
 40
0.6948210732430637
 40
0.8054761991123455
 40
0.9140644240173221
 40
1.0
 40
1.0
 40
1.0
 40
1.0
 10
1262.377146850298
 20
2199.677405255021
 30
0.0
 10
1262.344701308144
 20
2199.6748779328
 30
0.0
 10
1262.287058906958
 20
2199.670387919327
 30
0.0
 10
1261.582210904517
 20
2199.620542017806
 30
0.0
 10
1260.448429026157
 20
2199.551078794007
 30
0.0
 10
1258.675147344305
 20
2199.473888013938
 30
0.0
 10
1256.548046079545
 20
2199.432155235729
 30
0.0
 10
1254.322704571544
 20
2199.447559454442
 30
0.0
 10
1252.274650290483
 20
2199.515725682476
 30
0.0
 10
1250.699469875686
 20
2199.60262795857
 30
0.0
 10
1249.747814447223
 20
2199.670139835514
 30
0.0
 10
1249.692350349443
 20
2199.674476257267
 30
0.0
 10
1249.667847747872
 20
2199.67639197606
 30
0.0
  0
SPLINE
  5
10F
330
1F
100
AcDbEntity
  8
0
  6
Continuous
 62
     7
370
    15
100
AcDbSpline
210
0.0
220
0.0
230
1.0
 70
    11
 71
     3
 72
    27
 73
    23
 74
     0
 42
0.00000001
 43
0.00000001
 40
0.0
 40
0.0
 40
0.0
 40
0.0
 40
0.0416782311546954
 40
0.093621073176418
 40
0.1444794974083675
 40
0.1969645454950049
 40
0.2510915358563915
 40
0.306484153137032
 40
0.3622900719793632
 40
0.4176949889467945
 40
0.472106207540006
 40
0.5211967604902501
 40
0.5581544722296035
 40
0.6094317919631039
 40
0.6610554850316748
 40
0.7140510917200662
 40
0.7686589291318191
 40
0.824280588051903
 40
0.8800393831267886
 40
0.9351717681885614
 40
0.9890916554523769
 40
1.0
 40
1.0
 40
1.0
 40
1.0
 10
1253.214481505523
 20
2119.302410474153
 30
0.0
 10
1252.8875811407
 20
2119.044173353961
 30
0.0
 10
1252.153270635466
 20
2118.464099880196
 30
0.0
 10
1251.396936289914
 20
2117.198020500867
 30
0.0
 10
1251.058712892512
 20
2115.664192113933
 30
0.0
 10
1251.271247361593
 20
2114.076302873029
 30
0.0
 10
1252.039938459724
 20
2112.622265033904
 30
0.0
 10
1253.284446507075
 20
2111.498562173907
 30
0.0
 10
1254.843608952746
 20
2110.849994431753
 30
0.0
 10
1256.518666874184
 20
2110.742556663923
 30
0.0
 10
1258.073869161158
 20
2111.156534571366
 30
0.0
 10
1259.266226243801
 20
2111.925084401458
 30
0.0
 10
1260.184974631236
 20
2112.949801678807
 30
0.0
 10
1260.799612607914
 20
2114.228600128334
 30
0.0
 10
1260.966329379461
 20
2115.802801613848
 30
0.0
 10
1260.573528714172
 20
2117.372557036555
 30
0.0
 10
1259.63958345475
 20
2118.741169927979
 30
0.0
 10
1258.274736579708
 20
2119.725267024535
 30
0.0
 10
1256.655774118663
 20
2120.205060003922
 30
0.0
 10
1254.98962019378
 20
2120.136939794396
 30
0.0
 10
1253.847499015388
 20
2119.71047139702
 30
0.0
 10
1253.305655063059
 20
2119.361183518262
 30
0.0
 10
1253.214481505523
 20
2119.302410474153
 30
0.0
  0
LINE
  5
110
330
1F
100
AcDbEntity
  8
0
  6
Continuous
 62
     8
370
    15
100
AcDbLine
 10
1449.2875041766
 20
2131.9382575621
 30
0.0
 11
1449.2875041766
 21
2107.4803456013
 31
0.0
  0
LINE
  5
111
330
1F
100
AcDbEntity
  8
0
  6
Continuous
 62
     8
370
    15
100
AcDbLine
 10
1450.2656611008
 20
2132.7303455492
 30
0.0
 11
1450.2656611008
 21
2107.4803456013
 31
0.0
  0
LINE
  5
112
330
1F
100
AcDbEntity
  8
0
  6
Continuous
 62
     8
370
    15
100
AcDbLine
 10
1455.7656647963
 20
2132.7303455492
 30
0.0
 11
1455.7656647963
 21
2107.4803456013
 31
0.0
  0
LINE
  5
113
330
1F
100
AcDbEntity
  8
0
  6
Continuous
 62
     8
370
    15
100
AcDbLine
 10
1456.7438068194
 20
2131.9382575621
 30
0.0
 11
1456.7438068194
 21
2107.4803456013
 31
0.0
  0
LINE
  5
114
330
1F
100
AcDbEntity
  8
0
  6
Continuous
 62
     8
370
    15
100
AcDbLine
 10
1444.515660624
 20
1968.4803461005
 30
0.0
 11
1461.5156652731
 21
1968.4803461005
 31
0.0
  0
LINE
  5
115
330
1F
100
AcDbEntity
  8
0
  6
Continuous
 62
     8
370
    15
100
AcDbLine
 10
1461.5156652731
 20
1992.9803435971
 30
0.0
 11
1457.5156571669
 21
1992.9803435971
 31
0.0
  0
LINE
  5
116
330
1F
100
AcDbEntity
  8
0
  6
Continuous
 62
     8
370
    15
100
AcDbLine
 10
1448.515653829
 20
1992.9803435971
 30
0.0
 11
1444.515660624
 21
1992.9803435971
 31
0.0
  0
LINE
  5
11F
330
1F
100
AcDbEntity
  8
0
  6
Continuous
 62
     8
370
    15
100
AcDbLine
 10
1278.0156584782
 20
2115.4803459813
 30
0.0
 11
1278.0156584782
 21
2031.2803437282
 31
0.0
  0
LINE
  5
120
330
1F
100
AcDbEntity
  8
0
  6
Continuous
 62
     8
370
    15
100
AcDbLine
 10
1278.0156584782
 20
2199.6803482344
 30
0.0
 11
1278.0156584782
 21
2115.4803459813
 31
0.0
  0
DIMENSION
  5
121
330
1F
100
AcDbEntity
  8
0
  6
Continuous
 62
     7
370
     0
100
AcDbDimension
  2
_D
 10
1586.3909493757
 20
2310.4803459813
 30
0.0
 11
1438.5263302588
 21
2310.4803459813
 31
0.0
 70
    32
  1
<>
 71
     2
 42
-1.0
 73
     0
 74
     0
 75
     0
  3
SLDDIMSTYLE0
100
AcDbAlignedDimension
 13
1241.0156580014
 23
2199.6803459813
 33
0.0
 14
1586.3909493757
 24
1819.0725860737
 34
0.0
100
AcDbRotatedDimension
  0
DIMENSION
  5
12C
330
1F
100
AcDbEntity
  8
0
  6
Continuous
 62
     7
370
     0
100
AcDbDimension
  2
_D_1
 10
1686.3909493757
 20
1405.1294900843
 30
0.0
 11
1686.3909493757
 21
1664.9760050203
 31
0.0
 70
    32
  1
<>
 71
     2
 42
-1.0
 73
     0
 74
     0
 75
     0
  3
SLDDIMSTYLE1
100
AcDbAlignedDimension
 13
1508.3909493757
 23
1965.07813973
 33
0.0
 14
1508.3909493757
 24
1405.1294900843
 34
0.0
 50
90.0
100
AcDbRotatedDimension
  0
DIMENSION
  5
137
330
1F
100
AcDbEntity
  8
0
  6
Continuous
 62
     7
370
     0
100
AcDbDimension
  2
_D_2
 10
1686.3909493757
 20
1965.0781397299
 30
0.0
 11
1686.3909493757
 21
2105.330203315
 31
0.0
 70
    32
  1
<>
 71
     2
 42
-1.0
 73
     0
 74
     0
 75
     0
  3
SLDDIMSTYLE0
100
AcDbAlignedDimension
 13
1283.0156580014
 23
2210.4803459813
 33
0.0
 14
1508.3909493757
 24
1965.07813973
 34
0.0
 50
90.0
100
AcDbRotatedDimension
  0
DIMENSION
  5
141
330
1F
100
AcDbEntity
  8
0
  6
Continuous
 62
     7
370
     0
100
AcDbDimension
  2
_D_3
 10
1141.0156080014
 20
2031.2803459813
 30
0.0
 11
1141.0156080014
 21
2094.3884817491
 31
0.0
 70
    32
  1
%%c<>
 71
     2
 42
-1.0
 73
     0
 74
     0
 75
     0
  3
SLDDIMSTYLE2
100
AcDbAlignedDimension
 13
1241.0156580014
 23
2199.6803459813
 33
0.0
 14
1241.0156580014
 24
2031.2803459813
 34
0.0
 50
90.0
100
AcDbRotatedDimension
  0
LINE
  5
14F
330
1F
100
AcDbEntity
  8
0
  6
Continuous
 62
     7
370
    15
100
AcDbLine
 10
832.7786878987
 20
1408.129495876
 30
0.0
 11
832.7786878987
 21
1409.6295063664
 31
0.0
  0
LINE
  5
150
330
1F
100
AcDbEntity
  8
0
  6
Continuous
 62
     7
370
    15
100
AcDbLine
 10
726.7786891504
 20
1409.6295063664
 30
0.0
 11
726.7786891504
 21
1408.129495876
 31
0.0
  0
LINE
  5
151
330
1F
100
AcDbEntity
  8
0
  6
Continuous
 62
     7
370
    15
100
AcDbLine
 10
832.7786878987
 20
1960.5781411101
 30
0.0
 11
832.7786878987
 21
1962.0781366994
 31
0.0
  0
LINE
  5
152
330
1F
100
AcDbEntity
  8
0
  6
Continuous
 62
     7
370
    15
100
AcDbLine
 10
726.7786891504
 20
1962.0781366994
 30
0.0
 11
726.7786891504
 21
1960.5781411101
 31
0.0
  0
ARC
  5
153
330
1F
100
AcDbEntity
  8
0
  6
Continuous
 62
     7
370
    15
100
AcDbCircle
 10
769.2786885246
 20
1968.4803459813
 30
0.0
 40
2.0
100
AcDbArc
 50
270.0
 51
0.0
  0
ARC
  5
154
330
1F
100
AcDbEntity
  8
0
  6
Continuous
 62
     7
370
    15
100
AcDbCircle
 10
790.2786885246
 20
1968.4803459813
 30
0.0
 40
2.000000000000114
100
AcDbArc
 50
180.0
 51
270.0
  0
LINE
  5
155
330
1F
100
AcDbEntity
  8
0
  6
Continuous
 62
     7
370
    15
100
AcDbLine
 10
769.2786886662
 20
1966.4803420474
 30
0.0
 11
769.2786886662
 21
1965.0781427791
 31
0.0
  0
LINE
  5
156
330
1F
100
AcDbEntity
  8
0
  6
Continuous
 62
     7
370
    15
100
AcDbLine
 10
790.278688383
 20
1965.0781427791
 30
0.0
 11
790.278688383
 21
1966.4803420474
 31
0.0
  0
ARC
  5
157
330
1F
100
AcDbEntity
  8
0
  6
Continuous
 62
     7
370
    15
100
AcDbCircle
 10
771.7786885246
 20
1992.9803459813
 30
0.0
 40
0.5
100
AcDbArc
 50
90.0
 51
180.0
  0
ARC
  5
158
330
1F
100
AcDbEntity
  8
0
  6
Continuous
 62
     7
370
    15
100
AcDbCircle
 10
787.7786885246
 20
1992.9803459813
 30
0.0
 40
0.5
100
AcDbArc
 50
0.0
 51
90.0
  0
LINE
  5
159
330
1F
100
AcDbEntity
  8
0
  6
Continuous
 62
     7
370
    15
100
AcDbLine
 10
771.2786880627
 20
1978.6710565259
 30
0.0
 11
771.2786880627
 21
1968.4803461005
 31
0.0
  0
LINE
  5
15A
330
1F
100
AcDbEntity
  8
0
  6
Continuous
 62
     7
370
    15
100
AcDbLine
 10
771.2786880627
 20
1992.9803435971
 30
0.0
 11
771.2786880627
 21
1990.425777929
 31
0.0
  0
LINE
  5
15B
330
1F
100
AcDbEntity
  8
0
  6
Continuous
 62
     7
370
    15
100
AcDbLine
 10
788.2786889865
 20
1990.425777929
 30
0.0
 11
788.2786889865
 21
1992.9803435971
 31
0.0
  0
LINE
  5
15C
330
1F
100
AcDbEntity
  8
0
  6
Continuous
 62
     7
370
    15
100
AcDbLine
 10
788.2786889865
 20
1968.4803461005
 30
0.0
 11
788.2786889865
 21
1978.6759441068
 31
0.0
  0
LINE
  5
15D
330
1F
100
AcDbEntity
  8
0
  6
Continuous
 62
     7
370
    15
100
AcDbLine
 10
777.2786885805
 20
2132.7303455492
 30
0.0
 11
777.2786885805
 21
2132.6062784811
 31
0.0
  0
LINE
  5
15E
330
1F
100
AcDbEntity
  8
0
  6
Continuous
 62
     7
370
    15
100
AcDbLine
 10
782.2786884687
 20
2132.6062784811
 30
0.0
 11
782.2786884687
 21
2132.7303455492
 31
0.0
  0
LINE
  5
15F
330
1F
100
AcDbEntity
  8
0
  6
Continuous
 62
     7
370
    15
100
AcDbLine
 10
765.0286884352
 20
2056.980346637
 30
0.0
 11
794.528688614
 21
2056.980346637
 31
0.0
  0
LINE
  5
160
330
1F
100
AcDbEntity
  8
0
  6
Continuous
 62
     7
370
    15
100
AcDbLine
 10
794.528688614
 20
2061.9803455939
 30
0.0
 11
765.0286884352
 21
2061.9803455939
 31
0.0
  0
LINE
  5
161
330
1F
100
AcDbEntity
  8
0
  6
Continuous
 62
     7
370
    15
100
AcDbLine
 10
837.7786868557
 20
1406.1294620206
 30
0.0
 11
837.7786868557
 21
1408.129495876
 31
0.0
  0
LINE
  5
162
330
1F
100
AcDbEntity
  8
0
  6
Continuous
 62
     7
370
    15
100
AcDbLine
 10
721.7786901935
 20
1408.129495876
 30
0.0
 11
721.7786901935
 21
1406.1294620206
 31
0.0
  0
LINE
  5
163
330
1F
100
AcDbEntity
  8
0
  6
Continuous
 62
     7
370
    15
100
AcDbLine
 10
721.7786901935
 20
1406.1294620206
 30
0.0
 11
722.7786884948
 21
1405.1294748952
 31
0.0
  0
LINE
  5
164
330
1F
100
AcDbEntity
  8
0
  6
Continuous
 62
     7
370
    15
100
AcDbLine
 10
836.7786885544
 20
1405.1294748952
 30
0.0
 11
837.7786868557
 21
1406.1294620206
 31
0.0
  0
LINE
  5
165
330
1F
100
AcDbEntity
  8
0
  6
Continuous
 62
     7
370
    15
100
AcDbLine
 10
735.2786877497
 20
1409.6719448735
 30
0.0
 11
735.2786877497
 21
1409.6295063664
 31
0.0
  0
LINE
  5
166
330
1F
100
AcDbEntity
  8
0
  6
Continuous
 62
     7
370
    15
100
AcDbLine
 10
824.2786892995
 20
1409.6295063664
 30
0.0
 11
824.2786892995
 21
1409.6719448735
 31
0.0
  0
LINE
  5
167
330
1F
100
AcDbEntity
  8
0
  6
Continuous
 62
     7
370
    15
100
AcDbLine
 10
837.7786868557
 20
1964.0781407525
 30
0.0
 11
836.7786885544
 21
1965.0781427791
 31
0.0
  0
LINE
  5
168
330
1F
100
AcDbEntity
  8
0
  6
Continuous
 62
     7
370
    15
100
AcDbLine
 10
722.7786884948
 20
1965.0781427791
 30
0.0
 11
721.7786901935
 21
1964.0781407525
 31
0.0
  0
LINE
  5
169
330
1F
100
AcDbEntity
  8
0
  6
Continuous
 62
     7
370
    15
100
AcDbLine
 10
837.7786868557
 20
1962.0781366994
 30
0.0
 11
837.7786868557
 21
1964.0781407525
 31
0.0
  0
LINE
  5
16A
330
1F
100
AcDbEntity
  8
0
  6
Continuous
 62
     7
370
    15
100
AcDbLine
 10
721.7786901935
 20
1964.0781407525
 30
0.0
 11
721.7786901935
 21
1962.0781366994
 31
0.0
  0
LINE
  5
16B
330
1F
100
AcDbEntity
  8
0
  6
Continuous
 62
     7
370
    15
100
AcDbLine
 10
824.7786903127
 20
1959.6719567944
 30
0.0
 11
824.7786903127
 21
1960.5781411101
 31
0.0
  0
LINE
  5
16C
330
1F
100
AcDbEntity
  8
0
  6
Continuous
 62
     7
370
    15
100
AcDbLine
 10
734.7786867365
 20
1960.5781411101
 30
0.0
 11
734.7786867365
 21
1959.6719567944
 31
0.0
  0
ARC
  5
16D
330
1F
100
AcDbEntity
  8
0
  6
Continuous
 62
     7
370
    15
100
AcDbCircle
 10
775.7786885245
 20
1819.0725860737
 30
0.0
 40
138.9999999999999
100
AcDbArc
 50
0.0
 51
20.3357268099
  0
ARC
  5
16E
330
1F
100
AcDbEntity
  8
0
  6
Continuous
 62
     7
370
    15
100
AcDbCircle
 10
783.7786885246
 20
1819.0725860737
 30
0.0
 40
139.0000000000001
100
AcDbArc
 50
159.6642731901
 51
180.0
  0
LINE
  5
16F
330
1F
100
AcDbEntity
  8
0
  6
Continuous
 62
     7
370
    15
100
AcDbLine
 10
644.7786831602
 20
1819.0725867917
 30
0.0
 11
644.7786831602
 21
1550.2713148763
 31
0.0
  0
LINE
  5
170
330
1F
100
AcDbEntity
  8
0
  6
Continuous
 62
     7
370
    15
100
AcDbLine
 10
914.778693889
 20
1550.2713148763
 30
0.0
 11
914.778693889
 21
1819.0725867917
 31
0.0
  0
ARC
  5
171
330
1F
100
AcDbEntity
  8
0
  6
Continuous
 62
     7
370
    15
100
AcDbCircle
 10
775.7786885245
 20
1550.271330789
 30
0.0
 40
139.0
100
AcDbArc
 50
339.6642731901
 51
0.0
  0
ARC
  5
172
330
1F
100
AcDbEntity
  8
0
  6
Continuous
 62
     7
370
    15
100
AcDbCircle
 10
783.7786885246
 20
1550.271330789
 30
0.0
 40
139.0000000000001
100
AcDbArc
 50
180.0
 51
200.3357268099
  0
ARC
  5
173
330
1F
100
AcDbEntity
  8
0
  6
Continuous
 62
     7
370
    15
100
AcDbCircle
 10
755.1796797022
 20
1829.6719584313
 30
0.0
 40
108.5
100
AcDbArc
 50
111.2083774985
 51
159.6642731901
  0
ARC
  5
174
330
1F
100
AcDbEntity
  8
0
  6
Continuous
 62
     7
370
    15
100
AcDbCircle
 10
804.3776973469
 20
1829.6719584313
 30
0.0
 40
108.5
100
AcDbArc
 50
20.3357268099
 51
68.7916225015
  0
ARC
  5
175
330
1F
100
AcDbEntity
  8
0
  6
Continuous
 62
     7
370
    15
100
AcDbCircle
 10
755.1796797022
 20
1539.6719584313
 30
0.0
 40
108.5000000000001
100
AcDbArc
 50
200.3357268099
 51
248.7916225015
  0
ARC
  5
176
330
1F
100
AcDbEntity
  8
0
  6
Continuous
 62
     7
370
    15
100
AcDbCircle
 10
804.3776973469
 20
1539.6719584313
 30
0.0
 40
108.5000000000001
100
AcDbArc
 50
291.2083774985
 51
339.6642731901
  0
ARC
  5
177
330
1F
100
AcDbEntity
  8
0
  6
Continuous
 62
     7
370
    15
100
AcDbCircle
 10
709.7786885246
 20
1946.6719584317
 30
0.0
 40
16.99999999998947
100
AcDbArc
 50
291.2083774985
 51
0.0
  0
ARC
  5
178
330
1F
100
AcDbEntity
  8
0
  6
Continuous
 62
     7
370
    15
100
AcDbCircle
 10
849.7786885246
 20
1946.6719584317
 30
0.0
 40
16.99999999998947
100
AcDbArc
 50
180.0
 51
248.7916225015
  0
ARC
  5
179
330
1F
100
AcDbEntity
  8
0
  6
Continuous
 62
     7
370
    15
100
AcDbCircle
 10
709.7786885246
 20
1422.671958431
 30
0.0
 40
16.99999999998926
100
AcDbArc
 50
0.0
 51
68.7916225015
  0
ARC
  5
17A
330
1F
100
AcDbEntity
  8
0
  6
Continuous
 62
     7
370
    15
100
AcDbCircle
 10
849.7786885246
 20
1422.671958431
 30
0.0
 40
16.99999999998943
100
AcDbArc
 50
111.2083774985
 51
180.0
  0
LINE
  5
17B
330
1F
100
AcDbEntity
  8
0
  6
Continuous
 62
     7
370
    15
100
AcDbLine
 10
832.7786878987
 20
1959.1719632317
 30
0.0
 11
832.2786868855
 21
1959.6719567944
 31
0.0
  0
LINE
  5
17C
330
1F
100
AcDbEntity
  8
0
  6
Continuous
 62
     7
370
    15
100
AcDbLine
 10
727.2786901637
 20
1959.6719567944
 30
0.0
 11
726.7786891504
 21
1959.1719632317
 31
0.0
  0
LINE
  5
17D
330
1F
100
AcDbEntity
  8
0
  6
Continuous
 62
     7
370
    15
100
AcDbLine
 10
726.7786891504
 20
1959.1719632317
 30
0.0
 11
726.7786891504
 21
1946.6719602515
 31
0.0
  0
LINE
  5
17E
330
1F
100
AcDbEntity
  8
0
  6
Continuous
 62
     7
370
    15
100
AcDbLine
 10
832.7786878987
 20
1946.6719602515
 30
0.0
 11
832.7786878987
 21
1959.1719632317
 31
0.0
  0
LINE
  5
17F
330
1F
100
AcDbEntity
  8
0
  6
Continuous
 62
     7
370
    15
100
AcDbLine
 10
726.7786891504
 20
1410.1719682385
 30
0.0
 11
727.2786901637
 21
1409.6719448735
 31
0.0
  0
LINE
  5
180
330
1F
100
AcDbEntity
  8
0
  6
Continuous
 62
     7
370
    15
100
AcDbLine
 10
832.2786868855
 20
1409.6719448735
 30
0.0
 11
832.7786878987
 21
1410.1719682385
 31
0.0
  0
LINE
  5
181
330
1F
100
AcDbEntity
  8
0
  6
Continuous
 62
     7
370
    15
100
AcDbLine
 10
726.7786891504
 20
1422.6719563176
 30
0.0
 11
726.7786891504
 21
1410.1719682385
 31
0.0
  0
LINE
  5
182
330
1F
100
AcDbEntity
  8
0
  6
Continuous
 62
     7
370
    15
100
AcDbLine
 10
832.7786878987
 20
1410.1719682385
 30
0.0
 11
832.7786878987
 21
1422.6719563176
 31
0.0
  0
ARC
  5
183
330
1F
100
AcDbEntity
  8
0
  6
Continuous
 62
     7
370
    15
100
AcDbCircle
 10
779.7786885246
 20
2115.4803459813
 30
0.0
 40
23.00000000000004
100
AcDbArc
 50
6.955230191000001
 51
173.044769809
  0
ARC
  5
184
330
1F
100
AcDbEntity
  8
0
  6
Continuous
 62
     7
370
    15
100
AcDbCircle
 10
779.7786885246
 20
2115.4803459813
 30
0.0
 40
23.00000000000023
100
AcDbArc
 50
230.110849667
 51
309.889150333
  0
LINE
  5
185
330
1F
100
AcDbEntity
  8
0
  6
Continuous
 62
     7
370
    15
100
AcDbLine
 10
784.1084616563
 20
1409.6295063664
 30
0.0
 11
832.7786878987
 21
1409.6295063664
 31
0.0
  0
LINE
  5
186
330
1F
100
AcDbEntity
  8
0
  6
Continuous
 62
     7
370
    15
100
AcDbLine
 10
726.7786891504
 20
1409.6295063664
 30
0.0
 11
784.1084616563
 21
1409.6295063664
 31
0.0
  0
LINE
  5
187
330
1F
100
AcDbEntity
  8
0
  6
Continuous
 62
     7
370
    15
100
AcDbLine
 10
784.1084616563
 20
1960.5781411101
 30
0.0
 11
832.7786878987
 21
1960.5781411101
 31
0.0
  0
LINE
  5
188
330
1F
100
AcDbEntity
  8
0
  6
Continuous
 62
     7
370
    15
100
AcDbLine
 10
726.7786891504
 20
1960.5781411101
 30
0.0
 11
784.1084616563
 21
1960.5781411101
 31
0.0
  0
LINE
  5
189
330
1F
100
AcDbEntity
  8
0
  6
Continuous
 62
     7
370
    15
100
AcDbLine
 10
779.7786885246
 20
1966.4803420474
 30
0.0
 11
790.278688383
 21
1966.4803420474
 31
0.0
  0
LINE
  5
18A
330
1F
100
AcDbEntity
  8
0
  6
Continuous
 62
     7
370
    15
100
AcDbLine
 10
769.2786886662
 20
1966.4803420474
 30
0.0
 11
779.7786885246
 21
1966.4803420474
 31
0.0
  0
LINE
  5
18B
330
1F
100
AcDbEntity
  8
0
  6
Continuous
 62
     7
370
    15
100
AcDbLine
 10
779.7786885246
 20
1993.4803446104
 30
0.0
 11
787.7786889046
 21
1993.4803446104
 31
0.0
  0
LINE
  5
18C
330
1F
100
AcDbEntity
  8
0
  6
Continuous
 62
     7
370
    15
100
AcDbLine
 10
771.7786881446
 20
1993.4803446104
 30
0.0
 11
779.7786885246
 21
1993.4803446104
 31
0.0
  0
LINE
  5
18D
330
1F
100
AcDbEntity
  8
0
  6
Continuous
 62
     7
370
    15
100
AcDbLine
 10
772.5675858862
 20
1982.9419528415
 30
0.0
 11
772.1399113841
 21
1979.2459135224
 31
0.0
  0
LINE
  5
18E
330
1F
100
AcDbEntity
  8
0
  6
Continuous
 62
     7
370
    15
100
AcDbLine
 10
772.5675858862
 20
1982.9419528415
 30
0.0
 11
772.5675858862
 21
1984.7146992852
 31
0.0
  0
LINE
  5
18F
330
1F
100
AcDbEntity
  8
0
  6
Continuous
 62
     7
370
    15
100
AcDbLine
 10
772.1399113841
 20
1988.9450048377
 30
0.0
 11
772.5675858862
 21
1984.7146992852
 31
0.0
  0
SPLINE
  5
190
330
1F
100
AcDbEntity
  8
0
  6
Continuous
 62
     7
370
    15
100
AcDbSpline
210
0.0
220
0.0
230
1.0
 70
     8
 71
     3
 72
    11
 73
     7
 74
     0
 42
0.00000001
 43
0.00000001
 40
0.0
 40
0.0
 40
0.0
 40
0.0
 40
0.2349482098004316
 40
0.5321454807942366
 40
0.8349473141010672
 40
1.0
 40
1.0
 40
1.0
 40
1.0
 10
771.7358342676632
 20
1990.116087095917
 30
0.0
 10
771.7775885461535
 20
1990.073845177736
 30
0.0
 10
771.8721598162273
 20
1989.978169429112
 30
0.0
 10
772.0061066939429
 20
1989.648911867256
 30
0.0
 10
772.1014873995979
 20
1989.284434122708
 30
0.0
 10
772.1298909864634
 20
1989.033522893282
 30
0.0
 10
772.1399113840632
 20
1988.945004837693
 30
0.0
  0
SPLINE
  5
191
330
1F
100
AcDbEntity
  8
0
  6
Continuous
 62
     7
370
    15
100
AcDbSpline
210
0.0
220
0.0
230
1.0
 70
     8
 71
     3
 72
    12
 73
     8
 74
     0
 42
0.00000001
 43
0.00000001
 40
0.0
 40
0.0
 40
0.0
 40
0.0
 40
0.2144744098575952
 40
0.4297291907367511
 40
0.6452535656951214
 40
0.8752491800223188
 40
1.0
 40
1.0
 40
1.0
 40
1.0
 10
772.1399113840632
 20
1979.245913522423
 30
0.0
 10
772.1259895510675
 20
1979.151132216098
 30
0.0
 10
772.0980952301048
 20
1978.961224739067
 30
0.0
 10
772.0100432081542
 20
1978.737062497416
 30
0.0
 10
771.9041443754928
 20
1978.587070377214
 30
0.0
 10
771.8086909825412
 20
1978.531852970276
 30
0.0
 10
771.7547894021103
 20
1978.541982037649
 30
0.0
 10
771.7358342676632
 20
1978.545544045151
 30
0.0
  0
SPLINE
  5
192
330
1F
100
AcDbEntity
  8
0
  6
Continuous
 62
     7
370
    15
100
AcDbSpline
210
0.0
220
0.0
230
1.0
 70
     8
 71
     3
 72
    11
 73
     7
 74
     0
 42
0.00000001
 43
0.00000001
 40
0.0
 40
0.0
 40
0.0
 40
0.0
 40
0.3056700178231845
 40
0.617081756961798
 40
0.870722910623543
 40
1.0
 40
1.0
 40
1.0
 40
1.0
 10
787.417465665119
 20
1988.945004837693
 30
0.0
 10
787.4393850373286
 20
1989.107742392595
 30
0.0
 10
787.4836355163609
 20
1989.436274372989
 30
0.0
 10
787.6125723143715
 20
1989.812833147304
 30
0.0
 10
787.7311713372741
 20
1990.03874031771
 30
0.0
 10
787.7987332076409
 20
1990.096564921999
 30
0.0
 10
787.8215427815192
 20
1990.116087095917
 30
0.0
  0
LINE
  5
193
330
1F
100
AcDbEntity
  8
0
  6
Continuous
 62
     7
370
    15
100
AcDbLine
 10
786.989791163
 20
1984.7146992852
 30
0.0
 11
787.4174656651
 21
1988.9450048377
 31
0.0
  0
LINE
  5
194
330
1F
100
AcDbEntity
  8
0
  6
Continuous
 62
     7
370
    15
100
AcDbLine
 10
786.989791163
 20
1984.7146992852
 30
0.0
 11
786.989791163
 21
1982.9419528415
 31
0.0
  0
LINE
  5
195
330
1F
100
AcDbEntity
  8
0
  6
Continuous
 62
     7
370
    15
100
AcDbLine
 10
787.4174656651
 20
1979.2459135224
 30
0.0
 11
786.989791163
 21
1982.9419528415
 31
0.0
  0
SPLINE
  5
196
330
1F
100
AcDbEntity
  8
0
  6
Continuous
 62
     7
370
    15
100
AcDbSpline
210
0.0
220
0.0
230
1.0
 70
     8
 71
     3
 72
    12
 73
     8
 74
     0
 42
0.00000001
 43
0.00000001
 40
0.0
 40
0.0
 40
0.0
 40
0.0
 40
0.25432354342612
 40
0.5094505830162561
 40
0.7479854665998061
 40
0.9668394494918562
 40
1.0
 40
1.0
 40
1.0
 40
1.0
 10
787.8215427815192
 20
1978.545544045151
 30
0.0
 10
787.7818899449888
 20
1978.543550882008
 30
0.0
 10
787.7024589948832
 20
1978.539558258628
 30
0.0
 10
787.5765022852124
 20
1978.680065476132
 30
0.0
 10
787.4755389703589
 20
1978.909594188084
 30
0.0
 10
787.4313914038833
 20
1979.118302167529
 30
0.0
 10
787.4190849691528
 20
1979.231074698774
 30
0.0
 10
787.417465665119
 20
1979.245913522423
 30
0.0
  0
LINE
  5
197
330
1F
100
AcDbEntity
  8
0
  6
Continuous
 62
     7
370
    15
100
AcDbLine
 10
755.3207774951
 20
2107.4803456013
 30
0.0
 11
758.9520563676
 21
2107.4803456013
 31
0.0
  0
ARC
  5
198
330
1F
100
AcDbEntity
  8
0
  6
Continuous
 62
     7
370
    15
100
AcDbCircle
 10
779.7786885246
 20
2107.4803459813
 30
0.0
 40
24.45791169081781
100
AcDbArc
 50
0.0
 51
180.0
  0
LINE
  5
199
330
1F
100
AcDbEntity
  8
0
  6
Continuous
 62
     7
370
    15
100
AcDbLine
 10
804.236599554
 20
2107.4803456013
 30
0.0
 11
800.6053206816
 21
2107.4803456013
 31
0.0
  0
ARC
  5
19A
330
1F
100
AcDbEntity
  8
0
  6
Continuous
 62
     7
370
    15
100
AcDbCircle
 10
779.7786885246
 20
2107.4803459813
 30
0.0
 40
20.82663165315694
100
AcDbArc
 50
0.0
 51
54.9358218983
  0
ARC
  5
19B
330
1F
100
AcDbEntity
  8
0
  6
Continuous
 62
     7
370
    15
100
AcDbCircle
 10
779.7786885246
 20
2107.4803459813
 30
0.0
 40
20.82663165315671
100
AcDbArc
 50
125.0641781017
 51
180.0
  0
LINE
  5
19C
330
1F
100
AcDbEntity
  8
0
  6
Continuous
 62
     7
370
    15
100
AcDbLine
 10
758.9520563676
 20
2002.4803479483
 30
0.0
 11
758.9520563676
 21
2107.4803456013
 31
0.0
  0
LINE
  5
19D
330
1F
100
AcDbEntity
  8
0
  6
Continuous
 62
     7
370
    15
100
AcDbLine
 10
800.6053206816
 20
2107.4803456013
 30
0.0
 11
800.6053206816
 21
2002.4803479483
 31
0.0
  0
ARC
  5
19E
330
1F
100
AcDbEntity
  8
0
  6
Continuous
 62
     7
370
    15
100
AcDbCircle
 10
779.7786885246
 20
2002.4803459813
 30
0.0
 40
20.82663165315694
100
AcDbArc
 50
290.2577711336
 51
0.0
  0
ARC
  5
19F
330
1F
100
AcDbEntity
  8
0
  6
Continuous
 62
     7
370
    15
100
AcDbCircle
 10
779.7786885246
 20
2002.4803459813
 30
0.0
 40
19.17336834684329
100
AcDbArc
 50
292.0923117353
 51
0.0
  0
LINE
  5
1A0
330
1F
100
AcDbEntity
  8
0
  6
Continuous
 62
     7
370
    15
100
AcDbLine
 10
798.9520573362
 20
2107.4803456013
 30
0.0
 11
798.9520573362
 21
2002.4803479483
 31
0.0
  0
ARC
  5
1A1
330
1F
100
AcDbEntity
  8
0
  6
Continuous
 62
     7
370
    15
100
AcDbCircle
 10
779.7786885246
 20
2107.4803459813
 30
0.0
 40
19.17336834684329
100
AcDbArc
 50
0.0
 51
42.3392493455
  0
ARC
  5
1A2
330
1F
100
AcDbEntity
  8
0
  6
Continuous
 62
     7
370
    15
100
AcDbCircle
 10
779.7786885246
 20
2107.4803459813
 30
0.0
 40
19.17336834684306
100
AcDbArc
 50
137.6607506545
 51
180.0
  0
LINE
  5
1A3
330
1F
100
AcDbEntity
  8
0
  6
Continuous
 62
     7
370
    15
100
AcDbLine
 10
760.605319713
 20
2002.4803479483
 30
0.0
 11
760.605319713
 21
2107.4803456013
 31
0.0
  0
ARC
  5
1A4
330
1F
100
AcDbEntity
  8
0
  6
Continuous
 62
     7
370
    15
100
AcDbCircle
 10
779.7786885246
 20
2002.4803459813
 30
0.0
 40
19.17336834684306
100
AcDbArc
 50
180.0
 51
247.9076882647
  0
ARC
  5
1A5
330
1F
100
AcDbEntity
  8
0
  6
Continuous
 62
     7
370
    15
100
AcDbCircle
 10
779.7786885246
 20
2002.4803459813
 30
0.0
 40
20.82663165315671
100
AcDbArc
 50
180.0
 51
249.7422288664
  0
LINE
  5
1A6
330
1F
100
AcDbEntity
  8
0
  6
Continuous
 62
     7
370
    15
100
AcDbLine
 10
760.605319713
 20
2107.4803456013
 30
0.0
 11
764.2366004481
 21
2107.4803456013
 31
0.0
  0
LINE
  5
1A7
330
1F
100
AcDbEntity
  8
0
  6
Continuous
 62
     7
370
    15
100
AcDbLine
 10
798.9520573362
 20
2107.4803456013
 30
0.0
 11
795.3207766011
 21
2107.4803456013
 31
0.0
  0
LINE
  5
1A8
330
1F
100
AcDbEntity
  8
0
  6
Continuous
 62
     7
370
    15
100
AcDbLine
 10
804.236599554
 20
2107.4803456013
 30
0.0
 11
804.236599554
 21
2002.4803479483
 31
0.0
  0
LINE
  5
1A9
330
1F
100
AcDbEntity
  8
0
  6
Continuous
 62
     7
370
    15
100
AcDbLine
 10
804.236599554
 20
2002.4803479483
 30
0.0
 11
800.6053206816
 21
2002.4803479483
 31
0.0
  0
LINE
  5
1AA
330
1F
100
AcDbEntity
  8
0
  6
Continuous
 62
     7
370
    15
100
AcDbLine
 10
798.9520573362
 20
2002.4803479483
 30
0.0
 11
795.3207766011
 21
2002.4803479483
 31
0.0
  0
LINE
  5
1AB
330
1F
100
AcDbEntity
  8
0
  6
Continuous
 62
     7
370
    15
100
AcDbLine
 10
795.3207766011
 20
2107.4803456013
 30
0.0
 11
795.3207766011
 21
2002.4803479483
 31
0.0
  0
LINE
  5
1AC
330
1F
100
AcDbEntity
  8
0
  6
Continuous
 62
     7
370
    15
100
AcDbLine
 10
764.2366004481
 20
2002.4803479483
 30
0.0
 11
764.2366004481
 21
2107.4803456013
 31
0.0
  0
LINE
  5
1AD
330
1F
100
AcDbEntity
  8
0
  6
Continuous
 62
     7
370
    15
100
AcDbLine
 10
760.605319713
 20
2002.4803479483
 30
0.0
 11
764.2366004481
 21
2002.4803479483
 31
0.0
  0
LINE
  5
1AE
330
1F
100
AcDbEntity
  8
0
  6
Continuous
 62
     7
370
    15
100
AcDbLine
 10
755.3207774951
 20
2002.4803479483
 30
0.0
 11
755.3207774951
 21
2107.4803456013
 31
0.0
  0
LINE
  5
1AF
330
1F
100
AcDbEntity
  8
0
  6
Continuous
 62
     7
370
    15
100
AcDbLine
 10
755.3207774951
 20
2002.4803479483
 30
0.0
 11
758.9520563676
 21
2002.4803479483
 31
0.0
  0
ARC
  5
1B0
330
1F
100
AcDbEntity
  8
0
  6
Continuous
 62
     7
370
    15
100
AcDbCircle
 10
779.7786885246
 20
2002.4803459813
 30
0.0
 40
24.45791169081781
100
AcDbArc
 50
288.19930271
 51
0.0
  0
ARC
  5
1B1
330
1F
100
AcDbEntity
  8
0
  6
Continuous
 62
     7
370
    15
100
AcDbCircle
 10
779.7786885246
 20
2002.4803459813
 30
0.0
 40
15.5420883091823
100
AcDbArc
 50
299.4385456103
 51
0.0
  0
ARC
  5
1B2
330
1F
100
AcDbEntity
  8
0
  6
Continuous
 62
     7
370
    15
100
AcDbCircle
 10
779.7786885246
 20
2002.4803459813
 30
0.0
 40
15.54208830918208
100
AcDbArc
 50
180.0
 51
240.5614543897
  0
ARC
  5
1B3
330
1F
100
AcDbEntity
  8
0
  6
Continuous
 62
     7
370
    15
100
AcDbCircle
 10
779.7786885246
 20
2002.4803459813
 30
0.0
 40
24.4579116908177
100
AcDbArc
 50
180.0
 51
251.80069729
  0
LINE
  5
1B4
330
1F
100
AcDbEntity
  8
0
  6
Continuous
 62
     7
370
    15
100
AcDbLine
 10
795.3207766011
 20
2107.4803456013
 30
0.0
 11
794.528688614
 21
2107.4803456013
 31
0.0
  0
ARC
  5
1B5
330
1F
100
AcDbEntity
  8
0
  6
Continuous
 62
     7
370
    15
100
AcDbCircle
 10
779.7786885246
 20
2107.4803459813
 30
0.0
 40
14.75000000000005
100
AcDbArc
 50
0.0
 51
13.8671593465
  0
LINE
  5
1B6
330
1F
100
AcDbEntity
  8
0
  6
Continuous
 62
     7
370
    15
100
AcDbLine
 10
764.2366004481
 20
2107.4803456013
 30
0.0
 11
765.0286884352
 21
2107.4803456013
 31
0.0
  0
ARC
  5
1B7
330
1F
100
AcDbEntity
  8
0
  6
Continuous
 62
     7
370
    15
100
AcDbCircle
 10
779.7786885246
 20
2107.4803459813
 30
0.0
 40
14.74999999999989
100
AcDbArc
 50
166.1328406535
 51
180.0
  0
ARC
  5
1B8
330
1F
100
AcDbEntity
  8
0
  6
Continuous
 62
     7
370
    15
100
AcDbCircle
 10
779.7786885246
 20
2002.4803459813
 30
0.0
 40
14.75
100
AcDbArc
 50
303.0436793099
 51
0.0
  0
LINE
  5
1B9
330
1F
100
AcDbEntity
  8
0
  6
Continuous
 62
     7
370
    15
100
AcDbLine
 10
795.3207766011
 20
2002.4803479483
 30
0.0
 11
794.528688614
 21
2002.4803479483
 31
0.0
  0
LINE
  5
1BA
330
1F
100
AcDbEntity
  8
0
  6
Continuous
 62
     7
370
    15
100
AcDbLine
 10
764.2366004481
 20
2002.4803479483
 30
0.0
 11
765.0286884352
 21
2002.4803479483
 31
0.0
  0
ARC
  5
1BB
330
1F
100
AcDbEntity
  8
0
  6
Continuous
 62
     7
370
    15
100
AcDbCircle
 10
779.7786885246
 20
2002.4803459813
 30
0.0
 40
14.75000000000004
100
AcDbArc
 50
180.0
 51
236.9563206901
  0
LINE
  5
1BC
330
1F
100
AcDbEntity
  8
0
  6
Continuous
 62
     7
370
    15
100
AcDbLine
 10
805.0286894038
 20
2002.4803479483
 30
0.0
 11
804.236599554
 21
2002.4803479483
 31
0.0
  0
ARC
  5
1BD
330
1F
100
AcDbEntity
  8
0
  6
Continuous
 62
     7
370
    15
100
AcDbCircle
 10
779.7786885246
 20
2002.4803459813
 30
0.0
 40
25.25000000000011
100
AcDbArc
 50
288.5739804965
 51
0.0
  0
ARC
  5
1BE
330
1F
100
AcDbEntity
  8
0
  6
Continuous
 62
     7
370
    15
100
AcDbCircle
 10
779.7786885246
 20
2002.4803459813
 30
0.0
 40
25.25
100
AcDbArc
 50
180.0
 51
251.4260195035
  0
LINE
  5
1BF
330
1F
100
AcDbEntity
  8
0
  6
Continuous
 62
     7
370
    15
100
AcDbLine
 10
754.5286876454
 20
2002.4803479483
 30
0.0
 11
755.3207774951
 21
2002.4803479483
 31
0.0
  0
LINE
  5
1C0
330
1F
100
AcDbEntity
  8
0
  6
Continuous
 62
     7
370
    15
100
AcDbLine
 10
754.5286876454
 20
2107.4803456013
 30
0.0
 11
755.3207774951
 21
2107.4803456013
 31
0.0
  0
ARC
  5
1C1
330
1F
100
AcDbEntity
  8
0
  6
Continuous
 62
     7
370
    15
100
AcDbCircle
 10
779.7786885246
 20
2107.4803459813
 30
0.0
 40
25.25000000000011
100
AcDbArc
 50
0.0
 51
180.0
  0
LINE
  5
1C2
330
1F
100
AcDbEntity
  8
0
  6
Continuous
 62
     7
370
    15
100
AcDbLine
 10
805.0286894038
 20
2107.4803456013
 30
0.0
 11
804.236599554
 21
2107.4803456013
 31
0.0
  0
LINE
  5
1C3
330
1F
100
AcDbEntity
  8
0
  6
Continuous
 62
     7
370
    15
100
AcDbLine
 10
805.0286894038
 20
2107.4803456013
 30
0.0
 11
805.0286894038
 21
2002.4803479483
 31
0.0
  0
LINE
  5
1C4
330
1F
100
AcDbEntity
  8
0
  6
Continuous
 62
     7
370
    15
100
AcDbLine
 10
794.528688614
 20
2107.4803456013
 30
0.0
 11
794.528688614
 21
2002.4803479483
 31
0.0
  0
LINE
  5
1C5
330
1F
100
AcDbEntity
  8
0
  6
Continuous
 62
     7
370
    15
100
AcDbLine
 10
765.0286884352
 20
2002.4803479483
 30
0.0
 11
765.0286884352
 21
2107.4803456013
 31
0.0
  0
LINE
  5
1C6
330
1F
100
AcDbEntity
  8
0
  6
Continuous
 62
     7
370
    15
100
AcDbLine
 10
754.5286876454
 20
2002.4803479483
 30
0.0
 11
754.5286876454
 21
2107.4803456013
 31
0.0
  0
LINE
  5
1C7
330
1F
100
AcDbEntity
  8
0
  6
Continuous
 62
     7
370
    15
100
AcDbLine
 10
810.2779121443
 20
1408.129495876
 30
0.0
 11
721.7786901935
 21
1408.129495876
 31
0.0
  0
LINE
  5
1C8
330
1F
100
AcDbEntity
  8
0
  6
Continuous
 62
     7
370
    15
100
AcDbLine
 10
837.7786868557
 20
1408.129495876
 30
0.0
 11
810.2779121443
 21
1408.129495876
 31
0.0
  0
LINE
  5
1C9
330
1F
100
AcDbEntity
  8
0
  6
Continuous
 62
     7
370
    15
100
AcDbLine
 10
810.2779121443
 20
1406.1294620206
 30
0.0
 11
837.7786868557
 21
1406.1294620206
 31
0.0
  0
LINE
  5
1CA
330
1F
100
AcDbEntity
  8
0
  6
Continuous
 62
     7
370
    15
100
AcDbLine
 10
721.7786901935
 20
1406.1294620206
 30
0.0
 11
810.2779121443
 21
1406.1294620206
 31
0.0
  0
LINE
  5
1CB
330
1F
100
AcDbEntity
  8
0
  6
Continuous
 62
     7
370
    15
100
AcDbLine
 10
809.7520632043
 20
1405.1294748952
 30
0.0
 11
722.7786884948
 21
1405.1294748952
 31
0.0
  0
LINE
  5
1CC
330
1F
100
AcDbEntity
  8
0
  6
Continuous
 62
     7
370
    15
100
AcDbLine
 10
836.7786885544
 20
1405.1294748952
 30
0.0
 11
809.7520632043
 21
1405.1294748952
 31
0.0
  0
LINE
  5
1CD
330
1F
100
AcDbEntity
  8
0
  6
Continuous
 62
     7
370
    15
100
AcDbLine
 10
779.7786885246
 20
1965.0781427791
 30
0.0
 11
836.7786885544
 21
1965.0781427791
 31
0.0
  0
LINE
  5
1CE
330
1F
100
AcDbEntity
  8
0
  6
Continuous
 62
     7
370
    15
100
AcDbLine
 10
722.7786884948
 20
1965.0781427791
 30
0.0
 11
779.7786885246
 21
1965.0781427791
 31
0.0
  0
LINE
  5
1CF
330
1F
100
AcDbEntity
  8
0
  6
Continuous
 62
     7
370
    15
100
AcDbLine
 10
779.7786885246
 20
1964.0781407525
 30
0.0
 11
721.7786901935
 21
1964.0781407525
 31
0.0
  0
LINE
  5
1D0
330
1F
100
AcDbEntity
  8
0
  6
Continuous
 62
     7
370
    15
100
AcDbLine
 10
837.7786868557
 20
1964.0781407525
 30
0.0
 11
779.7786885246
 21
1964.0781407525
 31
0.0
  0
LINE
  5
1D1
330
1F
100
AcDbEntity
  8
0
  6
Continuous
 62
     7
370
    15
100
AcDbLine
 10
779.7786885246
 20
1962.0781366994
 30
0.0
 11
837.7786868557
 21
1962.0781366994
 31
0.0
  0
LINE
  5
1D2
330
1F
100
AcDbEntity
  8
0
  6
Continuous
 62
     7
370
    15
100
AcDbLine
 10
721.7786901935
 20
1962.0781366994
 30
0.0
 11
779.7786885246
 21
1962.0781366994
 31
0.0
  0
LINE
  5
1D3
330
1F
100
AcDbEntity
  8
0
  6
Continuous
 62
     7
370
    15
100
AcDbLine
 10
727.2786901637
 20
1959.6719567944
 30
0.0
 11
832.2786868855
 21
1959.6719567944
 31
0.0
  0
LINE
  5
1D4
330
1F
100
AcDbEntity
  8
0
  6
Continuous
 62
     7
370
    15
100
AcDbLine
 10
832.7786878987
 20
1959.1719632317
 30
0.0
 11
726.7786891504
 21
1959.1719632317
 31
0.0
  0
LINE
  5
1D5
330
1F
100
AcDbEntity
  8
0
  6
Continuous
 62
     7
370
    15
100
AcDbLine
 10
779.7786885246
 20
1410.1719682385
 30
0.0
 11
832.7786878987
 21
1410.1719682385
 31
0.0
  0
LINE
  5
1D6
330
1F
100
AcDbEntity
  8
0
  6
Continuous
 62
     7
370
    15
100
AcDbLine
 10
726.7786891504
 20
1410.1719682385
 30
0.0
 11
779.7786885246
 21
1410.1719682385
 31
0.0
  0
LINE
  5
1D7
330
1F
100
AcDbEntity
  8
0
  6
Continuous
 62
     7
370
    15
100
AcDbLine
 10
779.7786885246
 20
1409.6719448735
 30
0.0
 11
727.2786901637
 21
1409.6719448735
 31
0.0
  0
LINE
  5
1D8
330
1F
100
AcDbEntity
  8
0
  6
Continuous
 62
     7
370
    15
100
AcDbLine
 10
832.2786868855
 20
1409.6719448735
 30
0.0
 11
779.7786885246
 21
1409.6719448735
 31
0.0
  0
CIRCLE
  5
1D9
330
1F
100
AcDbEntity
  8
0
  6
Continuous
 62
     7
370
    15
100
AcDbCircle
 10
779.7786885246
 20
2115.4803459813
 30
0.0
 40
15.00000000000009
  0
ARC
  5
1DA
330
1F
100
AcDbEntity
  8
0
  6
Continuous
 62
     7
370
    15
100
AcDbCircle
 10
779.7786885246
 20
2115.4803459813
 30
0.0
 40
95.00000000000018
100
AcDbArc
 50
285.413868722
 51
180.0
  0
ARC
  5
1DB
330
1F
100
AcDbEntity
  8
0
  6
Continuous
 62
     7
370
    15
100
AcDbCircle
 10
779.7786885246
 20
2115.4803459813
 30
0.0
 40
95.00000000000018
100
AcDbArc
 50
261.0679411383
 51
278.9320588617
  0
ARC
  5
1DC
330
1F
100
AcDbEntity
  8
0
  6
Continuous
 62
     7
370
    15
100
AcDbCircle
 10
779.7786885246
 20
2115.4803459813
 30
0.0
 40
95.00000000000034
100
AcDbArc
 50
180.0
 51
254.586131278
  0
LINE
  5
1DD
330
1F
100
AcDbEntity
  8
0
  6
Continuous
 62
     8
370
    15
100
AcDbLine
 10
779.7786885246
 20
1968.4803461005
 30
0.0
 11
788.2786889865
 21
1968.4803461005
 31
0.0
  0
LINE
  5
1DE
330
1F
100
AcDbEntity
  8
0
  6
Continuous
 62
     8
370
    15
100
AcDbLine
 10
771.2786880627
 20
1968.4803461005
 30
0.0
 11
779.7786885246
 21
1968.4803461005
 31
0.0
  0
LINE
  5
1DF
330
1F
100
AcDbEntity
  8
0
  6
Continuous
 62
     8
370
    15
100
AcDbLine
 10
779.7786885246
 20
1992.9803435971
 30
0.0
 11
771.2786880627
 21
1992.9803435971
 31
0.0
  0
LINE
  5
1E0
330
1F
100
AcDbEntity
  8
0
  6
Continuous
 62
     8
370
    15
100
AcDbLine
 10
788.2786889865
 20
1992.9803435971
 30
0.0
 11
779.7786885246
 21
1992.9803435971
 31
0.0
  0
ARC
  5
1E1
330
1F
100
AcDbEntity
  8
0
  6
Continuous
 62
     8
370
    15
100
AcDbCircle
 10
779.7786885246
 20
2107.4803459813
 30
0.0
 40
15.5420883091823
100
AcDbArc
 50
0.0
 51
18.9016704487
  0
ARC
  5
1E2
330
1F
100
AcDbEntity
  8
0
  6
Continuous
 62
     8
370
    15
100
AcDbCircle
 10
779.7786885246
 20
2107.4803459813
 30
0.0
 40
15.54208830918219
100
AcDbArc
 50
161.0983295513
 51
180.0
  0
DIMENSION
  5
1F3
330
1F
100
AcDbEntity
  8
0
  6
Continuous
 62
     7
370
     0
100
AcDbDimension
  2
_D_4
 10
823.5191518262
 20
2031.1490239819
 30
0.0
 11
612.0555238299
 21
2283.203510676
 31
0.0
 70
    35
  1
<>
 71
     1
 42
-1.0
 73
     0
 74
     0
 75
     0
  3
SLDDIMSTYLE3
100
AcDbDiametricDimension
 15
736.038225223
 25
2199.8116679807
 35
0.0
 40
0.0
  0
DIMENSION
  5
201
330
1F
100
AcDbEntity
  8
0
  6
Continuous
 62
     7
370
     0
100
AcDbDimension
  2
_D_5
 10
644.7786885246
 20
1305.1294900843
 30
0.0
 11
752.941520482
 21
1305.1294900843
 31
0.0
 70
    32
  1
%%c<>
 71
     2
 42
-1.0
 73
     0
 74
     0
 75
     0
  3
SLDDIMSTYLE4
100
AcDbAlignedDimension
 13
914.7786885245
 23
1550.271330789
 33
0.0
 14
644.7786885246
 24
1550.271330789
 34
0.0
100
AcDbRotatedDimension
  0
ENDSEC
  0
SECTION
  2
OBJECTS
  0
DICTIONARY
  5
C
330
0
100
AcDbDictionary
281
     1
  3
ACAD_COLOR
350
6C
  3
ACAD_GROUP
350
D
  3
ACAD_LAYOUT
350
1A
  3
ACAD_MATERIAL
350
6B
  3
ACAD_MLEADERSTYLE
350
275
  3
ACAD_MLINESTYLE
350
17
  3
ACAD_PLOTSETTINGS
350
19
  3
ACAD_PLOTSTYLENAME
350
E
  3
ACAD_SCALELIST
350
99
  3
ACAD_TABLESTYLE
350
92
  3
AcDbVariableDictionary
350
59
  0
DICTIONARY
  5
274
330
1F
100
AcDbDictionary
280
     1
281
     1
  0
DICTIONARY
  5
6C
102
{ACAD_REACTORS
330
C
102
}
330
C
100
AcDbDictionary
281
     1
  0
DICTIONARY
  5
D
102
{ACAD_REACTORS
330
C
102
}
330
C
100
AcDbDictionary
281
     1
  0
DICTIONARY
  5
1A
102
{ACAD_REACTORS
330
C
102
}
330
C
100
AcDbDictionary
281
     1
  3
Layout1
350
74
  3
Layout2
350
26
  3
Model
350
22
  0
DICTIONARY
  5
6B
102
{ACAD_REACTORS
330
C
102
}
330
C
100
AcDbDictionary
281
     1
  0
DICTIONARY
  5
275
102
{ACAD_REACTORS
330
C
102
}
330
C
100
AcDbDictionary
281
     1
  0
DICTIONARY
  5
17
102
{ACAD_REACTORS
330
C
102
}
330
C
100
AcDbDictionary
281
     1
  3
Standard
350
18
  0
DICTIONARY
  5
19
102
{ACAD_REACTORS
330
C
102
}
330
C
100
AcDbDictionary
281
     1
  0
ACDBDICTIONARYWDFLT
  5
E
102
{ACAD_REACTORS
330
C
102
}
330
C
100
AcDbDictionary
281
     1
  3
Normal
350
F
100
AcDbDictionaryWithDefault
340
F
  0
DICTIONARY
  5
99
102
{ACAD_REACTORS
330
C
102
}
330
C
100
AcDbDictionary
281
     1
  3
A0
350
210
  3
A1
350
211
  3
A2
350
212
  3
A3
350
213
  3
A4
350
214
  3
A5
350
215
  3
A6
350
216
  3
A7
350
217
  3
A8
350
218
  3
A9
350
219
  3
B0
350
21A
  3
B1
350
21B
  3
B2
350
21C
  3
B3
350
21D
  3
B4
350
21E
  3
B5
350
21F
  3
B6
350
220
  3
B7
350
221
  3
B8
350
222
  3
B9
350
223
  3
C0
350
224
  3
C1
350
225
  3
C2
350
226
  3
C3
350
227
  3
C4
350
228
  3
C5
350
229
  3
C6
350
22A
  3
C7
350
22B
  3
C8
350
22C
  3
C9
350
22D
  3
D0
350
22E
  3
D1
350
22F
  3
D2
350
230
  0
DICTIONARY
  5
92
102
{ACAD_REACTORS
330
C
102
}
330
C
100
AcDbDictionary
281
     1
  3
Standard
350
93
  0
DICTIONARY
  5
59
102
{ACAD_REACTORS
330
C
102
}
330
C
100
AcDbDictionary
281
     1
  3
CANNOSCALE
350
276
  3
CTABLESTYLE
350
98
  3
DIMASSOC
350
233
  3
HIDETEXT
350
5E
  0
LAYOUT
  5
74
102
{ACAD_REACTORS
330
1A
102
}
330
1A
100
AcDbPlotSettings
  1

  2
none_device
  4
ISO_C5_(229.00_x_162.00_MM)
  6

 40
0.0
 41
0.0
 42
0.0
 43
0.0
 44
229.0
 45
162.0
 46
0.0
 47
0.0
 48
0.0
 49
0.0
140
0.0
141
0.0
142
1.0
143
1.0
 70
   688
 72
     1
 73
     0
 74
     5
  7

 75
    16
 76
     0
 77
     2
 78
   300
147
1.0
148
0.0
149
0.0
100
AcDbLayout
  1
Layout1
 70
     1
 71
     1
 10
0.0
 20
0.0
 11
420.0
 21
297.0
 12
0.0
 22
0.0
 32
0.0
 14
1.000000000000000E+20
 24
1.000000000000000E+20
 34
1.000000000000000E+20
 15
-1.000000000000000E+20
 25
-1.000000000000000E+20
 35
-1.000000000000000E+20
146
0.0
 13
0.0
 23
0.0
 33
0.0
 16
1.0
 26
0.0
 36
0.0
 17
0.0
 27
1.0
 37
0.0
 76
     0
330
73
  0
LAYOUT
  5
26
102
{ACAD_REACTORS
330
1A
102
}
330
1A
100
AcDbPlotSettings
  1

  2
none_device
  4
ISO_C5_(229.00_x_162.00_MM)
  6

 40
0.0
 41
0.0
 42
0.0
 43
0.0
 44
229.0
 45
162.0
 46
0.0
 47
0.0
 48
0.0
 49
0.0
140
0.0
141
0.0
142
1.0
143
1.0
 70
   688
 72
     1
 73
     0
 74
     5
  7

 75
    16
 76
     0
 77
     2
 78
   300
147
1.0
148
0.0
149
0.0
100
AcDbLayout
  1
Layout2
 70
     1
 71
     2
 10
0.0
 20
0.0
 11
0.0
 21
0.0
 12
0.0
 22
0.0
 32
0.0
 14
0.0
 24
0.0
 34
0.0
 15
0.0
 25
0.0
 35
0.0
146
0.0
 13
0.0
 23
0.0
 33
0.0
 16
1.0
 26
0.0
 36
0.0
 17
0.0
 27
1.0
 37
0.0
 76
     0
330
23
  0
LAYOUT
  5
22
102
{ACAD_REACTORS
330
1A
102
}
330
1A
100
AcDbPlotSettings
  1

  2
none_device
  4
ISO_C5_(229.00_x_162.00_MM)
  6

 40
0.0
 41
0.0
 42
0.0
 43
0.0
 44
229.0
 45
162.0
 46
0.0
 47
0.0
 48
0.0
 49
0.0
140
0.0
141
0.0
142
1.0
143
1.0
 70
 11952
 72
     1
 73
     0
 74
     0
  7

 75
    16
 76
     0
 77
     2
 78
   300
147
1.0
148
0.0
149
0.0
100
AcDbLayout
  1
Model
 70
     1
 71
     0
 10
0.0
 20
0.0
 11
2100.0
 21
2970.0
 12
0.0
 22
0.0
 32
0.0
 14
176.8264998564
 24
49.9980727422
 34
-172.5876206872
 15
2049.4323743066
 25
2919.9980727422
 35
0.1
146
0.0
 13
0.0
 23
0.0
 33
0.0
 16
1.0
 26
0.0
 36
0.0
 17
0.0
 27
1.0
 37
0.0
 76
     0
330
1F
331
97
  0
MLINESTYLE
  5
18
102
{ACAD_REACTORS
330
17
102
}
330
17
100
AcDbMlineStyle
  2
Standard
 70
     0
  3

 62
   256
 51
90.0
 52
90.0
 71
     2
 49
0.5
 62
   256
  6
BYLAYER
 49
-0.5
 62
   256
  6
BYLAYER
  0
ACDBPLACEHOLDER
  5
F
102
{ACAD_REACTORS
330
E
102
}
330
E
  0
SCALE
  5
210
102
{ACAD_REACTORS
330
99
102
}
330
99
100
AcDbScale
 70
     0
300
1:1
140
1.0
141
1.0
290
     1
  0
SCALE
  5
211
102
{ACAD_REACTORS
330
99
102
}
330
99
100
AcDbScale
 70
     0
300
1:2
140
1.0
141
2.0
290
     0
  0
SCALE
  5
212
102
{ACAD_REACTORS
330
99
102
}
330
99
100
AcDbScale
 70
     0
300
1:4
140
1.0
141
4.0
290
     0
  0
SCALE
  5
213
102
{ACAD_REACTORS
330
99
102
}
330
99
100
AcDbScale
 70
     0
300
1:5
140
1.0
141
5.0
290
     0
  0
SCALE
  5
214
102
{ACAD_REACTORS
330
99
102
}
330
99
100
AcDbScale
 70
     0
300
1:8
140
1.0
141
8.0
290
     0
  0
SCALE
  5
215
102
{ACAD_REACTORS
330
99
102
}
330
99
100
AcDbScale
 70
     0
300
1:10
140
1.0
141
10.0
290
     0
  0
SCALE
  5
216
102
{ACAD_REACTORS
330
99
102
}
330
99
100
AcDbScale
 70
     0
300
1:16
140
1.0
141
16.0
290
     0
  0
SCALE
  5
217
102
{ACAD_REACTORS
330
99
102
}
330
99
100
AcDbScale
 70
     0
300
1:20
140
1.0
141
20.0
290
     0
  0
SCALE
  5
218
102
{ACAD_REACTORS
330
99
102
}
330
99
100
AcDbScale
 70
     0
300
1:30
140
1.0
141
30.0
290
     0
  0
SCALE
  5
219
102
{ACAD_REACTORS
330
99
102
}
330
99
100
AcDbScale
 70
     0
300
1:40
140
1.0
141
40.0
290
     0
  0
SCALE
  5
21A
102
{ACAD_REACTORS
330
99
102
}
330
99
100
AcDbScale
 70
     0
300
1:50
140
1.0
141
50.0
290
     0
  0
SCALE
  5
21B
102
{ACAD_REACTORS
330
99
102
}
330
99
100
AcDbScale
 70
     0
300
1:100
140
1.0
141
100.0
290
     0
  0
SCALE
  5
21C
102
{ACAD_REACTORS
330
99
102
}
330
99
100
AcDbScale
 70
     0
300
2:1
140
2.0
141
1.0
290
     0
  0
SCALE
  5
21D
102
{ACAD_REACTORS
330
99
102
}
330
99
100
AcDbScale
 70
     0
300
4:1
140
4.0
141
1.0
290
     0
  0
SCALE
  5
21E
102
{ACAD_REACTORS
330
99
102
}
330
99
100
AcDbScale
 70
     0
300
8:1
140
8.0
141
1.0
290
     0
  0
SCALE
  5
21F
102
{ACAD_REACTORS
330
99
102
}
330
99
100
AcDbScale
 70
     0
300
10:1
140
10.0
141
1.0
290
     0
  0
SCALE
  5
220
102
{ACAD_REACTORS
330
99
102
}
330
99
100
AcDbScale
 70
     0
300
100:1
140
100.0
141
1.0
290
     0
  0
SCALE
  5
221
102
{ACAD_REACTORS
330
99
102
}
330
99
100
AcDbScale
 70
     0
300
1/128" = 1'-0"
140
0.0078125
141
12.0
290
     0
  0
SCALE
  5
222
102
{ACAD_REACTORS
330
99
102
}
330
99
100
AcDbScale
 70
     0
300
1/64" = 1'-0"
140
0.015625
141
12.0
290
     0
  0
SCALE
  5
223
102
{ACAD_REACTORS
330
99
102
}
330
99
100
AcDbScale
 70
     0
300
1/32" = 1'-0"
140
0.03125
141
12.0
290
     0
  0
SCALE
  5
224
102
{ACAD_REACTORS
330
99
102
}
330
99
100
AcDbScale
 70
     0
300
1/16" = 1'-0"
140
0.0625
141
12.0
290
     0
  0
SCALE
  5
225
102
{ACAD_REACTORS
330
99
102
}
330
99
100
AcDbScale
 70
     0
300
3/32" = 1'-0"
140
0.09375
141
12.0
290
     0
  0
SCALE
  5
226
102
{ACAD_REACTORS
330
99
102
}
330
99
100
AcDbScale
 70
     0
300
1/8" = 1'-0"
140
0.125
141
12.0
290
     0
  0
SCALE
  5
227
102
{ACAD_REACTORS
330
99
102
}
330
99
100
AcDbScale
 70
     0
300
3/16" = 1'-0"
140
0.1875
141
12.0
290
     0
  0
SCALE
  5
228
102
{ACAD_REACTORS
330
99
102
}
330
99
100
AcDbScale
 70
     0
300
1/4" = 1'-0"
140
0.25
141
12.0
290
     0
  0
SCALE
  5
229
102
{ACAD_REACTORS
330
99
102
}
330
99
100
AcDbScale
 70
     0
300
3/8" = 1'-0"
140
0.375
141
12.0
290
     0
  0
SCALE
  5
22A
102
{ACAD_REACTORS
330
99
102
}
330
99
100
AcDbScale
 70
     0
300
1/2" = 1'-0"
140
0.5
141
12.0
290
     0
  0
SCALE
  5
22B
102
{ACAD_REACTORS
330
99
102
}
330
99
100
AcDbScale
 70
     0
300
3/4" = 1'-0"
140
0.75
141
12.0
290
     0
  0
SCALE
  5
22C
102
{ACAD_REACTORS
330
99
102
}
330
99
100
AcDbScale
 70
     0
300
1" = 1'-0"
140
1.0
141
12.0
290
     0
  0
SCALE
  5
22D
102
{ACAD_REACTORS
330
99
102
}
330
99
100
AcDbScale
 70
     0
300
1-1/2" = 1'-0"
140
1.5
141
12.0
290
     0
  0
SCALE
  5
22E
102
{ACAD_REACTORS
330
99
102
}
330
99
100
AcDbScale
 70
     0
300
3" = 1'-0"
140
3.0
141
12.0
290
     0
  0
SCALE
  5
22F
102
{ACAD_REACTORS
330
99
102
}
330
99
100
AcDbScale
 70
     0
300
6" = 1'-0"
140
6.0
141
12.0
290
     0
  0
SCALE
  5
230
102
{ACAD_REACTORS
330
99
102
}
330
99
100
AcDbScale
 70
     0
300
1'-0" = 1'-0"
140
12.0
141
12.0
290
     0
  0
TABLESTYLE
  5
93
102
{ACAD_REACTORS
330
92
102
}
330
92
100
AcDbTableStyle
  3
Standard
 70
     0
 71
     0
 40
0.06
 41
0.06
280
     0
281
     0
  7
Standard
140
0.18
170
     2
 62
     0
 63
     7
283
     0
 90
      512
 91
        0
  1

274
    -2
284
     1
 64
     0
275
    -2
285
     1
 65
     0
276
    -2
286
     1
 66
     0
277
    -2
287
     1
 67
     0
278
    -2
288
     1
 68
     0
279
    -2
289
     1
 69
     0
  7
Standard
140
0.25
170
     5
 62
     0
 63
     7
283
     0
 90
      512
 91
        0
  1

274
    -2
284
     1
 64
     0
275
    -2
285
     1
 65
     0
276
    -2
286
     1
 66
     0
277
    -2
287
     1
 67
     0
278
    -2
288
     1
 68
     0
279
    -2
289
     1
 69
     0
  7
Standard
140
0.18
170
     5
 62
     0
 63
     7
283
     0
 90
      512
 91
        0
  1

274
    -2
284
     1
 64
     0
275
    -2
285
     1
 65
     0
276
    -2
286
     1
 66
     0
277
    -2
287
     1
 67
     0
278
    -2
288
     1
 68
     0
279
    -2
289
     1
 69
     0
  0
DICTIONARYVAR
  5
276
102
{ACAD_REACTORS
330
59
102
}
330
59
100
DictionaryVariables
280
     0
  1
1:1
  0
DICTIONARYVAR
  5
98
102
{ACAD_REACTORS
330
59
102
}
330
59
100
DictionaryVariables
280
     0
  1
Standard
  0
DICTIONARYVAR
  5
233
102
{ACAD_REACTORS
330
59
102
}
330
59
100
DictionaryVariables
280
     0
  1
2
  0
DICTIONARYVAR
  5
5E
102
{ACAD_REACTORS
330
59
102
}
330
59
100
DictionaryVariables
280
     0
  1
1
  0
ENDSEC
  0
EOF
