  0
SECTION
  2
HEADER
  9
$ACADVER
  1
AC1021
  9
$ACADMAINTVER
 70
    25
  9
$DWGCODEPAGE
  3
ANSI_1252
  9
$LASTSAVEDBY
  1
Josep Sancho
  9
$INSBASE
 10
0.0
 20
0.0
 30
0.0
  9
$EXTMIN
 10
88.4132499282
 20
24.9990363711
 30
-150.899975
  9
$EXTMAX
 10
1024.7161871533
 20
1459.9990363711
 30
0.1
  9
$LIMMIN
 10
0.0
 20
0.0
  9
$LIMMAX
 10
1050.0
 20
1485.0
  9
$ORTHOMODE
 70
     0
  9
$REGENMODE
 70
     1
  9
$FILLMODE
 70
     1
  9
$QTEXTMODE
 70
     0
  9
$MIRRTEXT
 70
     1
  9
$LTSCALE
 40
5.0
  9
$ATTMODE
 70
     1
  9
$TEXTSIZE
 40
17.5
  9
$TRACEWID
 40
1.0
  9
$TEXTSTYLE
  7
Standard
  9
$CLAYER
  8
0
  9
$CELTYPE
  6
ByLayer
  9
$CECOLOR
 62
   256
  9
$CELTSCALE
 40
1.0
  9
$DISPSILH
 70
     0
  9
$DIMSCALE
 40
1.0
  9
$DIMASZ
 40
16.51
  9
$DIMEXO
 40
5.0
  9
$DIMDLI
 40
3.75
  9
$DIMRND
 40
0.0
  9
$DIMDLE
 40
0.0
  9
$DIMEXE
 40
5.0
  9
$DIMTP
 40
0.0
  9
$DIMTM
 40
0.0
  9
$DIMTXT
 40
17.5
  9
$DIMCEN
 40
2.5
  9
$DIMTSZ
 40
0.0
  9
$DIMTOL
 70
     0
  9
$DIMLIM
 70
     0
  9
$DIMTIH
 70
     1
  9
$DIMTOH
 70
     1
  9
$DIMSE1
 70
     0
  9
$DIMSE2
 70
     0
  9
$DIMTAD
 70
     1
  9
$DIMZIN
 70
     0
  9
$DIMBLK
  1

  9
$DIMASO
 70
     1
  9
$DIMSHO
 70
     1
  9
$DIMPOST
  1

  9
$DIMAPOST
  1

  9
$DIMALT
 70
     0
  9
$DIMALTD
 70
     3
  9
$DIMALTF
 40
0.0393700787
  9
$DIMLFAC
 40
1.0
  9
$DIMTOFL
 70
     1
  9
$DIMTVP
 40
0.0
  9
$DIMTIX
 70
     0
  9
$DIMSOXD
 70
     0
  9
$DIMSAH
 70
     0
  9
$DIMBLK1
  1

  9
$DIMBLK2
  1

  9
$DIMSTYLE
  2
ISO-25
  9
$DIMCLRD
 70
     0
  9
$DIMCLRE
 70
     0
  9
$DIMCLRT
 70
     0
  9
$DIMTFAC
 40
1.0
  9
$DIMGAP
 40
7.62
  9
$DIMJUST
 70
     0
  9
$DIMSD1
 70
     0
  9
$DIMSD2
 70
     0
  9
$DIMTOLJ
 70
     0
  9
$DIMTZIN
 70
     0
  9
$DIMALTZ
 70
     0
  9
$DIMALTTZ
 70
     0
  9
$DIMUPT
 70
     0
  9
$DIMDEC
 70
     3
  9
$DIMTDEC
 70
     3
  9
$DIMALTU
 70
     2
  9
$DIMALTTD
 70
     3
  9
$DIMTXSTY
  7
Standard
  9
$DIMAUNIT
 70
     0
  9
$DIMADEC
 70
     2
  9
$DIMALTRND
 40
0.0
  9
$DIMAZIN
 70
     0
  9
$DIMDSEP
 70
    44
  9
$DIMATFIT
 70
     3
  9
$DIMFRAC
 70
     0
  9
$DIMLDRBLK
  1

  9
$DIMLUNIT
 70
     2
  9
$DIMLWD
 70
    -2
  9
$DIMLWE
 70
    -2
  9
$DIMTMOVE
 70
     0
  9
$DIMFXL
 40
1.0
  9
$DIMFXLON
 70
     0
  9
$DIMJOGANG
 40
0.7853981633974483
  9
$DIMTFILL
 70
     0
  9
$DIMTFILLCLR
 70
     0
  9
$DIMARCSYM
 70
     0
  9
$DIMLTYPE
  6

  9
$DIMLTEX1
  6

  9
$DIMLTEX2
  6

  9
$LUNITS
 70
     2
  9
$LUPREC
 70
     2
  9
$SKETCHINC
 40
1.0
  9
$FILLETRAD
 40
10.0
  9
$AUNITS
 70
     0
  9
$AUPREC
 70
     2
  9
$MENU
  1
.
  9
$ELEVATION
 40
0.0
  9
$PELEVATION
 40
0.0
  9
$THICKNESS
 40
0.0
  9
$LIMCHECK
 70
     0
  9
$CHAMFERA
 40
10.0
  9
$CHAMFERB
 40
10.0
  9
$CHAMFERC
 40
20.0
  9
$CHAMFERD
 40
0.0
  9
$SKPOLY
 70
     0
  9
$TDCREATE
 40
2453353.800459155
  9
$TDUCREATE
 40
2453353.717125822
  9
$TDUPDATE
 40
2457539.769546389
  9
$TDUUPDATE
 40
2457539.686213056
  9
$TDINDWG
 40
0.0430092708
  9
$TDUSRTIMER
 40
0.0430092708
  9
$USRTIMER
 70
     1
  9
$ANGBASE
 50
0.0
  9
$ANGDIR
 70
     0
  9
$PDMODE
 70
     0
  9
$PDSIZE
 40
-1.0
  9
$PLINEWID
 40
0.0
  9
$SPLFRAME
 70
     0
  9
$SPLINETYPE
 70
     6
  9
$SPLINESEGS
 70
     8
  9
$HANDSEED
  5
1F9
  9
$SURFTAB1
 70
     6
  9
$SURFTAB2
 70
     6
  9
$SURFTYPE
 70
     6
  9
$SURFU
 70
     6
  9
$SURFV
 70
     6
  9
$UCSBASE
  2

  9
$UCSNAME
  2

  9
$UCSORG
 10
0.0
 20
0.0
 30
0.0
  9
$UCSXDIR
 10
1.0
 20
0.0
 30
0.0
  9
$UCSYDIR
 10
0.0
 20
1.0
 30
0.0
  9
$UCSORTHOREF
  2

  9
$UCSORTHOVIEW
 70
     0
  9
$UCSORGTOP
 10
0.0
 20
0.0
 30
0.0
  9
$UCSORGBOTTOM
 10
0.0
 20
0.0
 30
0.0
  9
$UCSORGLEFT
 10
0.0
 20
0.0
 30
0.0
  9
$UCSORGRIGHT
 10
0.0
 20
0.0
 30
0.0
  9
$UCSORGFRONT
 10
0.0
 20
0.0
 30
0.0
  9
$UCSORGBACK
 10
0.0
 20
0.0
 30
0.0
  9
$PUCSBASE
  2

  9
$PUCSNAME
  2

  9
$PUCSORG
 10
0.0
 20
0.0
 30
0.0
  9
$PUCSXDIR
 10
1.0
 20
0.0
 30
0.0
  9
$PUCSYDIR
 10
0.0
 20
1.0
 30
0.0
  9
$PUCSORTHOREF
  2

  9
$PUCSORTHOVIEW
 70
     0
  9
$PUCSORGTOP
 10
0.0
 20
0.0
 30
0.0
  9
$PUCSORGBOTTOM
 10
0.0
 20
0.0
 30
0.0
  9
$PUCSORGLEFT
 10
0.0
 20
0.0
 30
0.0
  9
$PUCSORGRIGHT
 10
0.0
 20
0.0
 30
0.0
  9
$PUCSORGFRONT
 10
0.0
 20
0.0
 30
0.0
  9
$PUCSORGBACK
 10
0.0
 20
0.0
 30
0.0
  9
$USERI1
 70
     0
  9
$USERI2
 70
     0
  9
$USERI3
 70
     0
  9
$USERI4
 70
     0
  9
$USERI5
 70
     0
  9
$USERR1
 40
0.0
  9
$USERR2
 40
0.0
  9
$USERR3
 40
0.0
  9
$USERR4
 40
0.0
  9
$USERR5
 40
0.0
  9
$WORLDVIEW
 70
     1
  9
$SHADEDGE
 70
     3
  9
$SHADEDIF
 70
    70
  9
$TILEMODE
 70
     1
  9
$MAXACTVP
 70
    64
  9
$PINSBASE
 10
0.0
 20
0.0
 30
0.0
  9
$PLIMCHECK
 70
     0
  9
$PEXTMIN
 10
1.000000000000000E+20
 20
1.000000000000000E+20
 30
1.000000000000000E+20
  9
$PEXTMAX
 10
-1.000000000000000E+20
 20
-1.000000000000000E+20
 30
-1.000000000000000E+20
  9
$PLIMMIN
 10
0.0
 20
0.0
  9
$PLIMMAX
 10
420.0
 20
297.0
  9
$UNITMODE
 70
     0
  9
$VISRETAIN
 70
     1
  9
$PLINEGEN
 70
     0
  9
$PSLTSCALE
 70
     1
  9
$TREEDEPTH
 70
  3020
  9
$CMLSTYLE
  2
Standard
  9
$CMLJUST
 70
     0
  9
$CMLSCALE
 40
20.0
  9
$PROXYGRAPHICS
 70
     1
  9
$MEASUREMENT
 70
     1
  9
$CELWEIGHT
370
    -1
  9
$ENDCAPS
280
     0
  9
$JOINSTYLE
280
     0
  9
$LWDISPLAY
290
     1
  9
$INSUNITS
 70
     4
  9
$HYPERLINKBASE
  1

  9
$STYLESHEET
  1

  9
$XEDIT
290
     0
  9
$CEPSNTYPE
380
     0
  9
$PSTYLEMODE
290
     1
  9
$FINGERPRINTGUID
  2
{344753D6-E622-48E5-92BB-10A806739FB2}
  9
$VERSIONGUID
  2
{FAEB1C32-E019-11D5-929B-00C0DF256EC4}
  9
$EXTNAMES
290
     1
  9
$PSVPSCALE
 40
0.0
  9
$OLESTARTUP
290
     0
  9
$SORTENTS
280
   127
  9
$INDEXCTL
280
     0
  9
$HIDETEXT
280
     1
  9
$XCLIPFRAME
290
     0
  9
$HALOGAP
280
     0
  9
$OBSCOLOR
 70
   257
  9
$OBSLTYPE
280
     0
  9
$INTERSECTIONDISPLAY
280
     0
  9
$INTERSECTIONCOLOR
 70
   257
  9
$DIMASSOC
280
     2
  9
$PROJECTNAME
  1

  9
$CAMERADISPLAY
290
     0
  9
$LENSLENGTH
 40
50.0
  9
$CAMERAHEIGHT
 40
0.0
  9
$STEPSPERSEC
 40
2.0
  9
$STEPSIZE
 40
6.0
  9
$3DDWFPREC
 40
2.0
  9
$PSOLWIDTH
 40
0.25
  9
$PSOLHEIGHT
 40
4.0
  9
$LOFTANG1
 40
1.570796326794897
  9
$LOFTANG2
 40
1.570796326794897
  9
$LOFTMAG1
 40
0.0
  9
$LOFTMAG2
 40
0.0
  9
$LOFTPARAM
 70
     7
  9
$LOFTNORMALS
280
     1
  9
$LATITUDE
 40
37.795
  9
$LONGITUDE
 40
-122.394
  9
$NORTHDIRECTION
 40
0.0
  9
$TIMEZONE
 70
 -8000
  9
$LIGHTGLYPHDISPLAY
280
     1
  9
$TILEMODELIGHTSYNCH
280
     1
  9
$SOLIDHIST
280
     1
  9
$SHOWHIST
280
     1
  9
$DWFFRAME
280
     2
  9
$DGNFRAME
280
     2
  9
$REALWORLDSCALE
290
     1
  9
$INTERFERECOLOR
 62
   256
  9
$CSHADOW
280
     0
  9
$SHADOWPLANELOCATION
 40
0.0
  0
ENDSEC
  0
SECTION
  2
CLASSES
  0
CLASS
  1
ACDBDICTIONARYWDFLT
  2
AcDbDictionaryWithDefault
  3
ObjectDBX Classes
 90
        0
 91
        4
280
     0
281
     0
  0
CLASS
  1
ACDBPLACEHOLDER
  2
AcDbPlaceHolder
  3
ObjectDBX Classes
 90
        0
 91
        1
280
     0
281
     0
  0
CLASS
  1
LAYOUT
  2
AcDbLayout
  3
ObjectDBX Classes
 90
        0
 91
        1
280
     0
281
     0
  0
CLASS
  1
DICTIONARYVAR
  2
AcDbDictionaryVar
  3
ObjectDBX Classes
 90
        0
 91
        4
280
     0
281
     0
  0
CLASS
  1
TABLESTYLE
  2
AcDbTableStyle
  3
ObjectDBX Classes
 90
     4095
 91
        4
280
     0
281
     0
  0
CLASS
  1
SCALE
  2
AcDbScale
  3
ObjectDBX Classes
 90
     1153
 91
        4
280
     0
281
     0
  0
ENDSEC
  0
SECTION
  2
TABLES
  0
TABLE
  2
VPORT
  5
8
330
0
100
AcDbSymbolTable
 70
     2
  0
VPORT
  5
97
330
8
100
AcDbSymbolTableRecord
100
AcDbViewportTableRecord
  2
*Active
 70
     0
 10
0.0
 20
0.0
 11
1.0
 21
1.0
 12
657.9233023879765
 22
798.2592073286786
 13
0.0
 23
0.0
 14
10.0
 24
10.0
 15
10.0
 25
10.0
 16
0.0
 26
0.0
 36
1.0
 17
0.0
 27
0.0
 37
0.0
 40
973.6470674502652
 41
0.7070707071
 42
50.0
 43
0.0
 44
0.0
 50
0.0
 51
0.0
 71
    16
 72
  2000
 73
     1
 74
     3
 75
     0
 76
     0
 77
     0
 78
     0
281
     0
 65
     0
110
0.0
120
0.0
130
0.0
111
1.0
121
0.0
131
0.0
112
0.0
122
1.0
132
0.0
 79
     0
146
0.0
 60
     3
 61
     5
292
     1
282
     1
141
0.0
142
0.0
 63
   256
  0
ENDTAB
  0
TABLE
  2
LTYPE
  5
5
330
0
100
AcDbSymbolTable
 70
     6
  0
LTYPE
  5
14
330
5
100
AcDbSymbolTableRecord
100
AcDbLinetypeTableRecord
  2
ByBlock
 70
     0
  3

 72
    65
 73
     0
 40
0.0
  0
LTYPE
  5
15
330
5
100
AcDbSymbolTableRecord
100
AcDbLinetypeTableRecord
  2
ByLayer
 70
     0
  3

 72
    65
 73
     0
 40
0.0
  0
LTYPE
  5
16
330
5
100
AcDbSymbolTableRecord
100
AcDbLinetypeTableRecord
  2
Continuous
 70
     0
  3
Solid line
 72
    65
 73
     0
 40
0.0
  0
LTYPE
  5
1BC
330
5
100
AcDbSymbolTableRecord
100
AcDbLinetypeTableRecord
  2
HIDDEN
 70
     0
  3
Hidden __ __ __ __ __ __ __ __ __ __ __ __ __ __
 72
    65
 73
     2
 40
1.905
 49
1.27
 74
     4
 75
     0
340
0
 46
1.0
 50
0.0
 44
0.0
 45
0.0
 49
-0.635
 74
     4
 75
     0
340
0
 46
1.0
 50
0.0
 44
0.0
 45
0.0
  0
LTYPE
  5
1BD
330
5
100
AcDbSymbolTableRecord
100
AcDbLinetypeTableRecord
  2
PHANTOM
 70
     0
  3
Phantom ______  __  __  ______  __  __  ______
 72
    65
 73
     6
 40
12.7
 49
6.35
 74
     4
 75
     0
340
0
 46
1.0
 50
0.0
 44
0.0
 45
0.0
 49
-1.27
 74
     4
 75
     0
340
0
 46
1.0
 50
0.0
 44
0.0
 45
0.0
 49
1.27
 74
     4
 75
     0
340
0
 46
1.0
 50
0.0
 44
0.0
 45
0.0
 49
-1.27
 74
     4
 75
     0
340
0
 46
1.0
 50
0.0
 44
0.0
 45
0.0
 49
1.27
 74
     4
 75
     0
340
0
 46
1.0
 50
0.0
 44
0.0
 45
0.0
 49
-1.27
 74
     4
 75
     0
340
0
 46
1.0
 50
0.0
 44
0.0
 45
0.0
  0
LTYPE
  5
1BE
330
5
100
AcDbSymbolTableRecord
100
AcDbLinetypeTableRecord
  2
CENTER
 70
     0
  3
Center ____ _ ____ _ ____ _ ____ _ ____ _ ____
 72
    65
 73
     4
 40
10.16
 49
6.35
 74
     4
 75
     0
340
0
 46
1.0
 50
0.0
 44
0.0
 45
0.0
 49
-1.27
 74
     4
 75
     0
340
0
 46
1.0
 50
0.0
 44
0.0
 45
0.0
 49
1.27
 74
     4
 75
     0
340
0
 46
1.0
 50
0.0
 44
0.0
 45
0.0
 49
-1.27
 74
     4
 75
     0
340
0
 46
1.0
 50
0.0
 44
0.0
 45
0.0
  0
LTYPE
  5
1BF
330
5
100
AcDbSymbolTableRecord
100
AcDbLinetypeTableRecord
  2
CENTERX2
 70
     0
  3
Center (2x) ________  __  ________  __  _____
 72
    65
 73
     4
 40
20.32
 49
12.7
 74
     4
 75
     0
340
0
 46
1.0
 50
0.0
 44
0.0
 45
0.0
 49
-2.54
 74
     4
 75
     0
340
0
 46
1.0
 50
0.0
 44
0.0
 45
0.0
 49
2.54
 74
     4
 75
     0
340
0
 46
1.0
 50
0.0
 44
0.0
 45
0.0
 49
-2.54
 74
     4
 75
     0
340
0
 46
1.0
 50
0.0
 44
0.0
 45
0.0
  0
LTYPE
  5
1C0
330
5
100
AcDbSymbolTableRecord
100
AcDbLinetypeTableRecord
  2
DOT2
 70
     0
  3
Dot (.5x) ........................................
 72
    65
 73
     2
 40
0.635
 49
0.0
 74
     4
 75
     0
340
0
 46
1.0
 50
0.0
 44
0.0
 45
0.0
 49
-0.635
 74
     4
 75
     0
340
0
 46
1.0
 50
0.0
 44
0.0
 45
0.0
  0
ENDTAB
  0
TABLE
  2
LAYER
  5
2
330
0
100
AcDbSymbolTable
 70
     1
  0
LAYER
  5
10
330
2
100
AcDbSymbolTableRecord
100
AcDbLayerTableRecord
  2
0
 70
     0
 62
     7
  6
Continuous
370
    -3
390
F
347
0
  0
ENDTAB
  0
TABLE
  2
STYLE
  5
3
330
0
100
AcDbSymbolTable
 70
     5
  0
STYLE
  5
11
330
3
100
AcDbSymbolTableRecord
100
AcDbTextStyleTableRecord
  2
Standard
 70
     0
 40
0.0
 41
1.0
 50
0.0
 71
     0
 42
17.5
  3
txt
  4

  0
STYLE
  5
65
330
3
100
AcDbSymbolTableRecord
100
AcDbTextStyleTableRecord
  2
SLDTEXTSTYLE0
 70
     0
 40
0.0
 41
0.75
 50
0.0
 71
     0
 42
0.2
  3
TXT
  4

  0
STYLE
  5
69
330
3
100
AcDbSymbolTableRecord
100
AcDbTextStyleTableRecord
  2
SLDTEXTSTYLE1
 70
     0
 40
0.0
 41
0.6944444444
 50
0.0
 71
     0
 42
0.2
  3
TXT
  4

  0
STYLE
  5
78
330
3
100
AcDbSymbolTableRecord
100
AcDbTextStyleTableRecord
  2
SLDTEXTSTYLE2
 70
     0
 40
0.0
 41
0.605
 50
0.0
 71
     0
 42
0.2
  3
TXT
  4

  0
STYLE
  5
7E
330
3
100
AcDbSymbolTableRecord
100
AcDbTextStyleTableRecord
  2
SLDTEXTSTYLE3
 70
     0
 40
0.0
 41
0.6818181818
 50
0.0
 71
     0
 42
0.2
  3
TXT
  4

  0
ENDTAB
  0
TABLE
  2
VIEW
  5
6
330
0
100
AcDbSymbolTable
 70
     0
  0
ENDTAB
  0
TABLE
  2
UCS
  5
7
330
0
100
AcDbSymbolTable
 70
     0
  0
ENDTAB
  0
TABLE
  2
APPID
  5
9
330
0
100
AcDbSymbolTable
 70
     1
  0
APPID
  5
12
330
9
100
AcDbSymbolTableRecord
100
AcDbRegAppTableRecord
  2
ACAD
 70
     0
  0
ENDTAB
  0
TABLE
  2
DIMSTYLE
  5
A
330
0
100
AcDbSymbolTable
 70
     6
100
AcDbDimStyleTable
  0
DIMSTYLE
105
27
330
A
100
AcDbSymbolTableRecord
100
AcDbDimStyleTableRecord
  2
Standard
 70
     0
278
     0
340
11
  0
DIMSTYLE
105
1C1
330
A
100
AcDbSymbolTableRecord
100
AcDbDimStyleTableRecord
  2
ISO-25
 70
     0
 41
2.5
 42
0.625
 43
3.75
 44
1.25
 73
     0
 74
     0
 77
     1
 78
     8
140
2.5
141
2.5
143
0.0393700787
147
0.625
171
     3
172
     1
271
     2
272
     2
274
     3
278
    44
283
     0
284
     8
340
11
  0
DIMSTYLE
105
FD
102
{ACAD_REACTORS
330
FC
102
}
330
A
100
AcDbSymbolTableRecord
100
AcDbDimStyleTableRecord
  2
SLDDIMSTYLE0
 70
     0
 41
16.51
 44
0.0
 45
0.000000001
 73
     0
 74
     0
 77
     1
 78
    12
 79
     3
140
17.5
147
4.375
173
     1
271
     0
272
     0
276
     2
284
    12
340
65
  0
DIMSTYLE
105
108
102
{ACAD_REACTORS
330
107
330
11E
330
17E
102
}
330
A
100
AcDbSymbolTableRecord
100
AcDbDimStyleTableRecord
  2
SLDDIMSTYLE1
 70
     0
 41
16.51
 44
0.0
 45
0.000000001
 73
     0
 74
     0
 77
     1
 78
    12
 79
     3
140
17.5
147
4.375
173
     1
271
     3
272
     3
276
     2
284
    12
340
65
  0
DIMSTYLE
105
113
102
{ACAD_REACTORS
330
112
102
}
330
A
100
AcDbSymbolTableRecord
100
AcDbDimStyleTableRecord
  2
SLDDIMSTYLE2
 70
     0
 41
16.51
 44
0.0
 45
0.000000001
 73
     0
 74
     0
 77
     1
 78
    12
 79
     3
140
17.5
147
4.375
173
     1
271
     0
272
     2
276
     2
284
    12
340
65
  0
DIMSTYLE
105
18A
102
{ACAD_REACTORS
330
189
102
}
330
A
100
AcDbSymbolTableRecord
100
AcDbDimStyleTableRecord
  2
SLDDIMSTYLE3
 70
     0
  3
<>
 41
16.51
 44
0.0
 45
0.000000001
 78
    12
 79
     3
140
17.5
141
0.0
147
4.375
173
     1
271
     3
272
     3
276
     2
284
    12
340
65
  0
ENDTAB
  0
TABLE
  2
BLOCK_RECORD
  5
1
330
0
100
AcDbSymbolTable
 70
     7
  0
BLOCK_RECORD
  5
1F
102
{ACAD_XDICTIONARY
360
1F6
102
}
330
1
100
AcDbSymbolTableRecord
100
AcDbBlockTableRecord
  2
*Model_Space
340
22
 70
     0
280
     1
281
     0
  0
BLOCK_RECORD
  5
73
330
1
100
AcDbSymbolTableRecord
100
AcDbBlockTableRecord
  2
*Paper_Space
340
74
 70
     0
280
     1
281
     0
  0
BLOCK_RECORD
  5
23
330
1
100
AcDbSymbolTableRecord
100
AcDbBlockTableRecord
  2
*Paper_Space0
340
26
 70
     0
280
     1
281
     0
  0
BLOCK_RECORD
  5
FE
330
1
100
AcDbSymbolTableRecord
100
AcDbBlockTableRecord
  2
_D
340
0
 70
     0
280
     1
281
     0
  0
BLOCK_RECORD
  5
109
330
1
100
AcDbSymbolTableRecord
100
AcDbBlockTableRecord
  2
_D_1
340
0
 70
     0
280
     1
281
     0
  0
BLOCK_RECORD
  5
114
330
1
100
AcDbSymbolTableRecord
100
AcDbBlockTableRecord
  2
_D_2
340
0
 70
     0
280
     1
281
     0
  0
BLOCK_RECORD
  5
11F
330
1
100
AcDbSymbolTableRecord
100
AcDbBlockTableRecord
  2
_D_3
340
0
 70
     0
280
     1
281
     0
  0
BLOCK_RECORD
  5
17F
330
1
100
AcDbSymbolTableRecord
100
AcDbBlockTableRecord
  2
_D_4
340
0
 70
     0
280
     1
281
     0
  0
BLOCK_RECORD
  5
18B
330
1
100
AcDbSymbolTableRecord
100
AcDbBlockTableRecord
  2
_D_5
340
0
 70
     0
280
     1
281
     0
  0
ENDTAB
  0
ENDSEC
  0
SECTION
  2
BLOCKS
  0
BLOCK
  5
20
330
1F
100
AcDbEntity
  8
0
100
AcDbBlockBegin
  2
*Model_Space
 70
     0
 10
0.0
 20
0.0
 30
0.0
  3
*Model_Space
  1

  0
ENDBLK
  5
21
330
1F
100
AcDbEntity
  8
0
100
AcDbBlockEnd
  0
BLOCK
  5
75
330
73
100
AcDbEntity
 67
     1
  8
0
100
AcDbBlockBegin
  2
*Paper_Space
 70
     0
 10
0.0
 20
0.0
 30
0.0
  3
*Paper_Space
  1

  0
ENDBLK
  5
76
330
73
100
AcDbEntity
 67
     1
  8
0
100
AcDbBlockEnd
  0
BLOCK
  5
1C2
330
23
100
AcDbEntity
  8
0
100
AcDbBlockBegin
  2
*Paper_Space0
 70
     0
 10
0.0
 20
0.0
 30
0.0
  3
*Paper_Space0
  1

  0
ENDBLK
  5
1C3
330
23
100
AcDbEntity
  8
0
100
AcDbBlockEnd
  0
BLOCK
  5
1C4
330
FE
100
AcDbEntity
  8
0
100
AcDbBlockBegin
  2
_D
 70
     0
 10
0.0
 20
0.0
 30
0.0
  3
_D
  1

  0
SOLID
  5
101
330
FE
100
AcDbEntity
  8
0
  6
Continuous
 62
     7
370
     0
100
AcDbTrace
 10
888.8631397541
 20
714.8540747203
 30
0.0
 11
891.4031397541
 21
731.3640747203
 31
0.0
 12
886.3231397541
 22
731.3640747203
 32
0.0
 13
886.3231397541
 23
731.3640747203
 33
0.0
  0
SOLID
  5
102
330
FE
100
AcDbEntity
  8
0
  6
Continuous
 62
     7
370
     0
100
AcDbTrace
 10
888.8631397541
 20
911.816417083
 30
0.0
 11
886.3231397541
 21
895.306417083
 31
0.0
 12
891.4031397541
 22
895.306417083
 32
0.0
 13
891.4031397541
 23
895.306417083
 33
0.0
  0
LINE
  5
103
330
FE
100
AcDbEntity
  8
0
  6
Continuous
 62
     7
370
     0
100
AcDbLine
 10
808.546341925
 20
714.8540747203
 30
0.0
 11
893.8631397541
 21
714.8540747203
 31
0.0
  0
LINE
  5
104
330
FE
100
AcDbEntity
  8
0
  6
Continuous
 62
     7
370
     0
100
AcDbLine
 10
802.3631397541
 20
911.816417083
 30
0.0
 11
893.8631397541
 21
911.816417083
 31
0.0
  0
LINE
  5
105
330
FE
100
AcDbEntity
  8
0
  6
Continuous
 62
     7
370
     0
100
AcDbLine
 10
888.8631397541
 20
714.8540747203
 30
0.0
 11
888.8631397541
 21
911.816417083
 31
0.0
  0
MTEXT
  5
106
330
FE
100
AcDbEntity
  8
0
  6
Continuous
 62
     7
370
     0
100
AcDbMText
 10
866.3044551812
 20
798.1402424132
 30
0.1
 40
17.5
 41
0.0
 46
0.0
 71
     1
 72
     1
  1
197
  7
SLDTEXTSTYLE0
 11
5.168258253233088E-15
 21
1.0
 31
0.0
 73
     1
 44
1.0
  0
ENDBLK
  5
1C5
330
FE
100
AcDbEntity
  8
0
100
AcDbBlockEnd
  0
BLOCK
  5
1C6
330
109
100
AcDbEntity
  8
0
100
AcDbBlockBegin
  2
_D_1
 70
     0
 10
0.0
 20
0.0
 30
0.0
  3
_D_1
  1

  0
SOLID
  5
10C
330
109
100
AcDbEntity
  8
0
  6
Continuous
 62
     7
370
     0
100
AcDbTrace
 10
838.8631397541
 20
1113.3898524596
 30
0.0
 11
822.3531397541
 21
1115.9298524596
 31
0.0
 12
822.3531397541
 22
1110.8498524596
 32
0.0
 13
822.3531397541
 23
1110.8498524596
 33
0.0
  0
SOLID
  5
10D
330
109
100
AcDbEntity
  8
0
  6
Continuous
 62
     7
370
     0
100
AcDbTrace
 10
536.8631397541
 20
1113.3898524596
 30
0.0
 11
553.3731397541
 21
1110.8498524596
 31
0.0
 12
553.3731397541
 22
1115.9298524596
 32
0.0
 13
553.3731397541
 23
1115.9298524596
 33
0.0
  0
LINE
  5
10E
330
109
100
AcDbEntity
  8
0
  6
Continuous
 62
     7
370
     0
100
AcDbLine
 10
838.8631397541
 20
866.6380370067
 30
0.0
 11
838.8631397541
 21
1118.3898524596
 31
0.0
  0
LINE
  5
10F
330
109
100
AcDbEntity
  8
0
  6
Continuous
 62
     7
370
     0
100
AcDbLine
 10
536.8631397541
 20
1055.016417083
 30
0.0
 11
536.8631397541
 21
1118.3898524596
 31
0.0
  0
LINE
  5
110
330
109
100
AcDbEntity
  8
0
  6
Continuous
 62
     7
370
     0
100
AcDbLine
 10
838.8631397541
 20
1113.3898524596
 30
0.0
 11
536.8631397541
 21
1113.3898524596
 31
0.0
  0
MTEXT
  5
111
330
109
100
AcDbEntity
  8
0
  6
Continuous
 62
     7
370
     0
100
AcDbMText
 10
676.5816894342
 20
1135.9485370325
 30
0.1
 40
17.5
 41
0.0
 46
0.0
 71
     1
 72
     1
  1
302
  7
SLDTEXTSTYLE0
 73
     1
 44
1.0
  0
ENDBLK
  5
1C7
330
109
100
AcDbEntity
  8
0
100
AcDbBlockEnd
  0
BLOCK
  5
1C8
330
114
100
AcDbEntity
  8
0
100
AcDbBlockBegin
  2
_D_2
 70
     0
 10
0.0
 20
0.0
 30
0.0
  3
_D_2
  1

  0
SOLID
  5
117
330
114
100
AcDbEntity
  8
0
  6
Continuous
 62
     7
370
     0
100
AcDbTrace
 10
486.8630897541
 20
881.616417083
 30
0.0
 11
489.4030897541
 21
898.126417083
 31
0.0
 12
484.3230897541
 22
898.126417083
 32
0.0
 13
484.3230897541
 23
898.126417083
 33
0.0
  0
SOLID
  5
118
330
114
100
AcDbEntity
  8
0
  6
Continuous
 62
     7
370
     0
100
AcDbTrace
 10
486.8630897541
 20
1050.016417083
 30
0.0
 11
484.3230897541
 21
1033.506417083
 31
0.0
 12
489.4030897541
 22
1033.506417083
 32
0.0
 13
489.4030897541
 23
1033.506417083
 33
0.0
  0
LINE
  5
119
330
114
100
AcDbEntity
  8
0
  6
Continuous
 62
     7
370
     0
100
AcDbLine
 10
531.8631397541
 20
881.616417083
 30
0.0
 11
481.8630897541
 21
881.616417083
 31
0.0
  0
LINE
  5
11A
330
114
100
AcDbEntity
  8
0
  6
Continuous
 62
     7
370
     0
100
AcDbLine
 10
531.8631397541
 20
1050.016417083
 30
0.0
 11
481.8630897541
 21
1050.016417083
 31
0.0
  0
LINE
  5
11B
330
114
100
AcDbEntity
  8
0
  6
Continuous
 62
     7
370
     0
100
AcDbLine
 10
486.8630897541
 20
881.616417083
 30
0.0
 11
486.8630897541
 21
1050.016417083
 31
0.0
  0
MTEXT
  5
11C
330
114
100
AcDbEntity
  8
0
  6
Continuous
 62
     7
370
     0
100
AcDbMText
 10
464.3044043081
 20
917.6135619137
 30
0.1
 40
17.5
 41
0.0
 46
0.0
 71
     1
 72
     1
  1
%%c
  7
SLDTEXTSTYLE0
 11
3.391901413832837E-15
 21
1.0
 31
0.0
 73
     1
 44
1.0
  0
MTEXT
  5
11D
330
114
100
AcDbEntity
  8
0
  6
Continuous
 62
     7
370
     0
100
AcDbMText
 10
464.0370434248
 20
944.0057489056
 30
0.1
 40
17.5
 41
0.0
 46
0.0
 71
     1
 72
     1
  1
168
  7
SLDTEXTSTYLE0
 11
3.391901413832837E-15
 21
1.0
 31
0.0
 73
     1
 44
1.0
  0
ENDBLK
  5
1C9
330
114
100
AcDbEntity
  8
0
100
AcDbBlockEnd
  0
BLOCK
  5
1CA
330
11F
100
AcDbEntity
  8
0
100
AcDbBlockBegin
  2
_D_3
 70
     0
 10
0.0
 20
0.0
 30
0.0
  3
_D_3
  1

  0
SOLID
  5
122
330
11F
100
AcDbEntity
  8
0
  6
Continuous
 62
     7
370
     0
100
AcDbTrace
 10
888.8631397541
 20
1060.816417083
 30
0.0
 11
886.3231397541
 21
1044.306417083
 31
0.0
 12
891.4031397541
 22
1044.306417083
 32
0.0
 13
891.4031397541
 23
1044.306417083
 33
0.0
  0
SOLID
  5
123
330
11F
100
AcDbEntity
  8
0
  6
Continuous
 62
     7
370
     0
100
AcDbTrace
 10
888.8631397541
 20
911.816417083
 30
0.0
 11
891.4031397541
 21
928.326417083
 31
0.0
 12
886.3231397541
 22
928.326417083
 32
0.0
 13
886.3231397541
 23
928.326417083
 33
0.0
  0
LINE
  5
124
330
11F
100
AcDbEntity
  8
0
  6
Continuous
 62
     7
370
     0
100
AcDbLine
 10
583.8631397541
 20
1060.816417083
 30
0.0
 11
893.8631397541
 21
1060.816417083
 31
0.0
  0
LINE
  5
125
330
11F
100
AcDbEntity
  8
0
  6
Continuous
 62
     7
370
     0
100
AcDbLine
 10
802.3631397541
 20
911.816417083
 30
0.0
 11
893.8631397541
 21
911.816417083
 31
0.0
  0
LINE
  5
126
330
11F
100
AcDbEntity
  8
0
  6
Continuous
 62
     7
370
     0
100
AcDbLine
 10
888.8631397541
 20
1060.816417083
 30
0.0
 11
888.8631397541
 21
911.816417083
 31
0.0
  0
MTEXT
  5
127
330
11F
100
AcDbEntity
  8
0
  6
Continuous
 62
     7
370
     0
100
AcDbMText
 10
866.3044551812
 20
970.6781223143
 30
0.1
 40
17.5
 41
0.0
 46
0.0
 71
     1
 72
     1
  1
149
  7
SLDTEXTSTYLE0
 11
-3.491481338843133E-15
 21
1.0
 31
0.0
 73
     1
 44
1.0
  0
ENDBLK
  5
1CB
330
11F
100
AcDbEntity
  8
0
100
AcDbBlockEnd
  0
BLOCK
  5
1CC
330
17F
100
AcDbEntity
  8
0
100
AcDbBlockBegin
  2
_D_4
 70
     0
 10
0.0
 20
0.0
 30
0.0
  3
_D_4
  1

  0
SOLID
  5
182
330
17F
100
AcDbEntity
  8
0
  6
Continuous
 62
     7
370
     0
100
AcDbTrace
 10
166.3516393443
 20
1110.816417083
 30
0.0
 11
182.8616393443
 21
1108.276417083
 31
0.0
 12
182.8616393443
 22
1113.356417083
 32
0.0
 13
182.8616393443
 23
1113.356417083
 33
0.0
  0
SOLID
  5
183
330
17F
100
AcDbEntity
  8
0
  6
Continuous
 62
     7
370
     0
100
AcDbTrace
 10
356.3516393443
 20
1110.816417083
 30
0.0
 11
339.8416393443
 21
1113.356417083
 31
0.0
 12
339.8416393443
 22
1108.276417083
 32
0.0
 13
339.8416393443
 23
1108.276417083
 33
0.0
  0
LINE
  5
184
330
17F
100
AcDbEntity
  8
0
  6
Continuous
 62
     7
370
     0
100
AcDbLine
 10
166.3516393443
 20
970.816417083
 30
0.0
 11
166.3516393443
 21
1115.816417083
 31
0.0
  0
LINE
  5
185
330
17F
100
AcDbEntity
  8
0
  6
Continuous
 62
     7
370
     0
100
AcDbLine
 10
356.3516393443
 20
970.816417083
 30
0.0
 11
356.3516393443
 21
1115.816417083
 31
0.0
  0
LINE
  5
186
330
17F
100
AcDbEntity
  8
0
  6
Continuous
 62
     7
370
     0
100
AcDbLine
 10
166.3516393443
 20
1110.816417083
 30
0.0
 11
356.3516393443
 21
1110.816417083
 31
0.0
  0
MTEXT
  5
187
330
17F
100
AcDbEntity
  8
0
  6
Continuous
 62
     7
370
     0
100
AcDbMText
 10
220.1896801394
 20
1133.375102529
 30
-150.899975
 40
17.5
 41
0.0
 46
0.0
 71
     1
 72
     1
  1
%%c
  7
SLDTEXTSTYLE0
 73
     1
 44
1.0
  0
MTEXT
  5
188
330
17F
100
AcDbEntity
  8
0
  6
Continuous
 62
     7
370
     0
100
AcDbMText
 10
246.5818671313
 20
1133.6424634123
 30
-150.899975
 40
17.5
 41
0.0
 46
0.0
 71
     1
 72
     1
  1
190
  7
SLDTEXTSTYLE0
 73
     1
 44
1.0
  0
ENDBLK
  5
1CD
330
17F
100
AcDbEntity
  8
0
100
AcDbBlockEnd
  0
BLOCK
  5
1CE
330
18B
100
AcDbEntity
  8
0
100
AcDbBlockBegin
  2
_D_5
 70
     0
 10
0.0
 20
0.0
 30
0.0
  3
_D_5
  1

  0
SOLID
  5
18E
330
18B
100
AcDbEntity
  8
0
  6
Continuous
 62
     7
370
     0
100
AcDbTrace
 10
291.8555161152
 20
720.1810949573
 30
0.0
 11
295.0616231918
 21
703.7874200364
 31
0.0
 12
299.840942494
 22
705.5091944141
 32
0.0
 13
299.840942494
 23
705.5091944141
 33
0.0
  0
LINE
  5
18F
330
18B
100
AcDbEntity
  8
0
  6
Continuous
 62
     7
370
     0
100
AcDbLine
 10
291.8555161152
 20
720.1810949573
 30
0.0
 11
318.3796677034
 21
646.5550779263
 31
0.0
  0
LINE
  5
190
330
18B
100
AcDbEntity
  8
0
  6
Continuous
 62
     7
370
     0
100
AcDbLine
 10
261.3516393443
 20
804.8540747203
 30
0.0
 11
291.8555161152
 21
720.1810949573
 31
0.0
  0
LINE
  5
191
330
18B
100
AcDbEntity
  8
0
  6
Continuous
 62
     7
370
     0
100
AcDbLine
 10
318.3796677034
 20
646.5550779263
 30
0.0
 11
391.5010260905
 21
646.5550779263
 31
0.0
  0
MTEXT
  5
192
330
18B
100
AcDbEntity
  8
0
  6
Continuous
 62
     7
370
     0
100
AcDbMText
 10
326.3171677034
 20
669.1137633724
 30
-150.899975
 40
17.5
 41
0.0
 46
0.0
 71
     1
 72
     1
  1
%%c
  7
SLDTEXTSTYLE0
 73
     1
 44
1.0
  0
MTEXT
  5
193
330
18B
100
AcDbEntity
  8
0
  6
Continuous
 62
     7
370
     0
100
AcDbMText
 10
352.7093546952
 20
669.3811242557
 30
-150.899975
 40
17.5
 41
0.0
 46
0.0
 71
     1
 72
     1
  1
180
  7
SLDTEXTSTYLE0
 73
     1
 44
1.0
  0
ENDBLK
  5
1CF
330
18B
100
AcDbEntity
  8
0
100
AcDbBlockEnd
  0
ENDSEC
  0
SECTION
  2
ENTITIES
  0
ARC
  5
81
330
1F
100
AcDbEntity
  8
0
  6
Continuous
 62
     7
370
    15
100
AcDbCircle
 10
751.3631397541
 20
981.316417083
 30
0.0
 40
1.000000000000125
100
AcDbArc
 50
10.0
 51
90.0
  0
ARC
  5
82
330
1F
100
AcDbEntity
  8
0
  6
Continuous
 62
     7
370
    15
100
AcDbCircle
 10
746.3631397541
 20
981.316417083
 30
0.0
 40
1.0
100
AcDbArc
 50
90.0
 51
170.0
  0
LINE
  5
83
330
1F
100
AcDbEntity
  8
0
  6
Continuous
 62
     7
370
    15
100
AcDbLine
 10
752.8631397541
 20
978.5682648367
 30
0.0
 11
752.3479475071
 21
981.4900652607
 31
0.0
  0
LINE
  5
84
330
1F
100
AcDbEntity
  8
0
  6
Continuous
 62
     7
370
    15
100
AcDbLine
 10
745.3783320011
 20
981.4900652607
 30
0.0
 11
744.8631397541
 21
978.5682648367
 31
0.0
  0
ARC
  5
85
330
1F
100
AcDbEntity
  8
0
  6
Continuous
 62
     7
370
    15
100
AcDbCircle
 10
738.8631397541
 20
918.816417083
 30
0.0
 40
2.000000000000114
100
AcDbArc
 50
270.0
 51
0.0
  0
ARC
  5
86
330
1F
100
AcDbEntity
  8
0
  6
Continuous
 62
     7
370
    15
100
AcDbCircle
 10
758.8631397541
 20
918.816417083
 30
0.0
 40
2.000000000000114
100
AcDbArc
 50
180.0
 51
270.0
  0
LINE
  5
87
330
1F
100
AcDbEntity
  8
0
  6
Continuous
 62
     7
370
    15
100
AcDbLine
 10
738.8631397541
 20
916.816417083
 30
0.0
 11
738.8631397541
 21
911.816417083
 31
0.0
  0
LINE
  5
88
330
1F
100
AcDbEntity
  8
0
  6
Continuous
 62
     7
370
    15
100
AcDbLine
 10
758.8631397541
 20
911.816417083
 30
0.0
 11
758.8631397541
 21
916.816417083
 31
0.0
  0
ARC
  5
89
330
1F
100
AcDbEntity
  8
0
  6
Continuous
 62
     7
370
    15
100
AcDbCircle
 10
741.3631397541
 20
945.316417083
 30
0.0
 40
0.5
100
AcDbArc
 50
90.0
 51
180.0
  0
ARC
  5
8A
330
1F
100
AcDbEntity
  8
0
  6
Continuous
 62
     7
370
    15
100
AcDbCircle
 10
756.3631397541
 20
945.316417083
 30
0.0
 40
0.5
100
AcDbArc
 50
0.0
 51
90.0
  0
LINE
  5
8B
330
1F
100
AcDbEntity
  8
0
  6
Continuous
 62
     7
370
    15
100
AcDbLine
 10
740.8631397541
 20
945.316417083
 30
0.0
 11
740.8631397541
 21
918.816417083
 31
0.0
  0
LINE
  5
8C
330
1F
100
AcDbEntity
  8
0
  6
Continuous
 62
     7
370
    15
100
AcDbLine
 10
756.8631397541
 20
918.816417083
 30
0.0
 11
756.8631397541
 21
945.316417083
 31
0.0
  0
LINE
  5
8D
330
1F
100
AcDbEntity
  8
0
  6
Continuous
 62
     7
370
    15
100
AcDbLine
 10
699.8173777393
 20
895.3482289218
 30
0.0
 11
706.4331759466
 21
895.3482289218
 31
0.0
  0
LINE
  5
8E
330
1F
100
AcDbEntity
  8
0
  6
Continuous
 62
     7
370
    15
100
AcDbLine
 10
706.4323038378
 20
900.3482289218
 30
0.0
 11
699.8173777393
 21
900.3482289218
 31
0.0
  0
LINE
  5
8F
330
1F
100
AcDbEntity
  8
0
  6
Continuous
 62
     7
370
    15
100
AcDbLine
 10
699.8173777393
 20
900.3482289218
 30
0.0
 11
699.5673777393
 21
900.0982289218
 31
0.0
  0
LINE
  5
90
330
1F
100
AcDbEntity
  8
0
  6
Continuous
 62
     7
370
    15
100
AcDbLine
 10
699.5673777393
 20
895.5982289218
 30
0.0
 11
699.8173777393
 21
895.3482289218
 31
0.0
  0
LINE
  5
91
330
1F
100
AcDbEntity
  8
0
  6
Continuous
 62
     7
370
    15
100
AcDbLine
 10
797.9089017689
 20
900.3482289218
 30
0.0
 11
791.2939123861
 21
900.3482289218
 31
0.0
  0
LINE
  5
1D0
330
1F
100
AcDbEntity
  8
0
  6
Continuous
 62
     7
370
    15
100
AcDbLine
 10
791.2945806187
 20
895.3482289218
 30
0.0
 11
797.9089017689
 21
895.3482289218
 31
0.0
  0
LINE
  5
1D1
330
1F
100
AcDbEntity
  8
0
  6
Continuous
 62
     7
370
    15
100
AcDbLine
 10
797.9089017689
 20
895.3482289218
 30
0.0
 11
798.1589017689
 21
895.5982289218
 31
0.0
  0
LINE
  5
94
330
1F
100
AcDbEntity
  8
0
  6
Continuous
 62
     7
370
    15
100
AcDbLine
 10
798.1589017689
 20
900.0982289218
 30
0.0
 11
797.9089017689
 21
900.3482289218
 31
0.0
  0
LINE
  5
95
330
1F
100
AcDbEntity
  8
0
  6
Continuous
 62
     7
370
    15
100
AcDbLine
 10
798.3631397541
 20
910.816417083
 30
0.0
 11
797.3631397541
 21
911.816417083
 31
0.0
  0
LINE
  5
96
330
1F
100
AcDbEntity
  8
0
  6
Continuous
 62
     7
370
    15
100
AcDbLine
 10
700.3631397541
 20
911.816417083
 30
0.0
 11
699.3631397541
 21
910.816417083
 31
0.0
  0
LINE
  5
1D2
330
1F
100
AcDbEntity
  8
0
  6
Continuous
 62
     7
370
    15
100
AcDbLine
 10
798.3631397541
 20
908.816417083
 30
0.0
 11
798.3631397541
 21
910.816417083
 31
0.0
  0
LINE
  5
1D3
330
1F
100
AcDbEntity
  8
0
  6
Continuous
 62
     7
370
    15
100
AcDbLine
 10
699.3631397541
 20
910.816417083
 30
0.0
 11
699.3631397541
 21
908.816417083
 31
0.0
  0
LINE
  5
1D4
330
1F
100
AcDbEntity
  8
0
  6
Continuous
 62
     7
370
    15
100
AcDbLine
 10
783.8631397541
 20
907.8540747203
 30
0.0
 11
783.8631397541
 21
908.816417083
 31
0.0
  0
LINE
  5
1D5
330
1F
100
AcDbEntity
  8
0
  6
Continuous
 62
     7
370
    15
100
AcDbLine
 10
713.8631397541
 20
908.816417083
 30
0.0
 11
713.8631397541
 21
907.8540747203
 31
0.0
  0
ARC
  5
1D6
330
1F
100
AcDbEntity
  8
0
  6
Continuous
 62
     7
370
    15
100
AcDbCircle
 10
748.8631397541
 20
804.8540747203
 30
0.0
 40
90.0000000000001
100
AcDbArc
 50
121.6682432535
 51
58.33175674649999
  0
ARC
  5
1D7
330
1F
100
AcDbEntity
  8
0
  6
Continuous
 62
     7
370
    15
100
AcDbCircle
 10
696.3631397541
 20
889.964297373
 30
0.0
 40
10.0
100
AcDbArc
 50
301.6682432535
 51
0.0
  0
ARC
  5
1D8
330
1F
100
AcDbEntity
  8
0
  6
Continuous
 62
     7
370
    15
100
AcDbCircle
 10
801.3631397541
 20
889.964297373
 30
0.0
 40
10.0
100
AcDbArc
 50
180.0
 51
238.3317567465
  0
LINE
  5
1D9
330
1F
100
AcDbEntity
  8
0
  6
Continuous
 62
     7
370
    15
100
AcDbLine
 10
791.3631397541
 20
907.3540747203
 30
0.0
 11
790.8631397541
 21
907.8540747203
 31
0.0
  0
LINE
  5
1DA
330
1F
100
AcDbEntity
  8
0
  6
Continuous
 62
     7
370
    15
100
AcDbLine
 10
706.8631397541
 20
907.8540747203
 30
0.0
 11
706.3631397541
 21
907.3540747203
 31
0.0
  0
LINE
  5
1DB
330
1F
100
AcDbEntity
  8
0
  6
Continuous
 62
     7
370
    15
100
AcDbLine
 10
706.3631397541
 20
894.3986106598
 30
0.0
 11
706.3631397541
 21
889.964297373
 31
0.0
  0
LINE
  5
1DC
330
1F
100
AcDbEntity
  8
0
  6
Continuous
 62
     7
370
    15
100
AcDbLine
 10
706.3631397541
 20
907.3540747203
 30
0.0
 11
706.3631397541
 21
901.3508942703
 31
0.0
  0
LINE
  5
1DD
330
1F
100
AcDbEntity
  8
0
  6
Continuous
 62
     7
370
    15
100
AcDbLine
 10
791.3631397541
 20
901.3508942703
 30
0.0
 11
791.3631397541
 21
907.3540747203
 31
0.0
  0
LINE
  5
1DE
330
1F
100
AcDbEntity
  8
0
  6
Continuous
 62
     7
370
    15
100
AcDbLine
 10
791.3631397541
 20
889.964297373
 30
0.0
 11
791.3631397541
 21
894.3986106598
 31
0.0
  0
LINE
  5
1DF
330
1F
100
AcDbEntity
  8
0
  6
Continuous
 62
     7
370
    15
100
AcDbLine
 10
578.8631397541
 20
942.816417083
 30
0.0
 11
580.8631397541
 21
942.816417083
 31
0.0
  0
LINE
  5
1E0
330
1F
100
AcDbEntity
  8
0
  6
Continuous
 62
     7
370
    15
100
AcDbLine
 10
580.8631397541
 20
988.816417083
 30
0.0
 11
578.8631397541
 21
988.816417083
 31
0.0
  0
LINE
  5
1E1
330
1F
100
AcDbEntity
  8
0
  6
Continuous
 62
     7
370
    15
100
AcDbLine
 10
755.7862476128
 20
955.816417083
 30
0.0
 11
803.8631397541
 21
955.816417083
 31
0.0
  0
LINE
  5
1E2
330
1F
100
AcDbEntity
  8
0
  6
Continuous
 62
     7
370
    15
100
AcDbLine
 10
580.8631397541
 20
955.816417083
 30
0.0
 11
741.8631397541
 21
955.816417083
 31
0.0
  0
LINE
  5
1E3
330
1F
100
AcDbEntity
  8
0
  6
Continuous
 62
     7
370
    15
100
AcDbLine
 10
744.8631397541
 20
975.816417083
 30
0.0
 11
580.8631397541
 21
975.816417083
 31
0.0
  0
LINE
  5
1E4
330
1F
100
AcDbEntity
  8
0
  6
Continuous
 62
     7
370
    15
100
AcDbLine
 10
803.8631397541
 20
975.816417083
 30
0.0
 11
752.8631397541
 21
975.816417083
 31
0.0
  0
LINE
  5
1E5
330
1F
100
AcDbEntity
  8
0
  6
Continuous
 62
     7
370
    15
100
AcDbLine
 10
755.8631397541
 20
952.816417083
 30
0.0
 11
755.8631397541
 21
955.8700898798
 31
0.0
  0
LINE
  5
1E6
330
1F
100
AcDbEntity
  8
0
  6
Continuous
 62
     7
370
    15
100
AcDbLine
 10
741.8631397541
 20
955.816417083
 30
0.0
 11
741.8631397541
 21
952.816417083
 31
0.0
  0
LINE
  5
1E7
330
1F
100
AcDbEntity
  8
0
  6
Continuous
 62
     7
370
    15
100
AcDbLine
 10
803.8631397541
 20
950.816417083
 30
0.0
 11
805.8631397541
 21
950.816417083
 31
0.0
  0
LINE
  5
1E8
330
1F
100
AcDbEntity
  8
0
  6
Continuous
 62
     7
370
    15
100
AcDbLine
 10
805.8631397541
 20
980.816417083
 30
0.0
 11
803.8631397541
 21
980.816417083
 31
0.0
  0
LINE
  5
1E9
330
1F
100
AcDbEntity
  8
0
  6
Continuous
 62
     7
370
    15
100
AcDbLine
 10
578.8631397541
 20
1060.816417083
 30
0.0
 11
576.8631397541
 21
1060.816417083
 31
0.0
  0
LINE
  5
1EA
330
1F
100
AcDbEntity
  8
0
  6
Continuous
 62
     7
370
    15
100
AcDbLine
 10
576.8631397541
 20
870.816417083
 30
0.0
 11
578.8631397541
 21
870.816417083
 31
0.0
  0
ARC
  5
1EB
330
1F
100
AcDbEntity
  8
0
  6
Continuous
 62
     7
370
    15
100
AcDbCircle
 10
573.8631397541
 20
1047.016417083
 30
0.0
 40
3.0
100
AcDbArc
 50
0.0
 51
90.0
  0
ARC
  5
1EC
330
1F
100
AcDbEntity
  8
0
  6
Continuous
 62
     7
370
    15
100
AcDbCircle
 10
573.8631397541
 20
884.616417083
 30
0.0
 40
3.000000000000114
100
AcDbArc
 50
270.0
 51
0.0
  0
LINE
  5
1ED
330
1F
100
AcDbEntity
  8
0
  6
Continuous
 62
     7
370
    15
100
AcDbLine
 10
545.5153292931
 20
1050.016417083
 30
0.0
 11
536.8631397541
 21
1050.016417083
 31
0.0
  0
LINE
  5
1EE
330
1F
100
AcDbEntity
  8
0
  6
Continuous
 62
     7
370
    15
100
AcDbLine
 10
573.8631397541
 20
1050.016417083
 30
0.0
 11
558.2246279519
 21
1050.016417083
 31
0.0
  0
LINE
  5
1EF
330
1F
100
AcDbEntity
  8
0
  6
Continuous
 62
     7
370
    15
100
AcDbLine
 10
558.1858508828
 20
881.616417083
 30
0.0
 11
573.8631397541
 21
881.616417083
 31
0.0
  0
LINE
  5
1F0
330
1F
100
AcDbEntity
  8
0
  6
Continuous
 62
     7
370
    15
100
AcDbLine
 10
536.8631397541
 20
881.616417083
 30
0.0
 11
545.5398368189
 21
881.616417083
 31
0.0
  0
LINE
  5
1F1
330
1F
100
AcDbEntity
  8
0
  6
Continuous
 62
     7
370
    15
100
AcDbLine
 10
751.3631397541
 20
982.316417083
 30
0.0
 11
751.3631397541
 21
932.4750941937
 31
0.0
  0
SPLINE
  5
1F2
330
1F
100
AcDbEntity
  8
0
  6
Continuous
 62
     7
370
    15
100
AcDbSpline
210
0.0
220
0.0
230
1.0
 70
     8
 71
     3
 72
    12
 73
     8
 74
     0
 42
0.00000001
 43
0.00000001
 40
0.0
 40
0.0
 40
0.0
 40
0.0
 40
0.1976201448316608
 40
0.3987081539408012
 40
0.6513365304689701
 40
0.9115337261532864
 40
1.0
 40
1.0
 40
1.0
 40
1.0
 10
751.3631397540988
 20
932.475094193715
 30
0.0
 10
751.0418995933817
 20
932.5045135679425
 30
0.0
 10
750.393782107382
 20
932.5638685714434
 30
0.0
 10
749.293115927304
 20
932.6087894266228
 30
0.0
 10
748.0778315759235
 20
932.6026361663868
 30
0.0
 10
747.0684688629566
 20
932.5437819906293
 30
0.0
 10
746.5058841887698
 20
932.4889952232007
 30
0.0
 10
746.363139754099
 20
932.475094193715
 30
0.0
  0
LINE
  5
1F3
330
1F
100
AcDbEntity
  8
0
  6
Continuous
 62
     7
370
    15
100
AcDbLine
 10
746.3631397541
 20
982.316417083
 30
0.0
 11
746.3631397541
 21
932.4750941937
 31
0.0
  0
SPLINE
  5
1F4
330
1F
100
AcDbEntity
  8
0
  6
Continuous
 62
     7
370
    15
100
AcDbSpline
210
0.0
220
0.0
230
1.0
 70
     8
 71
     3
 72
    26
 73
    22
 74
     0
 42
0.00000001
 43
0.00000001
 40
0.0
 40
0.0
 40
0.0
 40
0.0
 40
0.0527506286617981
 40
0.1070354954549656
 40
0.1597848536316722
 40
0.2140553295970696
 40
0.2669620358984053
 40
0.3213964752967336
 40
0.3744036280485549
 40
0.4289574297799137
 40
0.481791259431799
 40
0.5361680424679495
 40
0.588825123796406
 40
0.6430045631180329
 40
0.6957571822973333
 40
0.7500269365071315
 40
0.8029979703642206
 40
0.8575041853607127
 40
0.9104766424911838
 40
0.9649976572061226
 40
1.0
 40
1.0
 40
1.0
 40
1.0
 10
746.3631397540988
 20
982.3164170829912
 30
0.0
 10
746.3697814460227
 20
982.3157615612287
 30
0.0
 10
746.3832580017292
 20
982.3144314520259
 30
0.0
 10
746.4916577594256
 20
982.30401179582
 30
0.0
 10
746.663088416347
 20
982.288498977057
 30
0.0
 10
746.8961648646896
 20
982.2692380307826
 30
0.0
 10
747.187018059091
 20
982.2482216916906
 30
0.0
 10
747.5231498158516
 20
982.2280842566128
 30
0.0
 10
747.900914807951
 20
982.2108034147943
 30
0.0
 10
748.3025490157783
 20
982.1986415319109
 30
0.0
 10
748.7235334836769
 20
982.1927832718978
 30
0.0
 10
749.1437541857381
 20
982.1939663021811
 30
0.0
 10
749.559260543275
 20
982.2020402514565
 30
0.0
 10
749.9511229384647
 20
982.215939874546
 30
0.0
 10
750.3158450242802
 20
982.2343424669557
 30
0.0
 10
750.6371364766077
 20
982.2549234654692
 30
0.0
 10
750.9113172442504
 20
982.2757005006029
 30
0.0
 10
751.1258633175355
 20
982.2940369235082
 30
0.0
 10
751.2767461030154
 20
982.3080049348782
 30
0.0
 10
751.3524697001826
 20
982.3153692320874
 30
0.0
 10
751.3601405588814
 20
982.3161225475143
 30
0.0
 10
751.3631397540988
 20
982.3164170829912
 30
0.0
  0
SPLINE
  5
1F5
330
1F
100
AcDbEntity
  8
0
  6
Continuous
 62
     7
370
    15
100
AcDbSpline
210
0.0
220
0.0
230
1.0
 70
     8
 71
     3
 72
    12
 73
     8
 74
     0
 42
0.00000001
 43
0.00000001
 40
0.0
 40
0.0
 40
0.0
 40
0.0
 40
0.2106202079766805
 40
0.422142382548288
 40
0.6338835306040003
 40
0.8592814110582083
 40
1.0
 40
1.0
 40
1.0
 40
1.0
 10
752.3479475071111
 20
933.216993372427
 30
0.0
 10
752.3224635646177
 20
933.1204845325852
 30
0.0
 10
752.2713865463948
 20
932.9270535604145
 30
0.0
 10
752.0879836458071
 20
932.6934727552849
 30
0.0
 10
751.843911121978
 20
932.5324157319521
 30
0.0
 10
751.5905840263872
 20
932.464587450337
 30
0.0
 10
751.4262877872367
 20
932.4721770827571
 30
0.0
 10
751.3631397540988
 20
932.475094193715
 30
0.0
  0
SPLINE
  5
BB
330
1F
100
AcDbEntity
  8
0
  6
Continuous
 62
     7
370
    15
100
AcDbSpline
210
0.0
220
0.0
230
1.0
 70
     8
 71
     3
 72
    12
 73
     8
 74
     0
 42
0.00000001
 43
0.00000001
 40
0.0
 40
0.0
 40
0.0
 40
0.0
 40
0.2488977756420498
 40
0.4985044144157233
 40
0.7334387829343489
 40
0.9494513919042485
 40
0.9999999999999999
 40
0.9999999999999999
 40
0.9999999999999999
 40
0.9999999999999999
 10
746.363139754099
 20
932.475094193715
 30
0.0
 10
746.2508957173632
 20
932.4744884581045
 30
0.0
 10
746.0260879718525
 20
932.4732752617426
 30
0.0
 10
745.723408677735
 20
932.6179383837996
 30
0.0
 10
745.5014938956482
 20
932.8511499011153
 30
0.0
 10
745.406999279404
 20
933.0705630085502
 30
0.0
 10
745.3829016829504
 20
933.1936517712227
 30
0.0
 10
745.3783320010867
 20
933.216993372427
 30
0.0
  0
LINE
  5
BC
330
1F
100
AcDbEntity
  8
0
  6
Continuous
 62
     7
370
    15
100
AcDbLine
 10
752.8631397541
 20
978.5682648367
 30
0.0
 11
752.8631397541
 21
936.1974238801
 31
0.0
  0
LINE
  5
BD
330
1F
100
AcDbEntity
  8
0
  6
Continuous
 62
     7
370
    15
100
AcDbLine
 10
752.8631397541
 20
936.1974238801
 30
0.0
 11
752.3479475071
 21
933.2169933724
 31
0.0
  0
LINE
  5
BE
330
1F
100
AcDbEntity
  8
0
  6
Continuous
 62
     7
370
    15
100
AcDbLine
 10
745.3783320011
 20
933.2169933724
 30
0.0
 11
744.8631397541
 21
936.1974238801
 31
0.0
  0
LINE
  5
BF
330
1F
100
AcDbEntity
  8
0
  6
Continuous
 62
     7
370
    15
100
AcDbLine
 10
744.8631397541
 20
978.5682648367
 30
0.0
 11
744.8631397541
 21
936.1974238801
 31
0.0
  0
LINE
  5
C0
330
1F
100
AcDbEntity
  8
0
  6
Continuous
 62
     7
370
    15
100
AcDbLine
 10
738.8631397541
 20
916.816417083
 30
0.0
 11
758.8631397541
 21
916.816417083
 31
0.0
  0
LINE
  5
C1
330
1F
100
AcDbEntity
  8
0
  6
Continuous
 62
     7
370
    15
100
AcDbLine
 10
741.3631397541
 20
945.816417083
 30
0.0
 11
744.8631397541
 21
945.816417083
 31
0.0
  0
LINE
  5
C2
330
1F
100
AcDbEntity
  8
0
  6
Continuous
 62
     7
370
    15
100
AcDbLine
 10
752.8631397541
 20
945.816417083
 30
0.0
 11
756.3631388507
 21
945.816417083
 31
0.0
  0
LINE
  5
C3
330
1F
100
AcDbEntity
  8
0
  6
Continuous
 62
     7
370
    15
100
AcDbLine
 10
751.3631397541
 20
982.316417083
 30
0.0
 11
751.3331691944
 21
982.3135159774
 31
0.0
  0
LINE
  5
C4
330
1F
100
AcDbEntity
  8
0
  6
Continuous
 62
     7
370
    15
100
AcDbLine
 10
699.8173777393
 20
900.3482289218
 30
0.0
 11
699.8173777393
 21
895.3482289218
 31
0.0
  0
LINE
  5
C5
330
1F
100
AcDbEntity
  8
0
  6
Continuous
 62
     7
370
    15
100
AcDbLine
 10
699.5673777393
 20
895.5982289218
 30
0.0
 11
699.5673777393
 21
900.0982289218
 31
0.0
  0
CIRCLE
  5
C6
330
1F
100
AcDbEntity
  8
0
  6
Continuous
 62
     7
370
    15
100
AcDbCircle
 10
748.8631397541
 20
897.8482289218
 30
0.0
 40
2.500000000000109
  0
CIRCLE
  5
C7
330
1F
100
AcDbEntity
  8
0
  6
Continuous
 62
     7
370
    15
100
AcDbCircle
 10
748.8631397541
 20
897.8482289218
 30
0.0
 40
2.250000000000156
  0
LINE
  5
C8
330
1F
100
AcDbEntity
  8
0
  6
Continuous
 62
     7
370
    15
100
AcDbLine
 10
797.9089017689
 20
895.3482289218
 30
0.0
 11
797.9089017689
 21
900.3482289218
 31
0.0
  0
LINE
  5
C9
330
1F
100
AcDbEntity
  8
0
  6
Continuous
 62
     7
370
    15
100
AcDbLine
 10
798.1589017689
 20
895.6434580104
 30
0.0
 11
798.1589017689
 21
895.5982289218
 31
0.0
  0
LINE
  5
CA
330
1F
100
AcDbEntity
  8
0
  6
Continuous
 62
     7
370
    15
100
AcDbLine
 10
798.1589017689
 20
900.0982289218
 30
0.0
 11
798.1589017689
 21
895.6434580104
 31
0.0
  0
LINE
  5
CB
330
1F
100
AcDbEntity
  8
0
  6
Continuous
 62
     7
370
    15
100
AcDbLine
 10
700.3631397541
 20
911.816417083
 30
0.0
 11
797.3631397541
 21
911.816417083
 31
0.0
  0
LINE
  5
CC
330
1F
100
AcDbEntity
  8
0
  6
Continuous
 62
     7
370
    15
100
AcDbLine
 10
798.3631397541
 20
910.816417083
 30
0.0
 11
699.3631397541
 21
910.816417083
 31
0.0
  0
LINE
  5
CD
330
1F
100
AcDbEntity
  8
0
  6
Continuous
 62
     7
370
    15
100
AcDbLine
 10
699.3631397541
 20
908.816417083
 30
0.0
 11
798.3631397541
 21
908.816417083
 31
0.0
  0
SPLINE
  5
CE
330
1F
100
AcDbEntity
  8
0
  6
Continuous
 62
     7
370
    15
100
AcDbSpline
210
0.0
220
0.0
230
1.0
 70
    11
 71
     3
 72
    26
 73
    22
 74
     0
 42
0.00000001
 43
0.00000001
 40
0.0
 40
0.0
 40
0.0
 40
0.0
 40
0.0535542490830922
 40
0.10710372448411
 40
0.1607770088403042
 40
0.2145315708685223
 40
0.2681519623870961
 40
0.3216328429240872
 40
0.3751849652309452
 40
0.4289086549100117
 40
0.4826376417952928
 40
0.5361956835734181
 40
0.5896737984062476
 40
0.6432871965688519
 40
0.6970402786550376
 40
0.7507198513118034
 40
0.8042281502501335
 40
0.85773378378353
 40
0.9114088850599276
 40
0.9651631504482352
 40
1.0
 40
1.0
 40
1.0
 40
1.0
 10
751.8631397540986
 20
897.8164170829913
 30
0.0
 10
751.8300955895037
 20
897.4797638905281
 30
0.0
 10
751.7640102057819
 20
896.8064875139642
 30
0.0
 10
751.2489914016742
 20
895.9099521486381
 30
0.0
 10
750.489564430159
 20
895.226741235711
 30
0.0
 10
749.5394013690827
 20
894.8347123022503
 30
0.0
 10
748.5154327116054
 20
894.7790473806401
 30
0.0
 10
747.5318102001195
 20
895.0644683373953
 30
0.0
 10
746.6975944764584
 20
895.6583451466126
 30
0.0
 10
746.1054639114332
 20
896.4959382402824
 30
0.0
 10
745.8239346323777
 20
897.4831655248665
 30
0.0
 10
745.8849380090835
 20
898.506573742491
 30
0.0
 10
746.2798274292028
 20
899.4511390124749
 30
0.0
 10
746.964783100033
 20
900.2130328374551
 30
0.0
 10
747.864699089254
 20
900.7063413828623
 30
0.0
 10
748.8773675891165
 20
900.8736983881264
 30
0.0
 10
749.8863341544517
 20
900.6971069333615
 30
0.0
 10
750.7811823836608
 20
900.1976772094985
 30
0.0
 10
751.4567258253403
 20
899.430536712237
 30
0.0
 10
751.812898653885
 20
898.5898340502248
 30
0.0
 10
751.8489594858208
 20
898.0347096768877
 30
0.0
 10
751.8631397540986
 20
897.8164170829913
 30
0.0
  0
LINE
  5
CF
330
1F
100
AcDbEntity
  8
0
  6
Continuous
 62
     7
370
    15
100
AcDbLine
 10
706.8631397541
 20
907.8540747203
 30
0.0
 11
790.8631397541
 21
907.8540747203
 31
0.0
  0
LINE
  5
D0
330
1F
100
AcDbEntity
  8
0
  6
Continuous
 62
     7
370
    15
100
AcDbLine
 10
791.3631397541
 20
907.3540747203
 30
0.0
 11
706.3631397541
 21
907.3540747203
 31
0.0
  0
SPLINE
  5
D1
330
1F
100
AcDbEntity
  8
0
  6
Continuous
 62
     7
370
    15
100
AcDbSpline
210
0.0
220
0.0
230
1.0
 70
     8
 71
     3
 72
    12
 73
     8
 74
     0
 42
0.00000001
 43
0.00000001
 40
0.0
 40
0.0
 40
0.0
 40
0.0
 40
0.2143421637168342
 40
0.4286666931346548
 40
0.6434486032061496
 40
0.8585305648354937
 40
1.0
 40
1.0
 40
1.0
 40
1.0
 10
791.2187769231938
 20
897.8540747202883
 30
0.0
 10
791.2220376040416
 20
897.4614666764528
 30
0.0
 10
791.2285586974751
 20
896.6762828893221
 30
0.0
 10
791.2743583942795
 20
895.6269559900678
 30
0.0
 10
791.3239893322385
 20
894.842286302935
 30
0.0
 10
791.3596499443701
 20
894.3959745047642
 30
0.0
 10
791.3595467976509
 20
894.3978618249346
 30
0.0
 10
791.3595058719716
 20
894.3986106598035
 30
0.0
  0
SPLINE
  5
D2
330
1F
100
AcDbEntity
  8
0
  6
Continuous
 62
     7
370
    15
100
AcDbSpline
210
0.0
220
0.0
230
1.0
 70
     8
 71
     3
 72
    13
 73
     9
 74
     0
 42
0.00000001
 43
0.00000001
 40
0.0
 40
0.0
 40
0.0
 40
0.0
 40
0.0035148082361341
 40
0.217527028233394
 40
0.4315306114353332
 40
0.6461604250934506
 40
0.8610809521064005
 40
1.0
 40
1.0
 40
1.0
 40
1.0
 10
791.3628848270473
 20
901.3508942703006
 30
0.0
 10
791.3629696894127
 20
901.3519531530676
 30
0.0
 10
791.3682217136761
 20
901.4174860658321
 30
0.0
 10
791.3489710398712
 20
901.1847334982612
 30
0.0
 10
791.3081121540386
 20
900.6388637665758
 30
0.0
 10
791.2565823615992
 20
899.7331618295299
 30
0.0
 10
791.223664478523
 20
898.7552506610617
 30
0.0
 10
791.220154828118
 20
898.1081352235129
 30
0.0
 10
791.2187769231938
 20
897.8540747202883
 30
0.0
  0
SPLINE
  5
D3
330
1F
100
AcDbEntity
  8
0
  6
Continuous
 62
     7
370
    15
100
AcDbSpline
210
0.0
220
0.0
230
1.0
 70
     8
 71
     3
 72
    17
 73
    13
 74
     0
 42
0.00000001
 43
0.00000001
 40
0.0
 40
0.0
 40
0.0
 40
0.0
 40
0.0365434133875316
 40
0.1435349804514399
 40
0.2506583680760269
 40
0.3580985647212224
 40
0.4655480971498132
 40
0.5726820168506978
 40
0.6796687542062908
 40
0.7869055116768064
 40
0.8943998400095384
 40
1.0
 40
1.0
 40
1.0
 40
1.0
 10
706.3667736362263
 20
894.3986106598035
 30
0.0
 10
706.3657756707061
 20
894.3863633784309
 30
0.0
 10
706.3618558682533
 20
894.3382585866384
 30
0.0
 10
706.3883700616386
 20
894.6607169541913
 30
0.0
 10
706.4351892128872
 20
895.332471191993
 30
0.0
 10
706.4842443350169
 20
896.315688403528
 30
0.0
 10
706.5113204415107
 20
897.466124289053
 30
0.0
 10
706.5052335672397
 20
898.6601602847438
 30
0.0
 10
706.4684176986931
 20
899.7638005107062
 30
0.0
 10
706.4177834349708
 20
900.6461437945563
 30
0.0
 10
706.3726565746325
 20
901.2416383209836
 30
0.0
 10
706.3664636295583
 20
901.3146920755389
 30
0.0
 10
706.3633946811506
 20
901.3508942703006
 30
0.0
  0
SPLINE
  5
D4
330
1F
100
AcDbEntity
  8
0
  6
Continuous
 62
     7
370
    15
100
AcDbSpline
210
0.0
220
0.0
230
1.0
 70
    11
 71
     3
 72
    26
 73
    22
 74
     0
 42
0.00000001
 43
0.00000001
 40
0.0
 40
0.0
 40
0.0
 40
0.0
 40
0.0535645973532208
 40
0.107124787854752
 40
0.1607992788286051
 40
0.214548753373599
 40
0.2681743355354923
 40
0.3216711139012431
 40
0.3752338037730331
 40
0.4289549011008947
 40
0.4826806664072611
 40
0.5362486224151288
 40
0.5897429858818135
 40
0.6433623617307087
 40
0.6971105254056676
 40
0.7507906001097819
 40
0.8043125765079308
 40
0.8578323929436469
 40
0.9115088223601349
 40
0.9652579558180854
 40
1.0
 40
1.0
 40
1.0
 40
1.0
 10
752.363139754099
 20
897.8540747202883
 30
0.0
 10
752.3245770094536
 20
898.2468988464858
 30
0.0
 10
752.2474546927858
 20
899.0325147805632
 30
0.0
 10
751.6464087646325
 20
900.0785984767932
 30
0.0
 10
750.7602186470848
 20
900.87562326329
 30
0.0
 10
749.6516276210107
 20
901.3328356414302
 30
0.0
 10
748.4569234698278
 20
901.3976297257592
 30
0.0
 10
747.3092077199939
 20
901.0643749202995
 30
0.0
 10
746.3359516984634
 20
900.3711276073313
 30
0.0
 10
745.6453913351615
 20
899.3936581408923
 30
0.0
 10
745.317280594775
 20
898.2417948696371
 30
0.0
 10
745.3888133332946
 20
897.0477181899231
 30
0.0
 10
745.8500203920271
 20
895.9456618730155
 30
0.0
 10
746.6496631326344
 20
895.0570062143382
 30
0.0
 10
747.6998643978517
 20
894.4819615209034
 30
0.0
 10
748.881421517794
 20
894.2872434490272
 30
0.0
 10
750.0586253875224
 20
894.4938590745513
 30
0.0
 10
751.1025067426439
 20
895.0772362332289
 30
0.0
 10
751.8901735335297
 20
895.9728307728166
 30
0.0
 10
752.3047749685753
 20
896.9532225471349
 30
0.0
 10
752.3466854901648
 20
897.6001054939838
 30
0.0
 10
752.363139754099
 20
897.8540747202883
 30
0.0
  0
LINE
  5
D5
330
1F
100
AcDbEntity
  8
0
  6
Continuous
 62
     7
370
    15
100
AcDbLine
 10
580.8631397541
 20
965.816417083
 30
0.0
 11
580.8631397541
 21
988.816417083
 31
0.0
  0
LINE
  5
D6
330
1F
100
AcDbEntity
  8
0
  6
Continuous
 62
     7
370
    15
100
AcDbLine
 10
580.8631397541
 20
942.816417083
 30
0.0
 11
580.8631397541
 21
965.816417083
 31
0.0
  0
SPLINE
  5
D7
330
1F
100
AcDbEntity
  8
0
  6
Continuous
 62
     7
370
    15
100
AcDbSpline
210
0.0
220
0.0
230
1.0
 70
     8
 71
     3
 72
    11
 73
     7
 74
     0
 42
0.00000001
 43
0.00000001
 40
0.0
 40
0.0
 40
0.0
 40
0.0
 40
0.1504314205991202
 40
0.429187877023059
 40
0.7279264047021098
 40
1.0
 40
1.0
 40
1.0
 40
1.0
 10
755.7862476127741
 20
955.8700899401044
 30
0.0
 10
755.80106584943
 20
955.8599599241624
 30
0.0
 10
755.8433429714978
 20
955.8310585150082
 30
0.0
 10
755.2799529889263
 20
956.2164676886921
 30
0.0
 10
754.3231878471671
 20
956.8622105714984
 30
0.0
 10
753.3344261045213
 20
957.3677047132255
 30
0.0
 10
752.8631397540989
 20
957.6086449508371
 30
0.0
  0
SPLINE
  5
D8
330
1F
100
AcDbEntity
  8
0
  6
Continuous
 62
     7
370
    15
100
AcDbSpline
210
0.0
220
0.0
230
1.0
 70
     8
 71
     3
 72
    11
 73
     7
 74
     0
 42
0.00000001
 43
0.00000001
 40
0.0
 40
0.0
 40
0.0
 40
0.0
 40
0.2751729202872802
 40
0.6664752803374144
 40
0.8300575337649033
 40
0.9999999999999999
 40
0.9999999999999999
 40
0.9999999999999999
 40
0.9999999999999999
 10
744.8631397540989
 20
957.6150296373787
 30
0.0
 10
744.3920984865966
 20
957.3712143675342
 30
0.0
 10
743.2512254658019
 20
956.7806880535696
 30
0.0
 10
742.3515911633101
 20
956.1520113340894
 30
0.0
 10
741.9203816629699
 20
955.8571801647696
 30
0.0
 10
741.8824614327267
 20
955.8301764278757
 30
0.0
 10
741.8631397540989
 20
955.8164170829913
 30
0.0
  0
LINE
  5
D9
330
1F
100
AcDbEntity
  8
0
  6
Continuous
 62
     7
370
    15
100
AcDbLine
 10
741.8631397541
 20
952.816417083
 30
0.0
 11
744.8631397541
 21
952.816417083
 31
0.0
  0
LINE
  5
DA
330
1F
100
AcDbEntity
  8
0
  6
Continuous
 62
     7
370
    15
100
AcDbLine
 10
752.8631397541
 20
952.816417083
 30
0.0
 11
755.8631397541
 21
952.816417083
 31
0.0
  0
LINE
  5
DB
330
1F
100
AcDbEntity
  8
0
  6
Continuous
 62
     7
370
    15
100
AcDbLine
 10
803.8631397541
 20
980.816417083
 30
0.0
 11
803.8631397541
 21
950.816417083
 31
0.0
  0
LINE
  5
DC
330
1F
100
AcDbEntity
  8
0
  6
Continuous
 62
     7
370
    15
100
AcDbLine
 10
805.8631397541
 20
980.816417083
 30
0.0
 11
805.8631397541
 21
950.816417083
 31
0.0
  0
LINE
  5
DD
330
1F
100
AcDbEntity
  8
0
  6
Continuous
 62
     7
370
    15
100
AcDbLine
 10
553.3020039551
 20
881.616417083
 30
0.0
 11
547.8631397541
 21
881.616417083
 31
0.0
  0
LINE
  5
DE
330
1F
100
AcDbEntity
  8
0
  6
Continuous
 62
     7
370
    15
100
AcDbLine
 10
555.8631397541
 20
881.616417083
 30
0.0
 11
553.3020039551
 21
881.616417083
 31
0.0
  0
LINE
  5
DF
330
1F
100
AcDbEntity
  8
0
  6
Continuous
 62
     7
370
    15
100
AcDbLine
 10
547.8631397541
 20
1050.016417083
 30
0.0
 11
555.8631397541
 21
1050.016417083
 31
0.0
  0
CIRCLE
  5
E0
330
1F
100
AcDbEntity
  8
0
  6
Continuous
 62
     7
370
    15
100
AcDbCircle
 10
551.8631397541
 20
965.816417083
 30
0.0
 40
4.000000000000114
  0
LINE
  5
E1
330
1F
100
AcDbEntity
  8
0
  6
Continuous
 62
     7
370
    15
100
AcDbLine
 10
550.5163810192
 20
966.3356224791
 30
0.0
 11
550.7401153239
 21
964.9096925039
 31
0.0
  0
LINE
  5
E2
330
1F
100
AcDbEntity
  8
0
  6
Continuous
 62
     7
370
    15
100
AcDbLine
 10
550.7401153239
 20
964.9096925039
 30
0.0
 11
552.0868740587
 21
964.3904871078
 31
0.0
  0
LINE
  5
E3
330
1F
100
AcDbEntity
  8
0
  6
Continuous
 62
     7
370
    15
100
AcDbLine
 10
552.0868740587
 20
964.3904871078
 30
0.0
 11
553.209898489
 21
965.2972116869
 31
0.0
  0
LINE
  5
E4
330
1F
100
AcDbEntity
  8
0
  6
Continuous
 62
     7
370
    15
100
AcDbLine
 10
553.209898489
 20
965.2972116869
 30
0.0
 11
552.9861641843
 21
966.7231416621
 31
0.0
  0
LINE
  5
E5
330
1F
100
AcDbEntity
  8
0
  6
Continuous
 62
     7
370
    15
100
AcDbLine
 10
552.9861641843
 20
966.7231416621
 30
0.0
 11
551.6394054495
 21
967.2423470582
 31
0.0
  0
LINE
  5
E6
330
1F
100
AcDbEntity
  8
0
  6
Continuous
 62
     7
370
    15
100
AcDbLine
 10
551.6394054495
 20
967.2423470582
 30
0.0
 11
550.5163810192
 21
966.3356224791
 31
0.0
  0
LINE
  5
E7
330
1F
100
AcDbEntity
  8
0
  6
Continuous
 62
     7
370
    15
100
AcDbLine
 10
578.8631397541
 20
965.816417083
 30
0.0
 11
578.8631397541
 21
1060.816417083
 31
0.0
  0
LINE
  5
E8
330
1F
100
AcDbEntity
  8
0
  6
Continuous
 62
     7
370
    15
100
AcDbLine
 10
578.8631397541
 20
870.816417083
 30
0.0
 11
578.8631397541
 21
965.816417083
 31
0.0
  0
LINE
  5
E9
330
1F
100
AcDbEntity
  8
0
  6
Continuous
 62
     7
370
    15
100
AcDbLine
 10
576.8631397541
 20
965.816417083
 30
0.0
 11
576.8631397541
 21
1060.816417083
 31
0.0
  0
LINE
  5
EA
330
1F
100
AcDbEntity
  8
0
  6
Continuous
 62
     7
370
    15
100
AcDbLine
 10
576.8631397541
 20
870.816417083
 30
0.0
 11
576.8631397541
 21
965.816417083
 31
0.0
  0
SPLINE
  5
EB
330
1F
100
AcDbEntity
  8
0
  6
Continuous
 62
     7
370
    15
100
AcDbSpline
210
0.0
220
0.0
230
1.0
 70
    11
 71
     3
 72
    27
 73
    23
 74
     0
 42
0.00000001
 43
0.00000001
 40
0.0
 40
0.0
 40
0.0
 40
0.0
 40
0.0108742067200695
 40
0.0645146214887944
 40
0.1192801146465853
 40
0.1747185831606048
 40
0.2302078447068223
 40
0.2849608625333112
 40
0.3383224192820463
 40
0.3903444185104608
 40
0.4418646204163864
 40
0.4788453388891079
 40
0.5277868207702318
 40
0.58187681896662
 40
0.6369144087428235
 40
0.6924451453449373
 40
0.7477896158671146
 40
0.8021466074990071
 40
0.8550312552148024
 40
0.9067777184243643
 40
0.9583666036843379
 40
1.0
 40
1.0
 40
1.0
 40
1.0
 10
548.1562929733176
 20
970.9972841741118
 30
0.0
 10
548.2761758576685
 20
971.078085674022
 30
0.0
 10
548.9874184435398
 20
971.5574657627616
 30
0.0
 10
550.498059226834
 20
972.1495643672813
 30
0.0
 10
552.7151204015822
 20
972.244569294571
 30
0.0
 10
554.8628378768724
 20
971.5765849590363
 30
0.0
 10
556.6546971319414
 20
970.2210213112229
 30
0.0
 10
557.8648521576588
 20
968.3613091292691
 30
0.0
 10
558.3690368781951
 20
966.249258101503
 30
0.0
 10
558.155386258248
 20
964.1346189057675
 30
0.0
 10
557.3617850231468
 20
962.4042130208452
 30
0.0
 10
556.1637538552102
 20
961.0055451582521
 30
0.0
 10
554.5964889992141
 20
959.9465201706139
 30
0.0
 10
552.5327181324024
 20
959.3699611931801
 30
0.0
 10
550.30385468963
 20
959.5200147789725
 30
0.0
 10
548.241020873979
 20
960.4205450054434
 30
0.0
 10
546.6139577473627
 20
961.9616930661477
 30
0.0
 10
545.6216712107155
 20
963.9299017426424
 30
0.0
 10
545.348128831347
 20
966.0701500537139
 30
0.0
 10
545.7865166001799
 20
968.1334172120199
 30
0.0
 10
546.7669470993303
 20
969.849047486133
 30
0.0
 10
547.7273663734463
 20
970.6427941456433
 30
0.0
 10
548.1562929733176
 20
970.9972841741118
 30
0.0
  0
LINE
  5
EC
330
1F
100
AcDbEntity
  8
0
  6
Continuous
 62
     7
370
    15
100
AcDbLine
 10
536.8631397541
 20
965.816417083
 30
0.0
 11
536.8631397541
 21
881.616417083
 31
0.0
  0
LINE
  5
ED
330
1F
100
AcDbEntity
  8
0
  6
Continuous
 62
     7
370
    15
100
AcDbLine
 10
536.8631397541
 20
1050.016417083
 30
0.0
 11
536.8631397541
 21
965.816417083
 31
0.0
  0
SPLINE
  5
EE
330
1F
100
AcDbEntity
  8
0
  6
Continuous
 62
     7
370
    15
100
AcDbSpline
210
0.0
220
0.0
230
1.0
 70
     8
 71
     3
 72
    18
 73
    14
 74
     0
 42
0.00000001
 43
0.00000001
 40
0.0
 40
0.0
 40
0.0
 40
0.0
 40
0.0350739644131826
 40
0.1382841099281908
 40
0.2416305345235822
 40
0.3468716926589498
 40
0.4546400774604459
 40
0.5645046394084334
 40
0.675480982049853
 40
0.7576093325301031
 40
0.8565427264598972
 40
0.9634998126243339
 40
1.0
 40
1.0
 40
1.0
 40
1.0
 10
545.539836818858
 20
881.6222136010847
 30
0.0
 10
545.5181081172304
 20
881.6206036120457
 30
0.0
 10
545.4324396102701
 20
881.6142560005054
 30
0.0
 10
545.9870835107295
 20
881.655725237593
 30
0.0
 10
547.1442051282793
 20
881.7299304428354
 30
0.0
 10
548.8707212701231
 20
881.8113677079542
 30
0.0
 10
550.9527492851229
 20
881.8612207428378
 30
0.0
 10
553.1826643731365
 20
881.8559847099019
 30
0.0
 10
555.0951421196042
 20
881.8007617594415
 30
0.0
 10
556.6334095523675
 20
881.7261484507877
 30
0.0
 10
557.7182488471841
 20
881.65730510784
 30
0.0
 10
558.290949152078
 20
881.6144661697601
 30
0.0
 10
558.2071676234606
 20
881.6206798422193
 30
0.0
 10
558.1858508828193
 20
881.6222608022043
 30
0.0
  0
SPLINE
  5
EF
330
1F
100
AcDbEntity
  8
0
  6
Continuous
 62
     7
370
    15
100
AcDbSpline
210
0.0
220
0.0
230
1.0
 70
     8
 71
     3
 72
    17
 73
    13
 74
     0
 42
0.00000001
 43
0.00000001
 40
0.0
 40
0.0
 40
0.0
 40
0.0
 40
0.0899250043722517
 40
0.1597597868013001
 40
0.2594313794978093
 40
0.3652328141193303
 40
0.4734867552866924
 40
0.5836976053460939
 40
0.6948210508121369
 40
0.8054761927021729
 40
0.9140644234088563
 40
1.0
 40
1.0
 40
1.0
 40
1.0
 10
558.224627951852
 20
1050.013478281881
 30
0.0
 10
558.1921823851653
 20
1050.010949267848
 30
0.0
 10
558.1345399435253
 20
1050.006456248966
 30
0.0
 10
557.4296931653106
 20
1049.956612691709
 30
0.0
 10
556.2959111023924
 20
1049.887144985702
 30
0.0
 10
554.5226287618815
 20
1049.809967521466
 30
0.0
 10
552.3955279208288
 20
1049.768219754778
 30
0.0
 10
550.1701865357094
 20
1049.783635980588
 30
0.0
 10
548.122132285817
 20
1049.85178979129
 30
0.0
 10
546.5469518290196
 20
1049.938702907317
 30
0.0
 10
545.5952958522437
 20
1050.006210130694
 30
0.0
 10
545.5398318512995
 20
1050.010546812753
 30
0.0
 10
545.5153292931428
 20
1050.012462646492
 30
0.0
  0
SPLINE
  5
F0
330
1F
100
AcDbEntity
  8
0
  6
Continuous
 62
     7
370
    15
100
AcDbSpline
210
0.0
220
0.0
230
1.0
 70
    11
 71
     3
 72
    27
 73
    23
 74
     0
 42
0.00000001
 43
0.00000001
 40
0.0
 40
0.0
 40
0.0
 40
0.0
 40
0.0416782370373356
 40
0.0936210879081292
 40
0.1444795077837754
 40
0.1969645560096429
 40
0.2510915537718247
 40
0.3064841698971664
 40
0.3622900902976707
 40
0.4176949885349158
 40
0.4721062463857568
 40
0.5211967642259591
 40
0.5581544864633009
 40
0.6094318008040553
 40
0.6610554981006507
 40
0.7140511154748578
 40
0.7686589561339564
 40
0.8242806128540008
 40
0.8800393776046432
 40
0.9351717812104673
 40
0.9890916743345113
 40
1.0
 40
1.0
 40
1.0
 40
1.0
 10
549.0619633417183
 20
969.6384815021153
 30
0.0
 10
548.7350630780061
 20
969.3802444168559
 30
0.0
 10
548.0007527879914
 20
968.8001710121542
 30
0.0
 10
547.2444177759377
 20
967.5340917695621
 30
0.0
 10
546.9061945084317
 20
966.0002631506469
 30
0.0
 10
547.1187290258842
 20
964.4123738288484
 30
0.0
 10
547.8874199295117
 20
962.9583360439366
 30
0.0
 10
549.131928608613
 20
961.8346335507022
 30
0.0
 10
550.6910906255615
 20
961.1860651781013
 30
0.0
 10
552.3661487208636
 20
961.0786280191776
 30
0.0
 10
553.9213510996923
 20
961.4926050039672
 30
0.0
 10
555.1137078773456
 20
962.2611560052388
 30
0.0
 10
556.0324561019324
 20
963.2858726445539
 30
0.0
 10
556.6470939561799
 20
964.5646713729114
 30
0.0
 10
556.8138124609475
 20
966.1388727765843
 30
0.0
 10
556.4210095454242
 20
967.7086281272908
 30
0.0
 10
555.4870651709327
 20
969.0772408324527
 30
0.0
 10
554.1222177803379
 20
970.0613379690931
 30
0.0
 10
552.5032557732012
 20
970.5411310157301
 30
0.0
 10
550.837101919217
 20
970.4730112088146
 30
0.0
 10
549.6949804218716
 20
970.0465427519553
 30
0.0
 10
549.1531367179506
 20
969.6972545163418
 30
0.0
 10
549.0619633417183
 20
969.6384815021153
 30
0.0
  0
LINE
  5
F1
330
1F
100
AcDbEntity
  8
0
  6
Continuous
 62
     8
370
    15
100
AcDbLine
 10
752.3479475071
 20
981.4900652607
 30
0.0
 11
752.3479475071
 21
933.2169933724
 31
0.0
  0
LINE
  5
F2
330
1F
100
AcDbEntity
  8
0
  6
Continuous
 62
     8
370
    15
100
AcDbLine
 10
745.3783320011
 20
981.4900652607
 30
0.0
 11
745.3783320011
 21
933.2169933724
 31
0.0
  0
LINE
  5
F3
330
1F
100
AcDbEntity
  8
0
  6
Continuous
 62
     8
370
    15
100
AcDbLine
 10
740.8631397541
 20
918.816417083
 30
0.0
 11
756.8631397541
 21
918.816417083
 31
0.0
  0
LINE
  5
F4
330
1F
100
AcDbEntity
  8
0
  6
Continuous
 62
     8
370
    15
100
AcDbLine
 10
756.8631397541
 20
945.316417083
 30
0.0
 11
752.8631397541
 21
945.316417083
 31
0.0
  0
LINE
  5
F5
330
1F
100
AcDbEntity
  8
0
  6
Continuous
 62
     8
370
    15
100
AcDbLine
 10
744.8631397541
 20
945.316417083
 30
0.0
 11
740.8631397541
 21
945.316417083
 31
0.0
  0
LINE
  5
F8
330
1F
100
AcDbEntity
  8
0
  6
Continuous
 62
     8
370
    15
100
AcDbLine
 10
573.8631397541
 20
965.816417083
 30
0.0
 11
573.8631397541
 21
881.616417083
 31
0.0
  0
LINE
  5
F9
330
1F
100
AcDbEntity
  8
0
  6
Continuous
 62
     8
370
    15
100
AcDbLine
 10
573.8631397541
 20
1050.016417083
 30
0.0
 11
573.8631397541
 21
965.816417083
 31
0.0
  0
DIMENSION
  5
FC
330
1F
100
AcDbEntity
  8
0
  6
Continuous
 62
     7
370
     0
100
AcDbDimension
  2
_D
 10
888.8631397541
 20
911.816417083
 30
0.0
 11
888.8631397541
 21
824.6454500561
 31
0.0
 70
    32
  1
<>
 71
     2
 42
-1.0
 73
     0
 74
     0
 75
     0
  3
SLDDIMSTYLE0
100
AcDbAlignedDimension
 13
803.546341925
 23
714.8540747203
 33
0.0
 14
797.3631397541
 24
911.816417083
 34
0.0
 50
90.0
100
AcDbRotatedDimension
  0
DIMENSION
  5
107
330
1F
100
AcDbEntity
  8
0
  6
Continuous
 62
     7
370
     0
100
AcDbDimension
  2
_D_1
 10
536.8631397541
 20
1113.3898524596
 30
0.0
 11
703.0868970771
 21
1113.3898524596
 31
0.0
 70
    32
  1
<>
 71
     2
 42
-1.0
 73
     0
 74
     0
 75
     0
  3
SLDDIMSTYLE1
100
AcDbAlignedDimension
 13
838.8631397541
 23
861.6380370067
 33
0.0
 14
536.8631397541
 24
1050.016417083
 34
0.0
100
AcDbRotatedDimension
  0
DIMENSION
  5
112
330
1F
100
AcDbEntity
  8
0
  6
Continuous
 62
     7
370
     0
100
AcDbDimension
  2
_D_2
 10
486.8630897541
 20
1050.016417083
 30
0.0
 11
486.8630897541
 21
957.3148653809
 31
0.0
 70
    32
  1
%%c<>
 71
     2
 42
-1.0
 73
     0
 74
     0
 75
     0
  3
SLDDIMSTYLE2
100
AcDbAlignedDimension
 13
536.8631397541
 23
881.616417083
 33
0.0
 14
536.8631397541
 24
1050.016417083
 34
0.0
 50
90.0
100
AcDbRotatedDimension
  0
DIMENSION
  5
11E
330
1F
100
AcDbEntity
  8
0
  6
Continuous
 62
     7
370
     0
100
AcDbDimension
  2
_D_3
 10
888.8631397541
 20
911.816417083
 30
0.0
 11
888.8631397541
 21
997.1833299572
 31
0.0
 70
    32
  1
<>
 71
     2
 42
-1.0
 73
     0
 74
     0
 75
     0
  3
SLDDIMSTYLE1
100
AcDbAlignedDimension
 13
578.8631397541
 23
1060.816417083
 33
0.0
 14
797.3631397541
 24
911.816417083
 34
0.0
 50
90.0
100
AcDbRotatedDimension
  0
LINE
  5
128
330
1F
100
AcDbEntity
  8
0
  6
Continuous
 62
     7
370
    15
100
AcDbLine
 10
251.3516395678
 20
916.8164183645
 30
0.0
 11
251.3516395678
 21
911.8164156823
 31
0.0
  0
LINE
  5
129
330
1F
100
AcDbEntity
  8
0
  6
Continuous
 62
     7
370
    15
100
AcDbLine
 10
271.3516391207
 20
911.8164156823
 30
0.0
 11
271.3516391207
 21
916.8164183645
 31
0.0
  0
ARC
  5
12A
330
1F
100
AcDbEntity
  8
0
  6
Continuous
 62
     7
370
    15
100
AcDbCircle
 10
251.3516393443
 20
918.816417083
 30
0.0
 40
2.000000000000114
100
AcDbArc
 50
270.0
 51
0.0
  0
ARC
  5
12B
330
1F
100
AcDbEntity
  8
0
  6
Continuous
 62
     7
370
    15
100
AcDbCircle
 10
271.3516393443
 20
918.816417083
 30
0.0
 40
2.000000000000114
100
AcDbArc
 50
180.0
 51
270.0
  0
LINE
  5
12C
330
1F
100
AcDbEntity
  8
0
  6
Continuous
 62
     7
370
    15
100
AcDbLine
 10
253.3516389643
 20
932.5820033698
 30
0.0
 11
253.3516389643
 21
918.8164186923
 31
0.0
  0
LINE
  5
12D
330
1F
100
AcDbEntity
  8
0
  6
Continuous
 62
     7
370
    15
100
AcDbLine
 10
253.3516389643
 20
945.3164165167
 30
0.0
 11
253.3516389643
 21
943.540499851
 31
0.0
  0
LINE
  5
12E
330
1F
100
AcDbEntity
  8
0
  6
Continuous
 62
     7
370
    15
100
AcDbLine
 10
269.3516397242
 20
943.540499851
 30
0.0
 11
269.3516397242
 21
945.3164165167
 31
0.0
  0
LINE
  5
12F
330
1F
100
AcDbEntity
  8
0
  6
Continuous
 62
     7
370
    15
100
AcDbLine
 10
269.3516397242
 20
918.8164186923
 30
0.0
 11
269.3516397242
 21
932.5744745581
 31
0.0
  0
ARC
  5
130
330
1F
100
AcDbEntity
  8
0
  6
Continuous
 62
     7
370
    15
100
AcDbCircle
 10
253.8516393443
 20
945.316417083
 30
0.0
 40
0.5000000000000284
100
AcDbArc
 50
90.0
 51
180.0
  0
ARC
  5
131
330
1F
100
AcDbEntity
  8
0
  6
Continuous
 62
     7
370
    15
100
AcDbCircle
 10
268.8516393443
 20
945.316417083
 30
0.0
 40
0.5
100
AcDbArc
 50
0.0
 51
90.0
  0
LINE
  5
132
330
1F
100
AcDbEntity
  8
0
  6
Continuous
 62
     7
370
    15
100
AcDbLine
 10
258.8516394001
 20
982.3164169936
 30
0.0
 11
258.8516394001
 21
982.1935718207
 31
0.0
  0
LINE
  5
133
330
1F
100
AcDbEntity
  8
0
  6
Continuous
 62
     7
370
    15
100
AcDbLine
 10
263.8516392884
 20
982.1935718207
 30
0.0
 11
263.8516392884
 21
982.3164169936
 31
0.0
  0
LINE
  5
134
330
1F
100
AcDbEntity
  8
0
  6
Continuous
 62
     7
370
    15
100
AcDbLine
 10
310.3973995288
 20
900.348232433
 30
0.0
 11
303.7823978205
 21
900.348232433
 31
0.0
  0
LINE
  5
135
330
1F
100
AcDbEntity
  8
0
  6
Continuous
 62
     7
370
    15
100
AcDbLine
 10
303.7830422957
 20
895.3482297508
 30
0.0
 11
310.3973995288
 21
895.3482297508
 31
0.0
  0
LINE
  5
136
330
1F
100
AcDbEntity
  8
0
  6
Continuous
 62
     7
370
    15
100
AcDbLine
 10
310.3973995288
 20
895.3482297508
 30
0.0
 11
310.6474000354
 21
895.5982265322
 31
0.0
  0
LINE
  5
137
330
1F
100
AcDbEntity
  8
0
  6
Continuous
 62
     7
370
    15
100
AcDbLine
 10
310.6474000354
 20
900.0982282011
 30
0.0
 11
310.3973995288
 21
900.348232433
 31
0.0
  0
LINE
  5
138
330
1F
100
AcDbEntity
  8
0
  6
Continuous
 62
     7
370
    15
100
AcDbLine
 10
212.3058791597
 20
895.3482297508
 30
0.0
 11
218.9202363928
 21
895.3482297508
 31
0.0
  0
LINE
  5
139
330
1F
100
AcDbEntity
  8
0
  6
Continuous
 62
     7
370
    15
100
AcDbLine
 10
218.920906945
 20
900.348232433
 30
0.0
 11
212.3058791597
 21
900.348232433
 31
0.0
  0
LINE
  5
13A
330
1F
100
AcDbEntity
  8
0
  6
Continuous
 62
     7
370
    15
100
AcDbLine
 10
212.3058791597
 20
900.348232433
 30
0.0
 11
212.0558786531
 21
900.0982282011
 31
0.0
  0
LINE
  5
13B
330
1F
100
AcDbEntity
  8
0
  6
Continuous
 62
     7
370
    15
100
AcDbLine
 10
212.0558786531
 20
895.5982265322
 30
0.0
 11
212.3058791597
 21
895.3482297508
 31
0.0
  0
LINE
  5
13C
330
1F
100
AcDbEntity
  8
0
  6
Continuous
 62
     7
370
    15
100
AcDbLine
 10
310.851639076
 20
908.8164170532
 30
0.0
 11
310.851639076
 21
910.816417381
 31
0.0
  0
LINE
  5
13D
330
1F
100
AcDbEntity
  8
0
  6
Continuous
 62
     7
370
    15
100
AcDbLine
 10
211.8516396125
 20
910.816417381
 30
0.0
 11
211.8516396125
 21
908.8164170532
 31
0.0
  0
LINE
  5
13E
330
1F
100
AcDbEntity
  8
0
  6
Continuous
 62
     7
370
    15
100
AcDbLine
 10
310.851639076
 20
910.816417381
 30
0.0
 11
309.8516407748
 21
911.8164156823
 31
0.0
  0
LINE
  5
13F
330
1F
100
AcDbEntity
  8
0
  6
Continuous
 62
     7
370
    15
100
AcDbLine
 10
212.8516379138
 20
911.8164156823
 30
0.0
 11
211.8516396125
 21
910.816417381
 31
0.0
  0
LINE
  5
140
330
1F
100
AcDbEntity
  8
0
  6
Continuous
 62
     7
370
    15
100
AcDbLine
 10
296.3516394933
 20
907.8540739863
 30
0.0
 11
296.3516394933
 21
908.8164170532
 31
0.0
  0
LINE
  5
141
330
1F
100
AcDbEntity
  8
0
  6
Continuous
 62
     7
370
    15
100
AcDbLine
 10
226.3516391953
 20
908.8164170532
 30
0.0
 11
226.3516391953
 21
907.8540739863
 31
0.0
  0
ARC
  5
142
330
1F
100
AcDbEntity
  8
0
  6
Continuous
 62
     7
370
    15
100
AcDbCircle
 10
261.3516393443
 20
804.8540747203
 30
0.0
 40
90.00000000000006
100
AcDbArc
 50
121.6682432535
 51
0.0
  0
ARC
  5
143
330
1F
100
AcDbEntity
  8
0
  6
Continuous
 62
     7
370
    15
100
AcDbCircle
 10
261.3516393443
 20
804.8540747203
 30
0.0
 40
90.00000000000006
100
AcDbArc
 50
0.0
 51
58.33175674649999
  0
ARC
  5
144
330
1F
100
AcDbEntity
  8
0
  6
Continuous
 62
     7
370
    15
100
AcDbCircle
 10
208.8516393443
 20
889.964297373
 30
0.0
 40
9.999999999999972
100
AcDbArc
 50
301.6682432535
 51
0.0
  0
ARC
  5
145
330
1F
100
AcDbEntity
  8
0
  6
Continuous
 62
     7
370
    15
100
AcDbCircle
 10
313.8516393443
 20
889.964297373
 30
0.0
 40
10.0
100
AcDbArc
 50
180.0
 51
238.3317567465
  0
LINE
  5
146
330
1F
100
AcDbEntity
  8
0
  6
Continuous
 62
     7
370
    15
100
AcDbLine
 10
218.8516388972
 20
894.357257828
 30
0.0
 11
218.8516388972
 21
889.9642986505
 31
0.0
  0
LINE
  5
147
330
1F
100
AcDbEntity
  8
0
  6
Continuous
 62
     7
370
    15
100
AcDbLine
 10
218.8516388972
 20
907.354072973
 30
0.0
 11
218.8516388972
 21
901.309536144
 31
0.0
  0
LINE
  5
148
330
1F
100
AcDbEntity
  8
0
  6
Continuous
 62
     7
370
    15
100
AcDbLine
 10
303.8516397913
 20
901.3107580392
 30
0.0
 11
303.8516397913
 21
907.354072973
 31
0.0
  0
LINE
  5
149
330
1F
100
AcDbEntity
  8
0
  6
Continuous
 62
     7
370
    15
100
AcDbLine
 10
303.8516397913
 20
889.9642986505
 30
0.0
 11
303.8516397913
 21
894.35407643
 31
0.0
  0
LINE
  5
14A
330
1F
100
AcDbEntity
  8
0
  6
Continuous
 62
     7
370
    15
100
AcDbLine
 10
303.8516397913
 20
907.354072973
 30
0.0
 11
303.351638778
 21
907.8540739863
 31
0.0
  0
LINE
  5
14B
330
1F
100
AcDbEntity
  8
0
  6
Continuous
 62
     7
370
    15
100
AcDbLine
 10
219.3516399105
 20
907.8540739863
 30
0.0
 11
218.8516388972
 21
907.354072973
 31
0.0
  0
LINE
  5
14C
330
1F
100
AcDbEntity
  8
0
  6
Continuous
 62
     7
370
    15
100
AcDbLine
 10
251.3516395678
 20
916.8164183645
 30
0.0
 11
271.3516391207
 21
916.8164183645
 31
0.0
  0
SPLINE
  5
14D
330
1F
100
AcDbEntity
  8
0
  6
Continuous
 62
     7
370
    15
100
AcDbSpline
210
0.0
220
0.0
230
1.0
 70
     8
 71
     3
 72
    12
 73
     8
 74
     0
 42
0.00000001
 43
0.00000001
 40
0.0
 40
0.0
 40
0.0
 40
0.0
 40
0.2106194554221079
 40
0.4221432451573144
 40
0.6338788847462649
 40
0.8592797025724693
 40
1.0
 40
1.0
 40
1.0
 40
1.0
 10
254.1505204838692
 20
933.2169940023084
 30
0.0
 10
254.1382007615827
 20
933.120485224222
 30
0.0
 10
254.1135084199611
 20
932.9270532894277
 30
0.0
 10
254.0291153983208
 20
932.6934791286745
 30
0.0
 10
253.9259066323933
 20
932.5324089426554
 30
0.0
 10
253.8289819138463
 20
932.4645893758998
 30
0.0
 10
253.7735880689532
 20
932.4721781928575
 30
0.0
 10
253.7522971955119
 20
932.4750949887891
 30
0.0
  0
LINE
  5
14E
330
1F
100
AcDbEntity
  8
0
  6
Continuous
 62
     7
370
    15
100
AcDbLine
 10
254.4234361825
 20
936.1974236815
 30
0.0
 11
254.1505204839
 21
933.2169940023
 31
0.0
  0
LINE
  5
14F
330
1F
100
AcDbEntity
  8
0
  6
Continuous
 62
     7
370
    15
100
AcDbLine
 10
254.4234361825
 20
938.8583724646
 30
0.0
 11
254.4234361825
 21
936.1974236815
 31
0.0
  0
LINE
  5
150
330
1F
100
AcDbEntity
  8
0
  6
Continuous
 62
     7
370
    15
100
AcDbLine
 10
254.1505204839
 20
942.1639883219
 30
0.0
 11
254.4234361825
 21
938.8583724646
 31
0.0
  0
SPLINE
  5
151
330
1F
100
AcDbEntity
  8
0
  6
Continuous
 62
     7
370
    15
100
AcDbSpline
210
0.0
220
0.0
230
1.0
 70
     8
 71
     3
 72
    11
 73
     7
 74
     0
 42
0.00000001
 43
0.00000001
 40
0.0
 40
0.0
 40
0.0
 40
0.0
 40
0.2324672326595149
 40
0.5160168708768921
 40
0.8032715314008065
 40
1.0
 40
1.0
 40
1.0
 40
1.0
 10
253.7522971955119
 20
943.3071607051751
 30
0.0
 10
253.7926033228165
 20
943.2701157760815
 30
0.0
 10
253.8820724555237
 20
943.1878856562753
 30
0.0
 10
254.0120561524944
 20
942.88558228899
 30
0.0
 10
254.1109923526984
 20
942.5285386927272
 30
0.0
 10
254.1390966903892
 20
942.2693448875938
 30
0.0
 10
254.1505204838692
 20
942.1639883218666
 30
0.0
  0
SPLINE
  5
152
330
1F
100
AcDbEntity
  8
0
  6
Continuous
 62
     7
370
    15
100
AcDbSpline
210
0.0
220
0.0
230
1.0
 70
     8
 71
     3
 72
    11
 73
     7
 74
     0
 42
0.00000001
 43
0.00000001
 40
0.0
 40
0.0
 40
0.0
 40
0.0
 40
0.3082982662663042
 40
0.5942234865110627
 40
0.8515920681797328
 40
1.0
 40
1.0
 40
1.0
 40
1.0
 10
268.5527582046567
 20
942.1639883218666
 30
0.0
 10
268.5735841043558
 20
942.3282657265455
 30
0.0
 10
268.6137245789644
 20
942.6448990094553
 30
0.0
 10
268.738957611885
 20
943.0087636655537
 30
0.0
 10
268.8557886078057
 20
943.231362455619
 30
0.0
 10
268.9254892957188
 20
943.286862298124
 30
0.0
 10
268.950981493014
 20
943.3071607051751
 30
0.0
  0
LINE
  5
153
330
1F
100
AcDbEntity
  8
0
  6
Continuous
 62
     7
370
    15
100
AcDbLine
 10
268.2798425061
 20
938.8583724646
 30
0.0
 11
268.5527582047
 21
942.1639883219
 31
0.0
  0
LINE
  5
154
330
1F
100
AcDbEntity
  8
0
  6
Continuous
 62
     7
370
    15
100
AcDbLine
 10
268.2798425061
 20
936.1974236815
 30
0.0
 11
268.2798425061
 21
938.8583724646
 31
0.0
  0
LINE
  5
155
330
1F
100
AcDbEntity
  8
0
  6
Continuous
 62
     7
370
    15
100
AcDbLine
 10
268.5527582047
 20
933.2169940023
 30
0.0
 11
268.2798425061
 21
936.1974236815
 31
0.0
  0
SPLINE
  5
156
330
1F
100
AcDbEntity
  8
0
  6
Continuous
 62
     7
370
    15
100
AcDbSpline
210
0.0
220
0.0
230
1.0
 70
     8
 71
     3
 72
    12
 73
     8
 74
     0
 42
0.00000001
 43
0.00000001
 40
0.0
 40
0.0
 40
0.0
 40
0.0
 40
0.2489018180193563
 40
0.4985080163390289
 40
0.7334370388034536
 40
0.9494511061239435
 40
1.0
 40
1.0
 40
1.0
 40
1.0
 10
268.950981493014
 20
932.4750949887891
 30
0.0
 10
268.9124279778276
 20
932.4744893892678
 30
0.0
 10
268.8352118428415
 20
932.4732764764072
 30
0.0
 10
268.711520950534
 20
932.6179315142768
 30
0.0
 10
268.6118995442543
 20
932.8511582147453
 30
0.0
 10
268.5666089280194
 20
933.0705611105201
 30
0.0
 10
268.5549660651772
 20
933.1936520155975
 30
0.0
 10
268.5527582046567
 20
933.2169940023084
 30
0.0
  0
LINE
  5
157
330
1F
100
AcDbEntity
  8
0
  6
Continuous
 62
     7
370
    15
100
AcDbLine
 10
253.8516395119
 20
945.81641753
 30
0.0
 11
268.8516391766
 21
945.81641753
 31
0.0
  0
ARC
  5
158
330
1F
100
AcDbEntity
  8
0
  6
Continuous
 62
     7
370
    15
100
AcDbCircle
 10
261.3516393443
 20
956.816417083
 30
0.0
 40
19.24815224628298
100
AcDbArc
 50
139.1775260156
 51
248.9034143609
  0
ARC
  5
159
330
1F
100
AcDbEntity
  8
0
  6
Continuous
 62
     7
370
    15
100
AcDbCircle
 10
261.3516393443
 20
956.816417083
 30
0.0
 40
21.75184775371716
100
AcDbArc
 50
288.5729016065
 51
57.2089423184
  0
ARC
  5
15A
330
1F
100
AcDbEntity
  8
0
  6
Continuous
 62
     7
370
    15
100
AcDbCircle
 10
261.3516393443
 20
956.816417083
 30
0.0
 40
21.75184775371714
100
AcDbArc
 50
122.7910576816
 51
251.4270983935
  0
ARC
  5
15B
330
1F
100
AcDbEntity
  8
0
  6
Continuous
 62
     7
370
    15
100
AcDbCircle
 10
261.3516393443
 20
956.816417083
 30
0.0
 40
19.248152246283
100
AcDbArc
 50
291.0965856391
 51
40.8224739844
  0
ARC
  5
15C
330
1F
100
AcDbEntity
  8
0
  6
Continuous
 62
     7
370
    15
100
AcDbCircle
 10
261.3516393443
 20
956.816417083
 30
0.0
 40
24.67364817766694
100
AcDbArc
 50
286.9690240104
 51
253.0309759896
  0
ARC
  5
15D
330
1F
100
AcDbEntity
  8
0
  6
Continuous
 62
     7
370
    15
100
AcDbCircle
 10
261.3516393443
 20
956.816417083
 30
0.0
 40
15.50000000000007
100
AcDbArc
 50
299.3589956306
 51
20.1807017976
  0
ARC
  5
15E
330
1F
100
AcDbEntity
  8
0
  6
Continuous
 62
     7
370
    15
100
AcDbCircle
 10
261.3516393443
 20
956.816417083
 30
0.0
 40
15.50000000000002
100
AcDbArc
 50
159.8192982024
 51
240.6410043694
  0
ARC
  5
15F
330
1F
100
AcDbEntity
  8
0
  6
Continuous
 62
     7
370
    15
100
AcDbCircle
 10
261.3516393443
 20
956.816417083
 30
0.0
 40
25.5000000000001
100
AcDbArc
 50
90.0
 51
252.6616767874
  0
ARC
  5
160
330
1F
100
AcDbEntity
  8
0
  6
Continuous
 62
     7
370
    15
100
AcDbCircle
 10
261.3516393443
 20
956.816417083
 30
0.0
 40
25.50000000000012
100
AcDbArc
 50
287.3383232126
 51
90.0
  0
LINE
  5
161
330
1F
100
AcDbEntity
  8
0
  6
Continuous
 62
     7
370
    15
100
AcDbLine
 10
310.3973995288
 20
895.3482297508
 30
0.0
 11
310.3973995288
 21
900.348232433
 31
0.0
  0
LINE
  5
162
330
1F
100
AcDbEntity
  8
0
  6
Continuous
 62
     7
370
    15
100
AcDbLine
 10
310.6474000354
 20
895.643459007
 30
0.0
 11
310.6474000354
 21
895.5982265322
 31
0.0
  0
LINE
  5
163
330
1F
100
AcDbEntity
  8
0
  6
Continuous
 62
     7
370
    15
100
AcDbLine
 10
310.6474000354
 20
900.0982282011
 30
0.0
 11
310.6474000354
 21
895.643459007
 31
0.0
  0
LINE
  5
164
330
1F
100
AcDbEntity
  8
0
  6
Continuous
 62
     7
370
    15
100
AcDbLine
 10
212.3058791597
 20
900.348232433
 30
0.0
 11
212.3058791597
 21
895.3482297508
 31
0.0
  0
LINE
  5
165
330
1F
100
AcDbEntity
  8
0
  6
Continuous
 62
     7
370
    15
100
AcDbLine
 10
212.0558786531
 20
895.5982265322
 30
0.0
 11
212.0558786531
 21
900.0982282011
 31
0.0
  0
CIRCLE
  5
166
330
1F
100
AcDbEntity
  8
0
  6
Continuous
 62
     7
370
    15
100
AcDbCircle
 10
261.3516393443
 20
897.8482289218
 30
0.0
 40
2.250000000000011
  0
CIRCLE
  5
167
330
1F
100
AcDbEntity
  8
0
  6
Continuous
 62
     7
370
    15
100
AcDbCircle
 10
261.3516393443
 20
897.8482289218
 30
0.0
 40
2.50000000000012
  0
LINE
  5
168
330
1F
100
AcDbEntity
  8
0
  6
Continuous
 62
     7
370
    15
100
AcDbLine
 10
211.8516396125
 20
908.8164170532
 30
0.0
 11
310.851639076
 21
908.8164170532
 31
0.0
  0
LINE
  5
169
330
1F
100
AcDbEntity
  8
0
  6
Continuous
 62
     7
370
    15
100
AcDbLine
 10
310.851639076
 20
910.816417381
 30
0.0
 11
211.8516396125
 21
910.816417381
 31
0.0
  0
LINE
  5
16A
330
1F
100
AcDbEntity
  8
0
  6
Continuous
 62
     7
370
    15
100
AcDbLine
 10
212.8516379138
 20
911.8164156823
 30
0.0
 11
309.8516407748
 21
911.8164156823
 31
0.0
  0
SPLINE
  5
16B
330
1F
100
AcDbEntity
  8
0
  6
Continuous
 62
     7
370
    15
100
AcDbSpline
210
0.0
220
0.0
230
1.0
 70
    11
 71
     3
 72
    26
 73
    22
 74
     0
 42
0.00000001
 43
0.00000001
 40
0.0
 40
0.0
 40
0.0
 40
0.0
 40
0.0535546278927575
 40
0.1071046700628547
 40
0.1607773134500191
 40
0.2145323158625595
 40
0.2681526945401877
 40
0.3216323053370155
 40
0.3751840705458011
 40
0.4289082172766921
 40
0.4826367663664233
 40
0.5361951179450448
 40
0.5896745628667822
 40
0.6432877339655173
 40
0.6970405425830936
 40
0.7507207837703864
 40
0.804228185467834
 40
0.857732767366359
 40
0.9114084855918552
 40
0.9651625243524911
 40
1.0
 40
1.0
 40
1.0
 40
1.0
 10
261.351639344263
 20
900.816419467177
 30
0.0
 10
261.6882954499185
 20
900.7833757716871
 30
0.0
 10
262.3615788343738
 20
900.7172912101399
 30
0.0
 10
263.2581132838847
 20
900.2022576409163
 30
0.0
 10
263.941324615566
 20
899.4428308647832
 30
0.0
 10
264.3333451239448
 20
898.4926681674675
 30
0.0
 10
264.3890075074481
 20
897.4687036094809
 30
0.0
 10
264.1035877958084
 20
896.4850946877788
 30
0.0
 10
263.5097233806096
 20
895.6508818952011
 30
0.0
 10
262.6721294637259
 20
895.0587514984563
 30
0.0
 10
261.6849027596073
 20
894.7772083274649
 30
0.0
 10
260.6614860932025
 20
894.8382092384483
 30
0.0
 10
259.7169105848258
 20
895.2331080161869
 30
0.0
 10
258.955015253429
 20
895.9180722078997
 30
0.0
 10
258.4617105483659
 20
896.8179863351503
 30
0.0
 10
258.2943584911242
 20
897.8306533119019
 30
0.0
 10
258.4709506224697
 20
898.8396110521344
 30
0.0
 10
258.9703730260558
 20
899.7344480030381
 30
0.0
 10
259.7375048448713
 20
900.4099976997519
 30
0.0
 10
260.5782161192884
 20
900.7661752140551
 30
0.0
 10
261.1333428747454
 20
900.8022381719742
 30
0.0
 10
261.351639344263
 20
900.816419467177
 30
0.0
  0
SPLINE
  5
16C
330
1F
100
AcDbEntity
  8
0
  6
Continuous
 62
     7
370
    15
100
AcDbSpline
210
0.0
220
0.0
230
1.0
 70
    11
 71
     3
 72
    26
 73
    22
 74
     0
 42
0.00000001
 43
0.00000001
 40
0.0
 40
0.0
 40
0.0
 40
0.0
 40
0.0535646072463084
 40
0.1071248047140642
 40
0.1607994280819553
 40
0.2145488102337607
 40
0.2681743860650999
 40
0.3216711280968263
 40
0.3752338594232763
 40
0.4289548257226452
 40
0.4826807765256145
 40
0.5362486506640823
 40
0.5897429796475011
 40
0.6433623937961642
 40
0.69711056761874
 40
0.75079063934592
 40
0.8043126060843196
 40
0.8578324757573113
 40
0.9115087543434985
 40
0.9652580990208212
 40
1.0
 40
1.0
 40
1.0
 40
1.0
 10
257.8516392362296
 20
897.8540760724208
 30
0.0
 10
257.8902018935717
 20
897.4612515657772
 30
0.0
 10
257.9673240335331
 20
896.6756348922976
 30
0.0
 10
258.5683720058403
 20
895.6295528563979
 30
0.0
 10
259.4545576013954
 20
894.8325215662337
 30
0.0
 10
260.5631530269035
 20
894.3753159330348
 30
0.0
 10
261.7578548576442
 20
894.3105222206665
 30
0.0
 10
262.9055725708067
 20
894.6437707534086
 30
0.0
 10
263.8788255454706
 20
895.3370236134608
 30
0.0
 10
264.5693900410112
 20
896.3144886522607
 30
0.0
 10
264.8974976079011
 20
897.4663544375462
 30
0.0
 10
264.8259660718217
 20
898.6604312392213
 30
0.0
 10
264.3647579764435
 20
899.7624867333504
 30
0.0
 10
263.5651164451808
 20
900.6511440176026
 30
0.0
 10
262.5149147255586
 20
901.2261889701019
 30
0.0
 10
261.3333578556632
 20
901.420905107746
 30
0.0
 10
260.1561525676698
 20
901.214295044446
 30
0.0
 10
259.1122746788299
 20
900.6309104934113
 30
0.0
 10
258.3246027582509
 20
899.7353208278687
 30
0.0
 10
257.9100053522409
 20
898.7549276313539
 30
0.0
 10
257.8680938174714
 20
898.1080442336811
 30
0.0
 10
257.8516392362296
 20
897.8540760724208
 30
0.0
  0
SPLINE
  5
16D
330
1F
100
AcDbEntity
  8
0
  6
Continuous
 62
     7
370
    15
100
AcDbSpline
210
0.0
220
0.0
230
1.0
 70
     8
 71
     3
 72
    12
 73
     8
 74
     0
 42
0.00000001
 43
0.00000001
 40
0.0
 40
0.0
 40
0.0
 40
0.0
 40
0.2143421912425177
 40
0.428666204234562
 40
0.6434490329972187
 40
0.8585309013267124
 40
1.0
 40
1.0
 40
1.0
 40
1.0
 10
218.9960013468741
 20
897.8540760724208
 30
0.0
 10
218.9927407477385
 20
898.2466838878568
 30
0.0
 10
218.986219825997
 20
899.0318662218633
 30
0.0
 10
218.9404182898045
 20
900.0812005477824
 30
0.0
 10
218.8907910713322
 20
900.8658563679983
 30
0.0
 10
218.8551257433137
 20
901.312179201979
 30
0.0
 10
218.8552324445849
 20
901.3102869390989
 30
0.0
 10
218.8552747805594
 20
901.3095361439844
 30
0.0
  0
SPLINE
  5
16E
330
1F
100
AcDbEntity
  8
0
  6
Continuous
 62
     7
370
    15
100
AcDbSpline
210
0.0
220
0.0
230
1.0
 70
     8
 71
     3
 72
    13
 73
     9
 74
     0
 42
0.00000001
 43
0.00000001
 40
0.0
 40
0.0
 40
0.0
 40
0.0
 40
0.0035162001971543
 40
0.2175266996604122
 40
0.4315302970208995
 40
0.6461597498819485
 40
0.861080467282649
 40
1.0
 40
1.0
 40
1.0
 40
1.0
 10
218.8518959422587
 20
894.3572578279635
 30
0.0
 10
218.8518101919476
 20
894.3561988230442
 30
0.0
 10
218.8465053227345
 20
894.2906843949371
 30
0.0
 10
218.8658285279638
 20
894.5234104501915
 30
0.0
 10
218.9066620550122
 20
895.0692809750606
 30
0.0
 10
218.9582005420756
 20
895.9749910847977
 30
0.0
 10
218.9911142721166
 20
896.9528943586836
 30
0.0
 10
218.9946235758682
 20
897.6000136531108
 30
0.0
 10
218.9960013468741
 20
897.8540760724208
 30
0.0
  0
ARC
  5
16F
330
1F
100
AcDbEntity
  8
0
  6
Continuous
 62
     7
370
    15
100
AcDbCircle
 10
346.2670266471
 20
897.8539503984
 30
0.0
 40
42.55953665072291
100
AcDbArc
 50
175.3411403021
 51
184.7170323579
  0
LINE
  5
170
330
1F
100
AcDbEntity
  8
0
  6
Continuous
 62
     7
370
    15
100
AcDbLine
 10
303.8516397913
 20
907.354072973
 30
0.0
 11
218.8516388972
 21
907.354072973
 31
0.0
  0
LINE
  5
171
330
1F
100
AcDbEntity
  8
0
  6
Continuous
 62
     7
370
    15
100
AcDbLine
 10
219.3516399105
 20
907.8540739863
 30
0.0
 11
303.351638778
 21
907.8540739863
 31
0.0
  0
ARC
  5
172
330
1F
100
AcDbEntity
  8
0
  6
Continuous
 62
     7
370
    15
100
AcDbCircle
 10
261.3516393443
 20
965.816417083
 30
0.0
 40
23.00000000000004
100
AcDbArc
 50
5.5792359676
 51
174.4207640324
  0
LWPOLYLINE
  5
173
330
1F
100
AcDbEntity
  8
0
  6
Continuous
 62
     7
370
    15
100
AcDbPolyline
 90
        3
 70
   128
 43
0.0
 10
271.6976496716
 20
945.2747510074
 10
270.3167143603
 20
944.6355899124
 10
269.3516397242
 20
944.2525592892
  0
LWPOLYLINE
  5
174
330
1F
100
AcDbEntity
  8
0
  6
Continuous
 62
     7
370
    15
100
AcDbPolyline
 90
        3
 70
   128
 43
0.0
 10
253.3516389643
 20
944.2525592892
 10
251.0996572067
 20
945.2276614754
 10
251.0056290169
 20
945.2747510074
  0
CIRCLE
  5
175
330
1F
100
AcDbEntity
  8
0
  6
Continuous
 62
     7
370
    15
100
AcDbCircle
 10
261.3516393443
 20
965.816417083
 30
0.0
 40
14.99999999999997
  0
ARC
  5
176
330
1F
100
AcDbEntity
  8
0
  6
Continuous
 62
     7
370
    15
100
AcDbCircle
 10
261.3516393443
 20
965.816417083
 30
0.0
 40
95.00000000000013
100
AcDbArc
 50
298.8017373762
 51
180.0
  0
ARC
  5
177
330
1F
100
AcDbEntity
  8
0
  6
Continuous
 62
     7
370
    15
100
AcDbCircle
 10
261.3516393443
 20
965.816417083
 30
0.0
 40
95.00000000000001
100
AcDbArc
 50
180.0
 51
241.1982626238
  0
LINE
  5
178
330
1F
100
AcDbEntity
  8
0
  6
Continuous
 62
     8
370
    15
100
AcDbLine
 10
253.3516389643
 20
918.8164186923
 30
0.0
 11
269.3516397242
 21
918.8164186923
 31
0.0
  0
LINE
  5
179
330
1F
100
AcDbEntity
  8
0
  6
Continuous
 62
     8
370
    15
100
AcDbLine
 10
269.3516397242
 20
945.3164165167
 30
0.0
 11
253.3516389643
 21
945.3164165167
 31
0.0
  0
ARC
  5
17A
330
1F
100
AcDbEntity
  8
0
  6
Continuous
 62
     8
370
    15
100
AcDbCircle
 10
261.3516393443
 20
956.816417083
 30
0.0
 40
16.32635182233318
100
AcDbArc
 50
296.1723863845
 51
24.6462231652
  0
ARC
  5
17B
330
1F
100
AcDbEntity
  8
0
  6
Continuous
 62
     8
370
    15
100
AcDbCircle
 10
261.3516393443
 20
956.816417083
 30
0.0
 40
16.32635182233316
100
AcDbArc
 50
155.3537768348
 51
243.8276136155
  0
DIMENSION
  5
17E
330
1F
100
AcDbEntity
  8
0
  6
Continuous
 62
     7
370
     0
100
AcDbDimension
  2
_D_4
 10
356.3516393443
 20
1110.816417083
 30
0.0
 11
259.8909836066
 21
1110.816417083
 31
0.0
 70
    32
  1
%%c<>
 71
     2
 42
-1.0
 73
     0
 74
     0
 75
     0
  3
SLDDIMSTYLE1
100
AcDbAlignedDimension
 13
166.3516393443
 23
965.816417083
 33
0.0
 14
356.3516393443
 24
965.816417083
 34
0.0
100
AcDbRotatedDimension
  0
DIMENSION
  5
189
330
1F
100
AcDbEntity
  8
0
  6
Continuous
 62
     7
370
     0
100
AcDbDimension
  2
_D_5
 10
261.3516393443
 20
804.8540747203
 30
0.0
 11
358.909096897
 21
660.5793837822
 31
0.0
 70
    36
  1
%%c180
 71
     1
 42
-1.0
 73
     0
 74
     0
 75
     0
  3
SLDDIMSTYLE3
100
AcDbRadialDimension
 15
291.8555161152
 25
720.1810949573
 35
0.0
 40
0.0
  0
ENDSEC
  0
SECTION
  2
OBJECTS
  0
DICTIONARY
  5
C
330
0
100
AcDbDictionary
281
     1
  3
ACAD_COLOR
350
6C
  3
ACAD_GROUP
350
D
  3
ACAD_LAYOUT
350
1A
  3
ACAD_MATERIAL
350
6B
  3
ACAD_MLEADERSTYLE
350
1F7
  3
ACAD_MLINESTYLE
350
17
  3
ACAD_PLOTSETTINGS
350
19
  3
ACAD_PLOTSTYLENAME
350
E
  3
ACAD_SCALELIST
350
99
  3
ACAD_TABLESTYLE
350
92
  3
AcDbVariableDictionary
350
59
  0
DICTIONARY
  5
1F6
330
1F
100
AcDbDictionary
280
     1
281
     1
  0
DICTIONARY
  5
6C
102
{ACAD_REACTORS
330
C
102
}
330
C
100
AcDbDictionary
281
     1
  0
DICTIONARY
  5
D
102
{ACAD_REACTORS
330
C
102
}
330
C
100
AcDbDictionary
281
     1
  0
DICTIONARY
  5
1A
102
{ACAD_REACTORS
330
C
102
}
330
C
100
AcDbDictionary
281
     1
  3
Layout1
350
74
  3
Layout2
350
26
  3
Model
350
22
  0
DICTIONARY
  5
6B
102
{ACAD_REACTORS
330
C
102
}
330
C
100
AcDbDictionary
281
     1
  0
DICTIONARY
  5
1F7
102
{ACAD_REACTORS
330
C
102
}
330
C
100
AcDbDictionary
281
     1
  0
DICTIONARY
  5
17
102
{ACAD_REACTORS
330
C
102
}
330
C
100
AcDbDictionary
281
     1
  3
Standard
350
18
  0
DICTIONARY
  5
19
102
{ACAD_REACTORS
330
C
102
}
330
C
100
AcDbDictionary
281
     1
  0
ACDBDICTIONARYWDFLT
  5
E
102
{ACAD_REACTORS
330
C
102
}
330
C
100
AcDbDictionary
281
     1
  3
Normal
350
F
100
AcDbDictionaryWithDefault
340
F
  0
DICTIONARY
  5
99
102
{ACAD_REACTORS
330
C
102
}
330
C
100
AcDbDictionary
281
     1
  3
A0
350
195
  3
A1
350
196
  3
A2
350
197
  3
A3
350
198
  3
A4
350
199
  3
A5
350
19A
  3
A6
350
19B
  3
A7
350
19C
  3
A8
350
19D
  3
A9
350
19E
  3
B0
350
19F
  3
B1
350
1A0
  3
B2
350
1A1
  3
B3
350
1A2
  3
B4
350
1A3
  3
B5
350
1A4
  3
B6
350
1A5
  3
B7
350
1A6
  3
B8
350
1A7
  3
B9
350
1A8
  3
C0
350
1A9
  3
C1
350
1AA
  3
C2
350
1AB
  3
C3
350
1AC
  3
C4
350
1AD
  3
C5
350
1AE
  3
C6
350
1AF
  3
C7
350
1B0
  3
C8
350
1B1
  3
C9
350
1B2
  3
D0
350
1B3
  3
D1
350
1B4
  3
D2
350
1B5
  0
DICTIONARY
  5
92
102
{ACAD_REACTORS
330
C
102
}
330
C
100
AcDbDictionary
281
     1
  3
Standard
350
93
  0
DICTIONARY
  5
59
102
{ACAD_REACTORS
330
C
102
}
330
C
100
AcDbDictionary
281
     1
  3
CANNOSCALE
350
1F8
  3
CTABLESTYLE
350
98
  3
DIMASSOC
350
1B8
  3
HIDETEXT
350
5E
  0
LAYOUT
  5
74
102
{ACAD_REACTORS
330
1A
102
}
330
1A
100
AcDbPlotSettings
  1

  2
none_device
  4
ISO_C5_(229.00_x_162.00_MM)
  6

 40
0.0
 41
0.0
 42
0.0
 43
0.0
 44
229.0
 45
162.0
 46
0.0
 47
0.0
 48
0.0
 49
0.0
140
0.0
141
0.0
142
1.0
143
1.0
 70
   688
 72
     1
 73
     0
 74
     5
  7

 75
    16
 76
     0
 77
     2
 78
   300
147
1.0
148
0.0
149
0.0
100
AcDbLayout
  1
Layout1
 70
     1
 71
     1
 10
0.0
 20
0.0
 11
420.0
 21
297.0
 12
0.0
 22
0.0
 32
0.0
 14
1.000000000000000E+20
 24
1.000000000000000E+20
 34
1.000000000000000E+20
 15
-1.000000000000000E+20
 25
-1.000000000000000E+20
 35
-1.000000000000000E+20
146
0.0
 13
0.0
 23
0.0
 33
0.0
 16
1.0
 26
0.0
 36
0.0
 17
0.0
 27
1.0
 37
0.0
 76
     0
330
73
  0
LAYOUT
  5
26
102
{ACAD_REACTORS
330
1A
102
}
330
1A
100
AcDbPlotSettings
  1

  2
none_device
  4
ISO_C5_(229.00_x_162.00_MM)
  6

 40
0.0
 41
0.0
 42
0.0
 43
0.0
 44
229.0
 45
162.0
 46
0.0
 47
0.0
 48
0.0
 49
0.0
140
0.0
141
0.0
142
1.0
143
1.0
 70
   688
 72
     1
 73
     0
 74
     5
  7

 75
    16
 76
     0
 77
     2
 78
   300
147
1.0
148
0.0
149
0.0
100
AcDbLayout
  1
Layout2
 70
     1
 71
     2
 10
0.0
 20
0.0
 11
0.0
 21
0.0
 12
0.0
 22
0.0
 32
0.0
 14
0.0
 24
0.0
 34
0.0
 15
0.0
 25
0.0
 35
0.0
146
0.0
 13
0.0
 23
0.0
 33
0.0
 16
1.0
 26
0.0
 36
0.0
 17
0.0
 27
1.0
 37
0.0
 76
     0
330
23
  0
LAYOUT
  5
22
102
{ACAD_REACTORS
330
1A
102
}
330
1A
100
AcDbPlotSettings
  1

  2
none_device
  4
ISO_C5_(229.00_x_162.00_MM)
  6

 40
0.0
 41
0.0
 42
0.0
 43
0.0
 44
229.0
 45
162.0
 46
0.0
 47
0.0
 48
0.0
 49
0.0
140
0.0
141
0.0
142
1.0
143
1.0
 70
 11952
 72
     1
 73
     0
 74
     0
  7

 75
    16
 76
     0
 77
     2
 78
   300
147
1.0
148
0.0
149
0.0
100
AcDbLayout
  1
Model
 70
     1
 71
     0
 10
0.0
 20
0.0
 11
1050.0
 21
1485.0
 12
0.0
 22
0.0
 32
0.0
 14
88.4132499282
 24
24.9990363711
 34
-150.899975
 15
1024.7161871533
 25
1459.9990363711
 35
0.1
146
0.0
 13
0.0
 23
0.0
 33
0.0
 16
1.0
 26
0.0
 36
0.0
 17
0.0
 27
1.0
 37
0.0
 76
     0
330
1F
331
97
  0
MLINESTYLE
  5
18
102
{ACAD_REACTORS
330
17
102
}
330
17
100
AcDbMlineStyle
  2
Standard
 70
     0
  3

 62
   256
 51
90.0
 52
90.0
 71
     2
 49
0.5
 62
   256
  6
BYLAYER
 49
-0.5
 62
   256
  6
BYLAYER
  0
ACDBPLACEHOLDER
  5
F
102
{ACAD_REACTORS
330
E
102
}
330
E
  0
SCALE
  5
195
102
{ACAD_REACTORS
330
99
102
}
330
99
100
AcDbScale
 70
     0
300
1:1
140
1.0
141
1.0
290
     1
  0
SCALE
  5
196
102
{ACAD_REACTORS
330
99
102
}
330
99
100
AcDbScale
 70
     0
300
1:2
140
1.0
141
2.0
290
     0
  0
SCALE
  5
197
102
{ACAD_REACTORS
330
99
102
}
330
99
100
AcDbScale
 70
     0
300
1:4
140
1.0
141
4.0
290
     0
  0
SCALE
  5
198
102
{ACAD_REACTORS
330
99
102
}
330
99
100
AcDbScale
 70
     0
300
1:5
140
1.0
141
5.0
290
     0
  0
SCALE
  5
199
102
{ACAD_REACTORS
330
99
102
}
330
99
100
AcDbScale
 70
     0
300
1:8
140
1.0
141
8.0
290
     0
  0
SCALE
  5
19A
102
{ACAD_REACTORS
330
99
102
}
330
99
100
AcDbScale
 70
     0
300
1:10
140
1.0
141
10.0
290
     0
  0
SCALE
  5
19B
102
{ACAD_REACTORS
330
99
102
}
330
99
100
AcDbScale
 70
     0
300
1:16
140
1.0
141
16.0
290
     0
  0
SCALE
  5
19C
102
{ACAD_REACTORS
330
99
102
}
330
99
100
AcDbScale
 70
     0
300
1:20
140
1.0
141
20.0
290
     0
  0
SCALE
  5
19D
102
{ACAD_REACTORS
330
99
102
}
330
99
100
AcDbScale
 70
     0
300
1:30
140
1.0
141
30.0
290
     0
  0
SCALE
  5
19E
102
{ACAD_REACTORS
330
99
102
}
330
99
100
AcDbScale
 70
     0
300
1:40
140
1.0
141
40.0
290
     0
  0
SCALE
  5
19F
102
{ACAD_REACTORS
330
99
102
}
330
99
100
AcDbScale
 70
     0
300
1:50
140
1.0
141
50.0
290
     0
  0
SCALE
  5
1A0
102
{ACAD_REACTORS
330
99
102
}
330
99
100
AcDbScale
 70
     0
300
1:100
140
1.0
141
100.0
290
     0
  0
SCALE
  5
1A1
102
{ACAD_REACTORS
330
99
102
}
330
99
100
AcDbScale
 70
     0
300
2:1
140
2.0
141
1.0
290
     0
  0
SCALE
  5
1A2
102
{ACAD_REACTORS
330
99
102
}
330
99
100
AcDbScale
 70
     0
300
4:1
140
4.0
141
1.0
290
     0
  0
SCALE
  5
1A3
102
{ACAD_REACTORS
330
99
102
}
330
99
100
AcDbScale
 70
     0
300
8:1
140
8.0
141
1.0
290
     0
  0
SCALE
  5
1A4
102
{ACAD_REACTORS
330
99
102
}
330
99
100
AcDbScale
 70
     0
300
10:1
140
10.0
141
1.0
290
     0
  0
SCALE
  5
1A5
102
{ACAD_REACTORS
330
99
102
}
330
99
100
AcDbScale
 70
     0
300
100:1
140
100.0
141
1.0
290
     0
  0
SCALE
  5
1A6
102
{ACAD_REACTORS
330
99
102
}
330
99
100
AcDbScale
 70
     0
300
1/128" = 1'-0"
140
0.0078125
141
12.0
290
     0
  0
SCALE
  5
1A7
102
{ACAD_REACTORS
330
99
102
}
330
99
100
AcDbScale
 70
     0
300
1/64" = 1'-0"
140
0.015625
141
12.0
290
     0
  0
SCALE
  5
1A8
102
{ACAD_REACTORS
330
99
102
}
330
99
100
AcDbScale
 70
     0
300
1/32" = 1'-0"
140
0.03125
141
12.0
290
     0
  0
SCALE
  5
1A9
102
{ACAD_REACTORS
330
99
102
}
330
99
100
AcDbScale
 70
     0
300
1/16" = 1'-0"
140
0.0625
141
12.0
290
     0
  0
SCALE
  5
1AA
102
{ACAD_REACTORS
330
99
102
}
330
99
100
AcDbScale
 70
     0
300
3/32" = 1'-0"
140
0.09375
141
12.0
290
     0
  0
SCALE
  5
1AB
102
{ACAD_REACTORS
330
99
102
}
330
99
100
AcDbScale
 70
     0
300
1/8" = 1'-0"
140
0.125
141
12.0
290
     0
  0
SCALE
  5
1AC
102
{ACAD_REACTORS
330
99
102
}
330
99
100
AcDbScale
 70
     0
300
3/16" = 1'-0"
140
0.1875
141
12.0
290
     0
  0
SCALE
  5
1AD
102
{ACAD_REACTORS
330
99
102
}
330
99
100
AcDbScale
 70
     0
300
1/4" = 1'-0"
140
0.25
141
12.0
290
     0
  0
SCALE
  5
1AE
102
{ACAD_REACTORS
330
99
102
}
330
99
100
AcDbScale
 70
     0
300
3/8" = 1'-0"
140
0.375
141
12.0
290
     0
  0
SCALE
  5
1AF
102
{ACAD_REACTORS
330
99
102
}
330
99
100
AcDbScale
 70
     0
300
1/2" = 1'-0"
140
0.5
141
12.0
290
     0
  0
SCALE
  5
1B0
102
{ACAD_REACTORS
330
99
102
}
330
99
100
AcDbScale
 70
     0
300
3/4" = 1'-0"
140
0.75
141
12.0
290
     0
  0
SCALE
  5
1B1
102
{ACAD_REACTORS
330
99
102
}
330
99
100
AcDbScale
 70
     0
300
1" = 1'-0"
140
1.0
141
12.0
290
     0
  0
SCALE
  5
1B2
102
{ACAD_REACTORS
330
99
102
}
330
99
100
AcDbScale
 70
     0
300
1-1/2" = 1'-0"
140
1.5
141
12.0
290
     0
  0
SCALE
  5
1B3
102
{ACAD_REACTORS
330
99
102
}
330
99
100
AcDbScale
 70
     0
300
3" = 1'-0"
140
3.0
141
12.0
290
     0
  0
SCALE
  5
1B4
102
{ACAD_REACTORS
330
99
102
}
330
99
100
AcDbScale
 70
     0
300
6" = 1'-0"
140
6.0
141
12.0
290
     0
  0
SCALE
  5
1B5
102
{ACAD_REACTORS
330
99
102
}
330
99
100
AcDbScale
 70
     0
300
1'-0" = 1'-0"
140
12.0
141
12.0
290
     0
  0
TABLESTYLE
  5
93
102
{ACAD_REACTORS
330
92
102
}
330
92
100
AcDbTableStyle
  3
Standard
 70
     0
 71
     0
 40
0.06
 41
0.06
280
     0
281
     0
  7
Standard
140
0.18
170
     2
 62
     0
 63
     7
283
     0
 90
      512
 91
        0
  1

274
    -2
284
     1
 64
     0
275
    -2
285
     1
 65
     0
276
    -2
286
     1
 66
     0
277
    -2
287
     1
 67
     0
278
    -2
288
     1
 68
     0
279
    -2
289
     1
 69
     0
  7
Standard
140
0.25
170
     5
 62
     0
 63
     7
283
     0
 90
      512
 91
        0
  1

274
    -2
284
     1
 64
     0
275
    -2
285
     1
 65
     0
276
    -2
286
     1
 66
     0
277
    -2
287
     1
 67
     0
278
    -2
288
     1
 68
     0
279
    -2
289
     1
 69
     0
  7
Standard
140
0.18
170
     5
 62
     0
 63
     7
283
     0
 90
      512
 91
        0
  1

274
    -2
284
     1
 64
     0
275
    -2
285
     1
 65
     0
276
    -2
286
     1
 66
     0
277
    -2
287
     1
 67
     0
278
    -2
288
     1
 68
     0
279
    -2
289
     1
 69
     0
  0
DICTIONARYVAR
  5
1F8
102
{ACAD_REACTORS
330
59
102
}
330
59
100
DictionaryVariables
280
     0
  1
1:1
  0
DICTIONARYVAR
  5
98
102
{ACAD_REACTORS
330
59
102
}
330
59
100
DictionaryVariables
280
     0
  1
Standard
  0
DICTIONARYVAR
  5
1B8
102
{ACAD_REACTORS
330
59
102
}
330
59
100
DictionaryVariables
280
     0
  1
2
  0
DICTIONARYVAR
  5
5E
102
{ACAD_REACTORS
330
59
102
}
330
59
100
DictionaryVariables
280
     0
  1
1
  0
ENDSEC
  0
EOF
