  0
SECTION
  2
HEADER
  9
$ACADVER
  1
AC1015
  9
$ACADMAINTVER
 70
     6
  9
$DWGCODEPAGE
  3
ANSI_1252
  9
$INSBASE
 10
0.0
 20
0.0
 30
0.0
  9
$EXTMIN
 10
0.0
 20
0.0
 30
0.0
  9
$EXTMAX
 10
1189.0
 20
841.0
 30
0.0
  9
$LIMMIN
 10
0.0
 20
0.0
  9
$LIMMAX
 10
1189.0
 20
841.0
  9
$ORTHOMODE
 70
     0
  9
$REGENMODE
 70
     1
  9
$FILLMODE
 70
     1
  9
$QTEXTMODE
 70
     0
  9
$MIRRTEXT
 70
     1
  9
$LTSCALE
 40
1.0
  9
$ATTMODE
 70
     1
  9
$TEXTSIZE
 40
3.5
  9
$TRACEWID
 40
1.0
  9
$TEXTSTYLE
  7
Standard
  9
$CLAYER
  8
0
  9
$CELTYPE
  6
ByLayer
  9
$CECOLOR
 62
   256
  9
$CELTSCALE
 40
1.0
  9
$DISPSILH
 70
     0
  9
$DIMSCALE
 40
1.0
  9
$DIMASZ
 40
3.302
  9
$DIMEXO
 40
1.0
  9
$DIMDLI
 40
3.75
  9
$DIMRND
 40
0.0
  9
$DIMDLE
 40
0.0
  9
$DIMEXE
 40
1.0
  9
$DIMTP
 40
0.0
  9
$DIMTM
 40
0.0
  9
$DIMTXT
 40
3.5
  9
$DIMCEN
 40
2.5
  9
$DIMTSZ
 40
0.0
  9
$DIMTOL
 70
     0
  9
$DIMLIM
 70
     0
  9
$DIMTIH
 70
     1
  9
$DIMTOH
 70
     1
  9
$DIMSE1
 70
     0
  9
$DIMSE2
 70
     0
  9
$DIMTAD
 70
     1
  9
$DIMZIN
 70
     1
  9
$DIMBLK
  1

  9
$DIMASO
 70
     1
  9
$DIMSHO
 70
     1
  9
$DIMPOST
  1

  9
$DIMAPOST
  1

  9
$DIMALT
 70
     0
  9
$DIMALTD
 70
     3
  9
$DIMALTF
 40
0.0393700787
  9
$DIMLFAC
 40
1.0
  9
$DIMTOFL
 70
     1
  9
$DIMTVP
 40
0.0
  9
$DIMTIX
 70
     0
  9
$DIMSOXD
 70
     0
  9
$DIMSAH
 70
     0
  9
$DIMBLK1
  1

  9
$DIMBLK2
  1

  9
$DIMSTYLE
  2
ISO-25
  9
$DIMCLRD
 70
     0
  9
$DIMCLRE
 70
     0
  9
$DIMCLRT
 70
     0
  9
$DIMTFAC
 40
1.0
  9
$DIMGAP
 40
1.524
  9
$DIMJUST
 70
     0
  9
$DIMSD1
 70
     0
  9
$DIMSD2
 70
     0
  9
$DIMTOLJ
 70
     0
  9
$DIMTZIN
 70
     1
  9
$DIMALTZ
 70
     0
  9
$DIMALTTZ
 70
     0
  9
$DIMUPT
 70
     0
  9
$DIMDEC
 70
     3
  9
$DIMTDEC
 70
     3
  9
$DIMALTU
 70
     2
  9
$DIMALTTD
 70
     3
  9
$DIMTXSTY
  7
Standard
  9
$DIMAUNIT
 70
     0
  9
$DIMADEC
 70
     2
  9
$DIMALTRND
 40
0.0
  9
$DIMAZIN
 70
     0
  9
$DIMDSEP
 70
    44
  9
$DIMATFIT
 70
     3
  9
$DIMFRAC
 70
     0
  9
$DIMLDRBLK
  1

  9
$DIMLUNIT
 70
     2
  9
$DIMLWD
 70
    -2
  9
$DIMLWE
 70
    -2
  9
$DIMTMOVE
 70
     0
  9
$LUNITS
 70
     2
  9
$LUPREC
 70
     2
  9
$SKETCHINC
 40
1.0
  9
$FILLETRAD
 40
10.0
  9
$AUNITS
 70
     0
  9
$AUPREC
 70
     2
  9
$MENU
  1
.
  9
$ELEVATION
 40
0.0
  9
$PELEVATION
 40
0.0
  9
$THICKNESS
 40
0.0
  9
$LIMCHECK
 70
     0
  9
$CHAMFERA
 40
10.0
  9
$CHAMFERB
 40
10.0
  9
$CHAMFERC
 40
20.0
  9
$CHAMFERD
 40
0.0
  9
$SKPOLY
 70
     0
  9
$TDCREATE
 40
2459305.492153785
  9
$TDUCREATE
 40
2459305.408820451
  9
$TDUPDATE
 40
2459305.492154224
  9
$TDUUPDATE
 40
2459305.408820891
  9
$TDINDWG
 40
0.0000000116
  9
$TDUSRTIMER
 40
0.0000000116
  9
$USRTIMER
 70
     1
  9
$ANGBASE
 50
0.0
  9
$ANGDIR
 70
     0
  9
$PDMODE
 70
     0
  9
$PDSIZE
 40
-1.0
  9
$PLINEWID
 40
0.0
  9
$SPLFRAME
 70
     0
  9
$SPLINETYPE
 70
     6
  9
$SPLINESEGS
 70
     8
  9
$HANDSEED
  5
186
  9
$SURFTAB1
 70
     6
  9
$SURFTAB2
 70
     6
  9
$SURFTYPE
 70
     6
  9
$SURFU
 70
     6
  9
$SURFV
 70
     6
  9
$UCSBASE
  2

  9
$UCSNAME
  2

  9
$UCSORG
 10
0.0
 20
0.0
 30
0.0
  9
$UCSXDIR
 10
1.0
 20
0.0
 30
0.0
  9
$UCSYDIR
 10
0.0
 20
1.0
 30
0.0
  9
$UCSORTHOREF
  2

  9
$UCSORTHOVIEW
 70
     0
  9
$UCSORGTOP
 10
0.0
 20
0.0
 30
0.0
  9
$UCSORGBOTTOM
 10
0.0
 20
0.0
 30
0.0
  9
$UCSORGLEFT
 10
0.0
 20
0.0
 30
0.0
  9
$UCSORGRIGHT
 10
0.0
 20
0.0
 30
0.0
  9
$UCSORGFRONT
 10
0.0
 20
0.0
 30
0.0
  9
$UCSORGBACK
 10
0.0
 20
0.0
 30
0.0
  9
$PUCSBASE
  2

  9
$PUCSNAME
  2

  9
$PUCSORG
 10
0.0
 20
0.0
 30
0.0
  9
$PUCSXDIR
 10
1.0
 20
0.0
 30
0.0
  9
$PUCSYDIR
 10
0.0
 20
1.0
 30
0.0
  9
$PUCSORTHOREF
  2

  9
$PUCSORTHOVIEW
 70
     0
  9
$PUCSORGTOP
 10
0.0
 20
0.0
 30
0.0
  9
$PUCSORGBOTTOM
 10
0.0
 20
0.0
 30
0.0
  9
$PUCSORGLEFT
 10
0.0
 20
0.0
 30
0.0
  9
$PUCSORGRIGHT
 10
0.0
 20
0.0
 30
0.0
  9
$PUCSORGFRONT
 10
0.0
 20
0.0
 30
0.0
  9
$PUCSORGBACK
 10
0.0
 20
0.0
 30
0.0
  9
$USERI1
 70
     0
  9
$USERI2
 70
     0
  9
$USERI3
 70
     0
  9
$USERI4
 70
     0
  9
$USERI5
 70
     0
  9
$USERR1
 40
0.0
  9
$USERR2
 40
0.0
  9
$USERR3
 40
0.0
  9
$USERR4
 40
0.0
  9
$USERR5
 40
0.0
  9
$WORLDVIEW
 70
     1
  9
$SHADEDGE
 70
     3
  9
$SHADEDIF
 70
    70
  9
$TILEMODE
 70
     1
  9
$MAXACTVP
 70
    64
  9
$PINSBASE
 10
0.0
 20
0.0
 30
0.0
  9
$PLIMCHECK
 70
     0
  9
$PEXTMIN
 10
1.0000000000E+20
 20
1.0000000000E+20
 30
1.0000000000E+20
  9
$PEXTMAX
 10
-1.0000000000E+20
 20
-1.0000000000E+20
 30
-1.0000000000E+20
  9
$PLIMMIN
 10
0.0
 20
0.0
  9
$PLIMMAX
 10
420.0
 20
297.0
  9
$UNITMODE
 70
     0
  9
$VISRETAIN
 70
     1
  9
$PLINEGEN
 70
     0
  9
$PSLTSCALE
 70
     1
  9
$TREEDEPTH
 70
  3020
  9
$CMLSTYLE
  2
Standard
  9
$CMLJUST
 70
     0
  9
$CMLSCALE
 40
20.0
  9
$PROXYGRAPHICS
 70
     1
  9
$MEASUREMENT
 70
     1
  9
$CELWEIGHT
370
    -1
  9
$ENDCAPS
280
     0
  9
$JOINSTYLE
280
     0
  9
$LWDISPLAY
290
     1
  9
$INSUNITS
 70
     4
  9
$HYPERLINKBASE
  1

  9
$STYLESHEET
  1

  9
$XEDIT
290
     1
  9
$CEPSNTYPE
380
     0
  9
$PSTYLEMODE
290
     1
  9
$FINGERPRINTGUID
  2
{6750DC26-52C3-4929-BBA6-51DCCD5FC48D}
  9
$VERSIONGUID
  2
{FAEB1C32-E019-11D5-929B-00C0DF256EC4}
  9
$EXTNAMES
290
     1
  9
$PSVPSCALE
 40
0.0
  9
$OLESTARTUP
290
     0
  0
ENDSEC
  0
SECTION
  2
CLASSES
  0
CLASS
  1
ACDBDICTIONARYWDFLT
  2
AcDbDictionaryWithDefault
  3
ObjectDBX Classes
 90
        0
280
     0
281
     0
  0
CLASS
  1
VISUALSTYLE
  2
AcDbVisualStyle
  3
ObjectDBX Classes
 90
     4095
280
     0
281
     0
  0
CLASS
  1
MATERIAL
  2
AcDbMaterial
  3
ObjectDBX Classes
 90
     1153
280
     0
281
     0
  0
CLASS
  1
ACDBPLACEHOLDER
  2
AcDbPlaceHolder
  3
ObjectDBX Classes
 90
        0
280
     0
281
     0
  0
CLASS
  1
LAYOUT
  2
AcDbLayout
  3
ObjectDBX Classes
 90
        0
280
     0
281
     0
  0
ENDSEC
  0
SECTION
  2
TABLES
  0
TABLE
  2
VPORT
  5
8
330
0
100
AcDbSymbolTable
 70
     1
  0
VPORT
  5
29
330
8
100
AcDbSymbolTableRecord
100
AcDbViewportTableRecord
  2
*Active
 70
     0
 10
0.0
 20
0.0
 11
1.0
 21
1.0
 12
594.5
 22
420.5
 13
0.0
 23
0.0
 14
10.0
 24
10.0
 15
10.0
 25
10.0
 16
0.0
 26
0.0
 36
1.0
 17
0.0
 27
0.0
 37
0.0
 40
841.0
 41
1.4137931034
 42
50.0
 43
0.0
 44
0.0
 50
0.0
 51
0.0
 71
     0
 72
  2000
 73
     1
 74
     3
 75
     0
 76
     0
 77
     0
 78
     0
281
     0
 65
     1
110
0.0
120
0.0
130
0.0
111
1.0
121
0.0
131
0.0
112
0.0
122
1.0
132
0.0
 79
     0
146
0.0
  0
ENDTAB
  0
TABLE
  2
LTYPE
  5
5
330
0
100
AcDbSymbolTable
 70
     6
  0
LTYPE
  5
14
330
5
100
AcDbSymbolTableRecord
100
AcDbLinetypeTableRecord
  2
ByBlock
 70
     0
  3

 72
    65
 73
     0
 40
0.0
  0
LTYPE
  5
15
330
5
100
AcDbSymbolTableRecord
100
AcDbLinetypeTableRecord
  2
ByLayer
 70
     0
  3

 72
    65
 73
     0
 40
0.0
  0
LTYPE
  5
16
330
5
100
AcDbSymbolTableRecord
100
AcDbLinetypeTableRecord
  2
Continuous
 70
     0
  3
Solid line
 72
    65
 73
     0
 40
0.0
  0
LTYPE
  5
3F
330
5
100
AcDbSymbolTableRecord
100
AcDbLinetypeTableRecord
  2
HIDDEN
 70
     0
  3
Hidden __ __ __ __ __ __ __ __ __ __ __ __ __ __
 72
    65
 73
     2
 40
1.905
 49
1.27
 74
     0
 49
-0.635
 74
     0
  0
LTYPE
  5
40
330
5
100
AcDbSymbolTableRecord
100
AcDbLinetypeTableRecord
  2
PHANTOM
 70
     0
  3
Phantom ______  __  __  ______  __  __  ______
 72
    65
 73
     6
 40
12.7
 49
6.35
 74
     0
 49
-1.27
 74
     0
 49
1.27
 74
     0
 49
-1.27
 74
     0
 49
1.27
 74
     0
 49
-1.27
 74
     0
  0
LTYPE
  5
41
330
5
100
AcDbSymbolTableRecord
100
AcDbLinetypeTableRecord
  2
CENTER
 70
     0
  3
Center ____ _ ____ _ ____ _ ____ _ ____ _ ____
 72
    65
 73
     4
 40
10.16
 49
6.35
 74
     0
 49
-1.27
 74
     0
 49
1.27
 74
     0
 49
-1.27
 74
     0
  0
LTYPE
  5
42
330
5
100
AcDbSymbolTableRecord
100
AcDbLinetypeTableRecord
  2
CENTERX2
 70
     0
  3
Center (2x) ________  __  ________  __  _____
 72
    65
 73
     4
 40
20.32
 49
12.7
 74
     0
 49
-2.54
 74
     0
 49
2.54
 74
     0
 49
-2.54
 74
     0
  0
LTYPE
  5
43
330
5
100
AcDbSymbolTableRecord
100
AcDbLinetypeTableRecord
  2
DOT2
 70
     0
  3
Dot (.5x) ........................................
 72
    65
 73
     2
 40
0.635
 49
0.0
 74
     0
 49
-0.635
 74
     0
  0
ENDTAB
  0
TABLE
  2
LAYER
  5
2
330
0
100
AcDbSymbolTable
 70
     3
  0
LAYER
  5
10
330
2
100
AcDbSymbolTableRecord
100
AcDbLayerTableRecord
  2
0
 70
     0
 62
     7
  6
Continuous
370
    -3
390
F
  0
LAYER
  5
44
330
2
100
AcDbSymbolTableRecord
100
AcDbLayerTableRecord
  2
SLD-0_0
 70
     0
 62
   179
  6
Continuous
370
    -3
390
F
  0
LAYER
  5
45
330
2
100
AcDbSymbolTableRecord
100
AcDbLayerTableRecord
  2
SLD-0
 70
     0
 62
   179
  6
Continuous
370
    -3
390
F
  0
ENDTAB
  0
TABLE
  2
STYLE
  5
3
330
0
100
AcDbSymbolTable
 70
     3
  0
STYLE
  5
11
330
3
100
AcDbSymbolTableRecord
100
AcDbTextStyleTableRecord
  2
Standard
 70
     0
 40
0.0
 41
1.0
 50
0.0
 71
     0
 42
3.5
  3
txt
  4

  0
STYLE
  5
14D
330
3
100
AcDbSymbolTableRecord
100
AcDbTextStyleTableRecord
  2
SLDTEXTSTYLE0
 70
     0
 40
0.0
 41
0.75
 50
0.0
 71
     0
 42
0.2
  3
TXT
  4

  0
STYLE
  5
157
330
3
100
AcDbSymbolTableRecord
100
AcDbTextStyleTableRecord
  2
SLDTEXTSTYLE1
 70
     0
 40
0.0
 41
0.96
 50
0.0
 71
     0
 42
0.2
  3
TXT
  4

  0
ENDTAB
  0
TABLE
  2
VIEW
  5
6
330
0
100
AcDbSymbolTable
 70
     0
  0
ENDTAB
  0
TABLE
  2
UCS
  5
7
330
0
100
AcDbSymbolTable
 70
     0
  0
ENDTAB
  0
TABLE
  2
APPID
  5
9
330
0
100
AcDbSymbolTable
 70
     1
  0
APPID
  5
12
330
9
100
AcDbSymbolTableRecord
100
AcDbRegAppTableRecord
  2
ACAD
 70
     0
  0
ENDTAB
  0
TABLE
  2
DIMSTYLE
  5
A
330
0
100
AcDbSymbolTable
 70
     4
100
AcDbDimStyleTable
  0
DIMSTYLE
105
27
330
A
100
AcDbSymbolTableRecord
100
AcDbDimStyleTableRecord
  2
ISO-25
 70
     0
 41
2.5
 42
0.625
 43
3.75
 44
1.25
 73
     0
 74
     0
 77
     1
 78
     8
140
2.5
141
2.5
143
0.0393700787
147
0.625
171
     3
172
     1
178
     0
271
     2
272
     2
274
     3
278
    44
283
     0
284
     8
340
11
  0
DIMSTYLE
105
14E
102
{ACAD_REACTORS
330
14C
330
159
102
}
330
A
100
AcDbSymbolTableRecord
100
AcDbDimStyleTableRecord
  2
SLDDIMSTYLE0
 70
     0
 41
3.302
 44
0.0
 45
0.000000001
 73
     0
 74
     0
 77
     1
 78
    12
 79
     3
140
35.0
147
8.75
173
     1
178
     0
271
     0
272
     3
276
     2
284
    12
340
14D
  0
DIMSTYLE
105
165
102
{ACAD_REACTORS
330
164
330
170
102
}
330
A
100
AcDbSymbolTableRecord
100
AcDbDimStyleTableRecord
  2
SLDDIMSTYLE1
 70
     0
 41
3.302
 44
0.0
 45
0.000000001
 73
     0
 74
     0
 77
     1
 78
    12
 79
     3
140
35.0
147
8.75
173
     1
178
     0
271
     0
272
     2
276
     2
284
    12
340
14D
  0
DIMSTYLE
105
17B
102
{ACAD_REACTORS
330
17A
102
}
330
A
100
AcDbSymbolTableRecord
100
AcDbDimStyleTableRecord
  2
SLDDIMSTYLE2
 70
     0
 41
3.302
 44
0.0
 45
0.000000001
 73
     0
 74
     0
 77
     1
 78
    12
 79
     3
140
35.0
147
8.75
173
     1
178
     0
271
     0
272
     0
276
     2
284
    12
340
14D
  0
ENDTAB
  0
TABLE
  2
BLOCK_RECORD
  5
1
330
0
100
AcDbSymbolTable
 70
     6
  0
BLOCK_RECORD
  5
1F
330
1
100
AcDbSymbolTableRecord
100
AcDbBlockTableRecord
  2
*Model_Space
340
22
  0
BLOCK_RECORD
  5
1B
330
1
100
AcDbSymbolTableRecord
100
AcDbBlockTableRecord
  2
*Paper_Space
340
1E
  0
BLOCK_RECORD
  5
23
330
1
100
AcDbSymbolTableRecord
100
AcDbBlockTableRecord
  2
*Paper_Space0
340
26
  0
BLOCK_RECORD
  5
14F
330
1
100
AcDbSymbolTableRecord
100
AcDbBlockTableRecord
  2
_D
340
0
  0
BLOCK_RECORD
  5
15A
330
1
100
AcDbSymbolTableRecord
100
AcDbBlockTableRecord
  2
_D_1
340
0
  0
BLOCK_RECORD
  5
166
330
1
100
AcDbSymbolTableRecord
100
AcDbBlockTableRecord
  2
_D_2
340
0
  0
BLOCK_RECORD
  5
171
330
1
100
AcDbSymbolTableRecord
100
AcDbBlockTableRecord
  2
_D_3
340
0
  0
BLOCK_RECORD
  5
17C
330
1
100
AcDbSymbolTableRecord
100
AcDbBlockTableRecord
  2
_D_4
340
0
  0
ENDTAB
  0
ENDSEC
  0
SECTION
  2
BLOCKS
  0
BLOCK
  5
20
330
1F
100
AcDbEntity
  8
0
100
AcDbBlockBegin
  2
*Model_Space
 70
     0
 10
0.0
 20
0.0
 30
0.0
  3
*Model_Space
  1

  0
ENDBLK
  5
21
330
1F
100
AcDbEntity
  8
0
100
AcDbBlockEnd
  0
BLOCK
  5
1C
330
1B
100
AcDbEntity
 67
     1
  8
0
100
AcDbBlockBegin
  2
*Paper_Space
 70
     0
 10
0.0
 20
0.0
 30
0.0
  3
*Paper_Space
  1

  0
ENDBLK
  5
1D
330
1B
100
AcDbEntity
 67
     1
  8
0
100
AcDbBlockEnd
  0
BLOCK
  5
24
330
23
100
AcDbEntity
  8
0
100
AcDbBlockBegin
  2
*Paper_Space0
 70
     0
 10
0.0
 20
0.0
 30
0.0
  3
*Paper_Space0
  1

  0
ENDBLK
  5
25
330
23
100
AcDbEntity
  8
0
100
AcDbBlockEnd
  0
BLOCK
  5
150
330
14F
100
AcDbEntity
  8
0
100
AcDbBlockBegin
  2
_D
 70
     0
 10
0.0
 20
0.0
 30
0.0
  3
_D
  1

  0
SOLID
  5
152
330
14F
100
AcDbEntity
  8
SLD-0
 62
   179
100
AcDbTrace
 10
345.9614235671
 20
15.2389851916
 30
0.0
 11
349.2634235671
 21
14.7309851916
 31
0.0
 12
349.2634235671
 22
15.7469851916
 32
0.0
 13
349.2634235671
 23
15.7469851916
 33
0.0
  0
SOLID
  5
153
330
14F
100
AcDbEntity
  8
SLD-0
 62
   179
100
AcDbTrace
 10
765.9614235671
 20
15.2389851916
 30
0.0
 11
762.6594235671
 21
15.7469851916
 31
0.0
 12
762.6594235671
 22
14.7309851916
 32
0.0
 13
762.6594235671
 23
14.7309851916
 33
0.0
  0
LINE
  5
154
330
14F
100
AcDbEntity
  8
SLD-0
 62
   179
100
AcDbLine
 10
345.9614235671
 20
476.8377530252
 30
0.0
 11
345.9614235671
 21
14.2389851916
 31
0.0
  0
LINE
  5
155
330
14F
100
AcDbEntity
  8
SLD-0
 62
   179
100
AcDbLine
 10
765.9614235671
 20
476.8377530252
 30
0.0
 11
765.9614235671
 21
14.2389851916
 31
0.0
  0
LINE
  5
156
330
14F
100
AcDbEntity
  8
SLD-0
 62
   179
100
AcDbLine
 10
345.9614235671
 20
15.2389851916
 30
0.0
 11
765.9614235671
 21
15.2389851916
 31
0.0
  0
MTEXT
  5
158
330
14F
100
AcDbEntity
  8
SLD-0
 62
   179
100
AcDbMText
 10
495.8812356722
 20
60.3563570149
 30
0.1
 40
35.0
 41
0.0
 71
     1
 72
     1
  1
420
  7
SLDTEXTSTYLE1
 73
     1
 44
1.0
  0
ENDBLK
  5
151
330
14F
100
AcDbEntity
  8
0
100
AcDbBlockEnd
  0
BLOCK
  5
15B
330
15A
100
AcDbEntity
  8
0
100
AcDbBlockBegin
  2
_D_1
 70
     0
 10
0.0
 20
0.0
 30
0.0
  3
_D_1
  1

  0
SOLID
  5
15D
330
15A
100
AcDbEntity
  8
SLD-0
 62
   179
100
AcDbTrace
 10
471.9614235671
 20
791.1839176046
 30
0.0
 11
475.2634235671
 21
790.6759176046
 31
0.0
 12
475.2634235671
 22
791.6919176046
 32
0.0
 13
475.2634235671
 23
791.6919176046
 33
0.0
  0
SOLID
  5
15E
330
15A
100
AcDbEntity
  8
SLD-0
 62
   179
100
AcDbTrace
 10
639.9614235671
 20
791.1839176046
 30
0.0
 11
636.6594235671
 21
791.6919176046
 31
0.0
 12
636.6594235671
 22
790.6759176046
 32
0.0
 13
636.6594235671
 23
790.6759176046
 33
0.0
  0
LINE
  5
15F
330
15A
100
AcDbEntity
  8
SLD-0
 62
   179
100
AcDbLine
 10
471.9614235671
 20
692.1838676046
 30
0.0
 11
471.9614235671
 21
792.1839176046
 31
0.0
  0
LINE
  5
160
330
15A
100
AcDbEntity
  8
SLD-0
 62
   179
100
AcDbLine
 10
639.9614235671
 20
692.1838676046
 30
0.0
 11
639.9614235671
 21
792.1839176046
 31
0.0
  0
LINE
  5
161
330
15A
100
AcDbEntity
  8
SLD-0
 62
   179
100
AcDbLine
 10
471.9614235671
 20
791.1839176046
 30
0.0
 11
639.9614235671
 21
791.1839176046
 31
0.0
  0
MTEXT
  5
162
330
15A
100
AcDbEntity
  8
SLD-0
 62
   179
100
AcDbMText
 10
461.8799908058
 20
836.3012894279
 30
0.1
 40
35.0
 41
0.0
 71
     1
 72
     1
  1
%%c
  7
SLDTEXTSTYLE1
 73
     1
 44
1.0
  0
MTEXT
  5
163
330
15A
100
AcDbEntity
  8
SLD-0
 62
   179
100
AcDbMText
 10
508.2452667848
 20
836.3012894279
 30
0.1
 40
35.0
 41
0.0
 71
     1
 72
     1
  1
168
  7
SLDTEXTSTYLE1
 73
     1
 44
1.0
  0
ENDBLK
  5
15C
330
15A
100
AcDbEntity
  8
0
100
AcDbBlockEnd
  0
BLOCK
  5
167
330
166
100
AcDbEntity
  8
0
100
AcDbBlockBegin
  2
_D_2
 70
     0
 10
0.0
 20
0.0
 30
0.0
  3
_D_2
  1

  0
SOLID
  5
169
330
166
100
AcDbEntity
  8
SLD-0
 62
   179
100
AcDbTrace
 10
865.9615014563
 20
691.1838676046
 30
0.0
 11
865.4535014563
 21
687.8818676046
 31
0.0
 12
866.4695014563
 22
687.8818676046
 32
0.0
 13
866.4695014563
 23
687.8818676046
 33
0.0
  0
SOLID
  5
16A
330
166
100
AcDbEntity
  8
SLD-0
 62
   179
100
AcDbTrace
 10
865.9615014563
 20
656.2815609039
 30
0.0
 11
866.4695014563
 21
659.5835609039
 31
0.0
 12
865.4535014563
 22
659.5835609039
 32
0.0
 13
865.4535014563
 23
659.5835609039
 33
0.0
  0
LINE
  5
16B
330
166
100
AcDbEntity
  8
SLD-0
 62
   179
100
AcDbLine
 10
635.7349626043
 20
691.1838676046
 30
0.0
 11
866.9615014563
 21
691.1838676046
 31
0.0
  0
LINE
  5
16C
330
166
100
AcDbEntity
  8
SLD-0
 62
   179
100
AcDbLine
 10
678.4614235671
 20
656.2815609039
 30
0.0
 11
866.9615014563
 21
656.2815609039
 31
0.0
  0
LINE
  5
16D
330
166
100
AcDbEntity
  8
SLD-0
 62
   179
100
AcDbLine
 10
865.9615014563
 20
691.1838676046
 30
0.0
 11
865.9615014563
 21
775.4342594889
 31
0.0
  0
LINE
  5
16E
330
166
100
AcDbEntity
  8
SLD-0
 62
   179
100
AcDbLine
 10
865.9615014563
 20
691.1838676046
 30
0.0
 11
865.9615014563
 21
656.2815609039
 31
0.0
  0
MTEXT
  5
16F
330
166
100
AcDbEntity
  8
SLD-0
 62
   179
100
AcDbMText
 10
820.844129633
 20
693.4759283212
 30
0.1
 40
35.0
 41
0.0
 71
     1
 72
     1
  1
35
  7
SLDTEXTSTYLE1
 11
-7.044195017643634E-15
 21
1.0
 31
0.0
 73
     1
 44
1.0
  0
ENDBLK
  5
168
330
166
100
AcDbEntity
  8
0
100
AcDbBlockEnd
  0
BLOCK
  5
172
330
171
100
AcDbEntity
  8
0
100
AcDbBlockBegin
  2
_D_3
 70
     0
 10
0.0
 20
0.0
 30
0.0
  3
_D_3
  1

  0
SOLID
  5
174
330
171
100
AcDbEntity
  8
SLD-0
 62
   179
100
AcDbTrace
 10
865.9615014563
 20
656.2815609039
 30
0.0
 11
865.4535014563
 21
652.9795609039
 31
0.0
 12
866.4695014563
 22
652.9795609039
 32
0.0
 13
866.4695014563
 23
652.9795609039
 33
0.0
  0
SOLID
  5
175
330
171
100
AcDbEntity
  8
SLD-0
 62
   179
100
AcDbTrace
 10
865.9615014563
 20
260.1838676046
 30
0.0
 11
866.4695014563
 21
263.4858676046
 31
0.0
 12
865.4535014563
 22
263.4858676046
 32
0.0
 13
865.4535014563
 23
263.4858676046
 33
0.0
  0
LINE
  5
176
330
171
100
AcDbEntity
  8
SLD-0
 62
   179
100
AcDbLine
 10
678.4614235671
 20
656.2815609039
 30
0.0
 11
866.9615014563
 21
656.2815609039
 31
0.0
  0
LINE
  5
177
330
171
100
AcDbEntity
  8
SLD-0
 62
   179
100
AcDbLine
 10
617.1884378808
 20
260.1838676046
 30
0.0
 11
866.9615014563
 21
260.1838676046
 31
0.0
  0
LINE
  5
178
330
171
100
AcDbEntity
  8
SLD-0
 62
   179
100
AcDbLine
 10
865.9615014563
 20
656.2815609039
 30
0.0
 11
865.9615014563
 21
260.1838676046
 31
0.0
  0
MTEXT
  5
179
330
171
100
AcDbEntity
  8
SLD-0
 62
   179
100
AcDbMText
 10
820.844129633
 20
407.5179956929
 30
0.1
 40
35.0
 41
0.0
 71
     1
 72
     1
  1
396
  7
SLDTEXTSTYLE1
 11
-7.044195017643634E-15
 21
1.0
 31
0.0
 73
     1
 44
1.0
  0
ENDBLK
  5
173
330
171
100
AcDbEntity
  8
0
100
AcDbBlockEnd
  0
BLOCK
  5
17D
330
17C
100
AcDbEntity
  8
0
100
AcDbBlockBegin
  2
_D_4
 70
     0
 10
0.0
 20
0.0
 30
0.0
  3
_D_4
  1

  0
SOLID
  5
17F
330
17C
100
AcDbEntity
  8
SLD-0
 62
   179
100
AcDbTrace
 10
435.5073949397
 20
160.1838676045
 30
0.0
 11
438.8093949397
 21
159.6758676045
 31
0.0
 12
438.8093949397
 22
160.6918676045
 32
0.0
 13
438.8093949397
 23
160.6918676045
 33
0.0
  0
SOLID
  5
180
330
17C
100
AcDbEntity
  8
SLD-0
 62
   179
100
AcDbTrace
 10
676.4154521945
 20
160.1838676045
 30
0.0
 11
673.1134521945
 21
160.6918676045
 31
0.0
 12
673.1134521945
 22
159.6758676045
 32
0.0
 13
673.1134521945
 23
159.6758676045
 33
0.0
  0
LINE
  5
181
330
17C
100
AcDbEntity
  8
SLD-0
 62
   179
100
AcDbLine
 10
435.5073949397
 20
259.1838676046
 30
0.0
 11
435.5073949397
 21
159.1838676045
 31
0.0
  0
LINE
  5
182
330
17C
100
AcDbEntity
  8
SLD-0
 62
   179
100
AcDbLine
 10
676.4154521945
 20
259.1838676046
 30
0.0
 11
676.4154521945
 21
159.1838676045
 31
0.0
  0
LINE
  5
183
330
17C
100
AcDbEntity
  8
SLD-0
 62
   179
100
AcDbLine
 10
435.5073949397
 20
160.1838676045
 30
0.0
 11
676.4154521945
 21
160.1838676045
 31
0.0
  0
MTEXT
  5
184
330
17C
100
AcDbEntity
  8
SLD-0
 62
   179
100
AcDbMText
 10
487.3892001498
 20
205.3012394278
 30
0.1
 40
35.0
 41
0.0
 71
     1
 72
     1
  1
%%c
  7
SLDTEXTSTYLE1
 73
     1
 44
1.0
  0
MTEXT
  5
185
330
17C
100
AcDbEntity
  8
SLD-0
 62
   179
100
AcDbMText
 10
533.7544761288
 20
205.3012394278
 30
0.1
 40
35.0
 41
0.0
 71
     1
 72
     1
  1
241
  7
SLDTEXTSTYLE1
 73
     1
 44
1.0
  0
ENDBLK
  5
17E
330
17C
100
AcDbEntity
  8
0
100
AcDbBlockEnd
  0
ENDSEC
  0
SECTION
  2
ENTITIES
  0
LINE
  5
46
330
1F
100
AcDbEntity
  8
SLD-0
  6
Continuous
 62
   179
370
    15
100
AcDbLine
 10
639.9614224346
 20
657.7815608467
 30
0.0
 11
639.9614224346
 21
691.1838687371
 31
0.0
  0
LINE
  5
47
330
1F
100
AcDbEntity
  8
SLD-0
  6
Continuous
 62
   179
370
    15
100
AcDbLine
 10
471.9614246995
 20
691.1838687371
 30
0.0
 11
471.9614246995
 21
657.7815608467
 31
0.0
  0
LINE
  5
48
330
1F
100
AcDbEntity
  8
SLD-0
  6
Continuous
 62
   179
370
    15
100
AcDbLine
 10
681.2806660445
 20
635.9178814451
 30
0.0
 11
681.425013593
 21
636.1220050017
 31
0.0
  0
LINE
  5
49
330
1F
100
AcDbEntity
  8
SLD-0
  6
Continuous
 62
   179
370
    15
100
AcDbLine
 10
681.425013593
 20
642.2457293953
 30
0.0
 11
681.2806660445
 21
642.4498538832
 31
0.0
  0
LINE
  5
4A
330
1F
100
AcDbEntity
  8
SLD-0
  6
Continuous
 62
   179
370
    15
100
AcDbLine
 10
680.125967613
 20
643.1838673885
 30
0.0
 11
671.6822246225
 21
643.1838673885
 31
0.0
  0
LINE
  5
4B
330
1F
100
AcDbEntity
  8
SLD-0
  6
Continuous
 62
   179
370
    15
100
AcDbLine
 10
671.6822246225
 20
635.1838679398
 30
0.0
 11
680.125967613
 21
635.1838679398
 31
0.0
  0
LINE
  5
4C
330
1F
100
AcDbEntity
  8
SLD-0
  6
Continuous
 62
   179
370
    15
100
AcDbLine
 10
430.6421810896
 20
642.4498538832
 30
0.0
 11
430.4978335412
 21
642.2457293953
 31
0.0
  0
LINE
  5
4D
330
1F
100
AcDbEntity
  8
SLD-0
  6
Continuous
 62
   179
370
    15
100
AcDbLine
 10
430.4978335412
 20
636.1220050017
 30
0.0
 11
430.6421810896
 21
635.9178814451
 31
0.0
  0
LINE
  5
4E
330
1F
100
AcDbEntity
  8
SLD-0
  6
Continuous
 62
   179
370
    15
100
AcDbLine
 10
431.7968795211
 20
635.1838679398
 30
0.0
 11
440.2406225116
 21
635.1838679398
 31
0.0
  0
LINE
  5
4F
330
1F
100
AcDbEntity
  8
SLD-0
  6
Continuous
 62
   179
370
    15
100
AcDbLine
 10
440.2406225116
 20
643.1838673884
 30
0.0
 11
431.7968795211
 21
643.1838673884
 31
0.0
  0
LINE
  5
50
330
1F
100
AcDbEntity
  8
SLD-0
  6
Continuous
 62
   179
370
    15
100
AcDbLine
 10
670.7295933874
 20
632.9338680367
 30
0.0
 11
671.6822246225
 21
632.9338680367
 31
0.0
  0
LINE
  5
51
330
1F
100
AcDbEntity
  8
SLD-0
  6
Continuous
 62
   179
370
    15
100
AcDbLine
 10
671.6822246225
 20
645.4338677573
 30
0.0
 11
670.7295933874
 21
645.4338677573
 31
0.0
  0
LINE
  5
52
330
1F
100
AcDbEntity
  8
SLD-0
  6
Continuous
 62
   179
370
    15
100
AcDbLine
 10
441.1932537467
 20
645.4338677573
 30
0.0
 11
440.2406225116
 21
645.4338677573
 31
0.0
  0
LINE
  5
53
330
1F
100
AcDbEntity
  8
SLD-0
  6
Continuous
 62
   179
370
    15
100
AcDbLine
 10
440.2406225116
 20
632.9338680367
 30
0.0
 11
441.1932537467
 21
632.9338680367
 31
0.0
  0
LINE
  5
54
330
1F
100
AcDbEntity
  8
SLD-0
  6
Continuous
 62
   179
370
    15
100
AcDbLine
 10
432.4614266069
 20
654.2815607387
 30
0.0
 11
432.4614266069
 21
650.1838676046
 31
0.0
  0
LINE
  5
55
330
1F
100
AcDbEntity
  8
SLD-0
  6
Continuous
 62
   179
370
    15
100
AcDbLine
 10
679.4614235671
 20
650.1838676046
 30
0.0
 11
679.4614235671
 21
654.2815607387
 31
0.0
  0
LINE
  5
56
330
1F
100
AcDbEntity
  8
SLD-0
  6
Continuous
 62
   179
370
    15
100
AcDbLine
 10
423.4614307196
 20
649.1838675571
 30
0.0
 11
423.4614235671
 21
632.1838676046
 31
0.0
  0
LINE
  5
57
330
1F
100
AcDbEntity
  8
SLD-0
  6
Continuous
 62
   179
370
    15
100
AcDbLine
 10
688.4614235671
 20
632.1838676046
 30
0.0
 11
688.4614164145
 21
649.1838675571
 31
0.0
  0
LINE
  5
58
330
1F
100
AcDbEntity
  8
SLD-0
  6
Continuous
 62
   179
370
    15
100
AcDbLine
 10
688.4614164145
 20
649.1838675571
 30
0.0
 11
687.4614292891
 21
650.1838676046
 31
0.0
  0
LINE
  5
59
330
1F
100
AcDbEntity
  8
SLD-0
  6
Continuous
 62
   179
370
    15
100
AcDbLine
 10
424.461417845
 20
650.1838676046
 30
0.0
 11
423.4614307196
 21
649.1838675571
 31
0.0
  0
LINE
  5
5A
330
1F
100
AcDbEntity
  8
SLD-0
  6
Continuous
 62
   179
370
    15
100
AcDbLine
 10
564.9629645185
 20
330.2317670892
 30
0.0
 11
564.9629645185
 21
260.1838819097
 31
0.0
  0
LINE
  5
5B
330
1F
100
AcDbEntity
  8
SLD-0
  6
Continuous
 62
   179
370
    15
100
AcDbLine
 10
555.9614235668
 20
260.1838819097
 30
0.0
 11
564.9629645185
 21
260.1838819097
 31
0.0
  0
LINE
  5
5C
330
1F
100
AcDbEntity
  8
SLD-0
  6
Continuous
 62
   179
370
    15
100
AcDbLine
 10
555.9614235668
 20
330.2317670892
 30
0.0
 11
555.9614235668
 21
260.1838819097
 31
0.0
  0
LINE
  5
5D
330
1F
100
AcDbEntity
  8
SLD-0
  6
Continuous
 62
   179
370
    15
100
AcDbLine
 10
546.9598826156
 20
330.2317670892
 30
0.0
 11
546.9598826156
 21
260.1838819097
 31
0.0
  0
LINE
  5
5E
330
1F
100
AcDbEntity
  8
SLD-0
  6
Continuous
 62
   179
370
    15
100
AcDbLine
 10
539.6022265912
 20
330.2317670892
 30
0.0
 11
539.6022265912
 21
260.1838819097
 31
0.0
  0
LINE
  5
5F
330
1F
100
AcDbEntity
  8
SLD-0
  6
Continuous
 62
   179
370
    15
100
AcDbLine
 10
539.6022265912
 20
260.1838819097
 30
0.0
 11
546.9598826156
 21
260.1838819097
 31
0.0
  0
LINE
  5
60
330
1F
100
AcDbEntity
  8
SLD-0
  6
Continuous
 62
   179
370
    15
100
AcDbLine
 10
546.9598826156
 20
260.1838819097
 30
0.0
 11
555.9614235668
 21
260.1838819097
 31
0.0
  0
LINE
  5
61
330
1F
100
AcDbEntity
  8
SLD-0
  6
Continuous
 62
   179
370
    15
100
AcDbLine
 10
572.3206205429
 20
330.2317670892
 30
0.0
 11
572.3206205429
 21
260.1838819097
 31
0.0
  0
LINE
  5
62
330
1F
100
AcDbEntity
  8
SLD-0
  6
Continuous
 62
   179
370
    15
100
AcDbLine
 10
564.9629645185
 20
260.1838819097
 30
0.0
 11
572.3206205429
 21
260.1838819097
 31
0.0
  0
LINE
  5
63
330
1F
100
AcDbEntity
  8
SLD-0
  6
Continuous
 62
   179
370
    15
100
AcDbLine
 10
582.7649673582
 20
330.2317670892
 30
0.0
 11
582.7649673582
 21
260.1838819097
 31
0.0
  0
LINE
  5
64
330
1F
100
AcDbEntity
  8
SLD-0
  6
Continuous
 62
   179
370
    15
100
AcDbLine
 10
572.3206205429
 20
260.1838819097
 30
0.0
 11
582.7649673582
 21
260.1838819097
 31
0.0
  0
LINE
  5
65
330
1F
100
AcDbEntity
  8
SLD-0
  6
Continuous
 62
   179
370
    15
100
AcDbLine
 10
588.3143777163
 20
330.2317670892
 30
0.0
 11
588.3143777163
 21
260.1838819097
 31
0.0
  0
LINE
  5
66
330
1F
100
AcDbEntity
  8
SLD-0
  6
Continuous
 62
   179
370
    15
100
AcDbLine
 10
582.7649673582
 20
260.1838819097
 30
0.0
 11
588.3143777163
 21
260.1838819097
 31
0.0
  0
LINE
  5
67
330
1F
100
AcDbEntity
  8
SLD-0
  6
Continuous
 62
   179
370
    15
100
AcDbLine
 10
529.1578797759
 20
330.2317670892
 30
0.0
 11
529.1578797759
 21
260.1838819097
 31
0.0
  0
LINE
  5
68
330
1F
100
AcDbEntity
  8
SLD-0
  6
Continuous
 62
   179
370
    15
100
AcDbLine
 10
529.1578797759
 20
260.1838819097
 30
0.0
 11
539.6022265912
 21
260.1838819097
 31
0.0
  0
LINE
  5
69
330
1F
100
AcDbEntity
  8
SLD-0
  6
Continuous
 62
   179
370
    15
100
AcDbLine
 10
523.6084694178
 20
330.2317670892
 30
0.0
 11
523.6084694178
 21
260.1838819097
 31
0.0
  0
LINE
  5
6A
330
1F
100
AcDbEntity
  8
SLD-0
  6
Continuous
 62
   179
370
    15
100
AcDbLine
 10
523.6084694178
 20
260.1838819097
 30
0.0
 11
529.1578797759
 21
260.1838819097
 31
0.0
  0
LINE
  5
6B
330
1F
100
AcDbEntity
  8
SLD-0
  6
Continuous
 62
   179
370
    15
100
AcDbLine
 10
603.5854267092
 20
330.2317670892
 30
0.0
 11
603.5854267092
 21
260.1838819097
 31
0.0
  0
LINE
  5
6C
330
1F
100
AcDbEntity
  8
SLD-0
  6
Continuous
 62
   179
370
    15
100
AcDbLine
 10
599.9682219834
 20
330.2317670892
 30
0.0
 11
599.9682219834
 21
260.1838819097
 31
0.0
  0
LINE
  5
6D
330
1F
100
AcDbEntity
  8
SLD-0
  6
Continuous
 62
   179
370
    15
100
AcDbLine
 10
599.9682219834
 20
260.1838819097
 30
0.0
 11
603.5854267092
 21
260.1838819097
 31
0.0
  0
LINE
  5
6E
330
1F
100
AcDbEntity
  8
SLD-0
  6
Continuous
 62
   179
370
    15
100
AcDbLine
 10
588.3143777163
 20
260.1838819097
 30
0.0
 11
599.9682219834
 21
260.1838819097
 31
0.0
  0
LINE
  5
6F
330
1F
100
AcDbEntity
  8
SLD-0
  6
Continuous
 62
   179
370
    15
100
AcDbLine
 10
511.9546251507
 20
330.2317670892
 30
0.0
 11
511.9546251507
 21
260.1838819097
 31
0.0
  0
LINE
  5
70
330
1F
100
AcDbEntity
  8
SLD-0
  6
Continuous
 62
   179
370
    15
100
AcDbLine
 10
511.9546251507
 20
260.1838819097
 30
0.0
 11
523.6084694178
 21
260.1838819097
 31
0.0
  0
LINE
  5
71
330
1F
100
AcDbEntity
  8
SLD-0
  6
Continuous
 62
   179
370
    15
100
AcDbLine
 10
508.3374204249
 20
330.2317670892
 30
0.0
 11
508.3374204249
 21
260.1838819097
 31
0.0
  0
LINE
  5
72
330
1F
100
AcDbEntity
  8
SLD-0
  6
Continuous
 62
   179
370
    15
100
AcDbLine
 10
508.3374204249
 20
260.1838819097
 30
0.0
 11
511.9546251507
 21
260.1838819097
 31
0.0
  0
LINE
  5
73
330
1F
100
AcDbEntity
  8
SLD-0
  6
Continuous
 62
   179
370
    15
100
AcDbLine
 10
617.7926296504
 20
330.2317670892
 30
0.0
 11
617.7926296504
 21
260.1838819097
 31
0.0
  0
LINE
  5
74
330
1F
100
AcDbEntity
  8
SLD-0
  6
Continuous
 62
   179
370
    15
100
AcDbLine
 10
616.1884376915
 20
330.2317670892
 30
0.0
 11
616.1884376915
 21
260.1838819097
 31
0.0
  0
LINE
  5
75
330
1F
100
AcDbEntity
  8
SLD-0
  6
Continuous
 62
   179
370
    15
100
AcDbLine
 10
616.1884376915
 20
260.1838819097
 30
0.0
 11
617.7926296504
 21
260.1838819097
 31
0.0
  0
LINE
  5
76
330
1F
100
AcDbEntity
  8
SLD-0
  6
Continuous
 62
   179
370
    15
100
AcDbLine
 10
603.5854267092
 20
260.1838819097
 30
0.0
 11
616.1884376915
 21
260.1838819097
 31
0.0
  0
LINE
  5
77
330
1F
100
AcDbEntity
  8
SLD-0
  6
Continuous
 62
   179
370
    15
100
AcDbLine
 10
495.7344094427
 20
330.2317670892
 30
0.0
 11
495.7344094427
 21
260.1838819097
 31
0.0
  0
LINE
  5
78
330
1F
100
AcDbEntity
  8
SLD-0
  6
Continuous
 62
   179
370
    15
100
AcDbLine
 10
495.7344094427
 20
260.1838819097
 30
0.0
 11
508.3374204249
 21
260.1838819097
 31
0.0
  0
LINE
  5
79
330
1F
100
AcDbEntity
  8
SLD-0
  6
Continuous
 62
   179
370
    15
100
AcDbLine
 10
494.1302174838
 20
330.2317670892
 30
0.0
 11
494.1302174838
 21
260.1838819097
 31
0.0
  0
LINE
  5
7A
330
1F
100
AcDbEntity
  8
SLD-0
  6
Continuous
 62
   179
370
    15
100
AcDbLine
 10
494.1302174838
 20
260.1838819097
 30
0.0
 11
495.7344094427
 21
260.1838819097
 31
0.0
  0
LINE
  5
7B
330
1F
100
AcDbEntity
  8
SLD-0
  6
Continuous
 62
   179
370
    15
100
AcDbLine
 10
631.0632834346
 20
330.2317670892
 30
0.0
 11
631.0632834346
 21
260.1838819097
 31
0.0
  0
LINE
  5
7C
330
1F
100
AcDbEntity
  8
SLD-0
  6
Continuous
 62
   179
370
    15
100
AcDbLine
 10
617.7926296504
 20
260.1838819097
 30
0.0
 11
631.0632834346
 21
260.1838819097
 31
0.0
  0
LINE
  5
7D
330
1F
100
AcDbEntity
  8
SLD-0
  6
Continuous
 62
   179
370
    15
100
AcDbLine
 10
480.8595636995
 20
330.2317670892
 30
0.0
 11
480.8595636995
 21
260.1838819097
 31
0.0
  0
LINE
  5
7E
330
1F
100
AcDbEntity
  8
SLD-0
  6
Continuous
 62
   179
370
    15
100
AcDbLine
 10
480.8595636995
 20
260.1838819097
 30
0.0
 11
494.1302174838
 21
260.1838819097
 31
0.0
  0
LINE
  5
7F
330
1F
100
AcDbEntity
  8
SLD-0
  6
Continuous
 62
   179
370
    15
100
AcDbLine
 10
644.2604744942
 20
330.2317670892
 30
0.0
 11
644.2604744942
 21
260.1838819097
 31
0.0
  0
LINE
  5
80
330
1F
100
AcDbEntity
  8
SLD-0
  6
Continuous
 62
   179
370
    15
100
AcDbLine
 10
631.0632834346
 20
260.1838819097
 30
0.0
 11
644.2604744942
 21
260.1838819097
 31
0.0
  0
LINE
  5
81
330
1F
100
AcDbEntity
  8
SLD-0
  6
Continuous
 62
   179
370
    15
100
AcDbLine
 10
467.6623726399
 20
330.2317670892
 30
0.0
 11
467.6623726399
 21
260.1838819097
 31
0.0
  0
LINE
  5
82
330
1F
100
AcDbEntity
  8
SLD-0
  6
Continuous
 62
   179
370
    15
100
AcDbLine
 10
467.6623726399
 20
260.1838819097
 30
0.0
 11
480.8595636995
 21
260.1838819097
 31
0.0
  0
LINE
  5
83
330
1F
100
AcDbEntity
  8
SLD-0
  6
Continuous
 62
   179
370
    15
100
AcDbLine
 10
456.4376333864
 20
330.2317670892
 30
0.0
 11
456.4376333864
 21
260.1838819097
 31
0.0
  0
LINE
  5
84
330
1F
100
AcDbEntity
  8
SLD-0
  6
Continuous
 62
   179
370
    15
100
AcDbLine
 10
456.4376333864
 20
260.1838819097
 30
0.0
 11
467.6623726399
 21
260.1838819097
 31
0.0
  0
LINE
  5
85
330
1F
100
AcDbEntity
  8
SLD-0
  6
Continuous
 62
   179
370
    15
100
AcDbLine
 10
655.4852137477
 20
330.2317670892
 30
0.0
 11
655.4852137477
 21
260.1838819097
 31
0.0
  0
LINE
  5
86
330
1F
100
AcDbEntity
  8
SLD-0
  6
Continuous
 62
   179
370
    15
100
AcDbLine
 10
644.2604744942
 20
260.1838819097
 30
0.0
 11
655.4852137477
 21
260.1838819097
 31
0.0
  0
LINE
  5
87
330
1F
100
AcDbEntity
  8
SLD-0
  6
Continuous
 62
   179
370
    15
100
AcDbLine
 10
664.4867519052
 20
330.2317670892
 30
0.0
 11
664.4867519052
 21
260.1838819097
 31
0.0
  0
LINE
  5
88
330
1F
100
AcDbEntity
  8
SLD-0
  6
Continuous
 62
   179
370
    15
100
AcDbLine
 10
655.4852137477
 20
260.1838819097
 30
0.0
 11
664.4867519052
 21
260.1838819097
 31
0.0
  0
LINE
  5
89
330
1F
100
AcDbEntity
  8
SLD-0
  6
Continuous
 62
   179
370
    15
100
AcDbLine
 10
447.4360952289
 20
330.2317670892
 30
0.0
 11
447.4360952289
 21
260.1838819097
 31
0.0
  0
LINE
  5
8A
330
1F
100
AcDbEntity
  8
SLD-0
  6
Continuous
 62
   179
370
    15
100
AcDbLine
 10
447.4360952289
 20
260.1838819097
 30
0.0
 11
456.4376333864
 21
260.1838819097
 31
0.0
  0
LINE
  5
8B
330
1F
100
AcDbEntity
  8
SLD-0
  6
Continuous
 62
   179
370
    15
100
AcDbLine
 10
671.064020148
 20
330.2317670892
 30
0.0
 11
671.064020148
 21
260.1838819097
 31
0.0
  0
LINE
  5
8C
330
1F
100
AcDbEntity
  8
SLD-0
  6
Continuous
 62
   179
370
    15
100
AcDbLine
 10
664.4867519052
 20
260.1838819097
 30
0.0
 11
671.064020148
 21
260.1838819097
 31
0.0
  0
LINE
  5
8D
330
1F
100
AcDbEntity
  8
SLD-0
  6
Continuous
 62
   179
370
    15
100
AcDbLine
 10
440.8588269861
 20
330.2317670892
 30
0.0
 11
440.8588269861
 21
260.1838819097
 31
0.0
  0
LINE
  5
8E
330
1F
100
AcDbEntity
  8
SLD-0
  6
Continuous
 62
   179
370
    15
100
AcDbLine
 10
440.8588269861
 20
260.1838819097
 30
0.0
 11
447.4360952289
 21
260.1838819097
 31
0.0
  0
LINE
  5
8F
330
1F
100
AcDbEntity
  8
SLD-0
  6
Continuous
 62
   179
370
    15
100
AcDbLine
 10
436.8527690084
 20
330.2317670892
 30
0.0
 11
436.8527690084
 21
260.1838819097
 31
0.0
  0
LINE
  5
90
330
1F
100
AcDbEntity
  8
SLD-0
  6
Continuous
 62
   179
370
    15
100
AcDbLine
 10
436.8527690084
 20
260.1838819097
 30
0.0
 11
440.8588269861
 21
260.1838819097
 31
0.0
  0
LINE
  5
91
330
1F
100
AcDbEntity
  8
SLD-0
  6
Continuous
 62
   179
370
    15
100
AcDbLine
 10
675.0700781257
 20
330.2317670892
 30
0.0
 11
675.0700781257
 21
260.1838819097
 31
0.0
  0
LINE
  5
92
330
1F
100
AcDbEntity
  8
SLD-0
  6
Continuous
 62
   179
370
    15
100
AcDbLine
 10
671.064020148
 20
260.1838819097
 30
0.0
 11
675.0700781257
 21
260.1838819097
 31
0.0
  0
LINE
  5
93
330
1F
100
AcDbEntity
  8
SLD-0
  6
Continuous
 62
   179
370
    15
100
AcDbLine
 10
676.4154518158
 20
330.2317670892
 30
0.0
 11
676.4154518158
 21
260.1838819097
 31
0.0
  0
LINE
  5
94
330
1F
100
AcDbEntity
  8
SLD-0
  6
Continuous
 62
   179
370
    15
100
AcDbLine
 10
675.0700781257
 20
260.1838819097
 30
0.0
 11
676.4154518158
 21
260.1838819097
 31
0.0
  0
LINE
  5
95
330
1F
100
AcDbEntity
  8
SLD-0
  6
Continuous
 62
   179
370
    15
100
AcDbLine
 10
435.5073953183
 20
330.2317670892
 30
0.0
 11
435.5073953183
 21
260.1838819097
 31
0.0
  0
LINE
  5
96
330
1F
100
AcDbEntity
  8
SLD-0
  6
Continuous
 62
   179
370
    15
100
AcDbLine
 10
435.5073953183
 20
260.1838819097
 30
0.0
 11
436.8527690084
 21
260.1838819097
 31
0.0
  0
LINE
  5
97
330
1F
100
AcDbEntity
  8
SLD-0
  6
Continuous
 62
   179
370
    15
100
AcDbLine
 10
500.5622850866
 20
691.1838687371
 30
0.0
 11
471.9614246995
 21
691.1838687371
 31
0.0
  0
LINE
  5
98
330
1F
100
AcDbEntity
  8
SLD-0
  6
Continuous
 62
   179
370
    15
100
AcDbLine
 10
639.9614224346
 20
691.1838687371
 30
0.0
 11
500.5622850866
 21
691.1838687371
 31
0.0
  0
LINE
  5
99
330
1F
100
AcDbEntity
  8
SLD-0
  6
Continuous
 62
   179
370
    15
100
AcDbLine
 10
679.281734875
 20
642.276081198
 30
0.0
 11
678.8558745892
 21
641.4691609676
 31
0.0
  0
LINE
  5
9A
330
1F
100
AcDbEntity
  8
SLD-0
  6
Continuous
 62
   179
370
    15
100
AcDbLine
 10
678.8558745892
 20
641.4691609676
 30
0.0
 11
678.5755390437
 21
640.4385407801
 31
0.0
  0
LINE
  5
9B
330
1F
100
AcDbEntity
  8
SLD-0
  6
Continuous
 62
   179
370
    15
100
AcDbLine
 10
678.5755390437
 20
640.4385407801
 30
0.0
 11
678.4681612761
 21
639.2851042907
 31
0.0
  0
LINE
  5
9C
330
1F
100
AcDbEntity
  8
SLD-0
  6
Continuous
 62
   179
370
    15
100
AcDbLine
 10
678.4681612761
 20
639.2851042907
 30
0.0
 11
678.5442540557
 21
638.1217575978
 31
0.0
  0
LINE
  5
9D
330
1F
100
AcDbEntity
  8
SLD-0
  6
Continuous
 62
   179
370
    15
100
AcDbLine
 10
678.5442540557
 20
638.1217575978
 30
0.0
 11
678.7963742526
 21
637.0623781691
 31
0.0
  0
LINE
  5
9E
330
1F
100
AcDbEntity
  8
SLD-0
  6
Continuous
 62
   179
370
    15
100
AcDbLine
 10
678.7963742526
 20
637.0623781691
 30
0.0
 11
679.1998306425
 21
636.2106650482
 31
0.0
  0
LINE
  5
9F
330
1F
100
AcDbEntity
  8
SLD-0
  6
Continuous
 62
   179
370
    15
100
AcDbLine
 10
679.1998306425
 20
636.2106650482
 30
0.0
 11
679.7151425989
 21
635.6499893005
 31
0.0
  0
LINE
  5
A0
330
1F
100
AcDbEntity
  8
SLD-0
  6
Continuous
 62
   179
370
    15
100
AcDbLine
 10
679.7151425989
 20
635.6499893005
 30
0.0
 11
680.2918622406
 21
635.4352346967
 31
0.0
  0
LINE
  5
A1
330
1F
100
AcDbEntity
  8
SLD-0
  6
Continuous
 62
   179
370
    15
100
AcDbLine
 10
680.2918622406
 20
635.4352346967
 30
0.0
 11
680.8735290678
 21
635.5874221186
 31
0.0
  0
LINE
  5
A2
330
1F
100
AcDbEntity
  8
SLD-0
  6
Continuous
 62
   179
370
    15
100
AcDbLine
 10
680.8735290678
 20
635.5874221186
 30
0.0
 11
681.4032280953
 21
636.0916541304
 31
0.0
  0
LINE
  5
A3
330
1F
100
AcDbEntity
  8
SLD-0
  6
Continuous
 62
   179
370
    15
100
AcDbLine
 10
681.4032280953
 20
636.0916541304
 30
0.0
 11
681.8290734799
 21
636.8985743607
 31
0.0
  0
LINE
  5
A4
330
1F
100
AcDbEntity
  8
SLD-0
  6
Continuous
 62
   179
370
    15
100
AcDbLine
 10
681.8290734799
 20
636.8985743607
 30
0.0
 11
682.1094239266
 21
637.9291945483
 31
0.0
  0
LINE
  5
A5
330
1F
100
AcDbEntity
  8
SLD-0
  6
Continuous
 62
   179
370
    15
100
AcDbLine
 10
682.1094239266
 20
637.9291945483
 30
0.0
 11
682.216786793
 21
639.0826310377
 31
0.0
  0
LINE
  5
A6
330
1F
100
AcDbEntity
  8
SLD-0
  6
Continuous
 62
   179
370
    15
100
AcDbLine
 10
682.216786793
 20
639.0826310377
 30
0.0
 11
682.1407014639
 21
640.2459767993
 31
0.0
  0
LINE
  5
A7
330
1F
100
AcDbEntity
  8
SLD-0
  6
Continuous
 62
   179
370
    15
100
AcDbLine
 10
682.1407014639
 20
640.2459767993
 30
0.0
 11
681.8885887177
 21
641.3053571592
 31
0.0
  0
LINE
  5
A8
330
1F
100
AcDbEntity
  8
SLD-0
  6
Continuous
 62
   179
370
    15
100
AcDbLine
 10
681.8885887177
 20
641.3053571592
 30
0.0
 11
681.4851248772
 21
642.1570702801
 31
0.0
  0
LINE
  5
A9
330
1F
100
AcDbEntity
  8
SLD-0
  6
Continuous
 62
   179
370
    15
100
AcDbLine
 10
681.4851248772
 20
642.1570702801
 30
0.0
 11
680.9698129208
 21
642.7177460278
 31
0.0
  0
LINE
  5
AA
330
1F
100
AcDbEntity
  8
SLD-0
  6
Continuous
 62
   179
370
    15
100
AcDbLine
 10
680.9698129208
 20
642.7177460278
 30
0.0
 11
680.3930932791
 21
642.9325006316
 31
0.0
  0
LINE
  5
AB
330
1F
100
AcDbEntity
  8
SLD-0
  6
Continuous
 62
   179
370
    15
100
AcDbLine
 10
680.3930932791
 20
642.9325006316
 30
0.0
 11
679.8114190013
 21
642.7803136754
 31
0.0
  0
LINE
  5
AC
330
1F
100
AcDbEntity
  8
SLD-0
  6
Continuous
 62
   179
370
    15
100
AcDbLine
 10
679.8114190013
 20
642.7803136754
 30
0.0
 11
679.281734875
 21
642.276081198
 31
0.0
  0
LINE
  5
AD
330
1F
100
AcDbEntity
  8
SLD-0
  6
Continuous
 62
   179
370
    15
100
AcDbLine
 10
678.9945075424
 20
642.4822285186
 30
0.0
 11
679.5308822901
 21
643.0026995364
 31
0.0
  0
LINE
  5
AE
330
1F
100
AcDbEntity
  8
SLD-0
  6
Continuous
 62
   179
370
    15
100
AcDbLine
 10
679.5308822901
 20
643.0026995364
 30
0.0
 11
680.1201338084
 21
643.1838506247
 31
0.0
  0
LINE
  5
AF
330
1F
100
AcDbEntity
  8
SLD-0
  6
Continuous
 62
   179
370
    15
100
AcDbLine
 10
680.1201338084
 20
643.1838506247
 30
0.0
 11
680.7098994167
 21
643.0095857355
 31
0.0
  0
LINE
  5
B0
330
1F
100
AcDbEntity
  8
SLD-0
  6
Continuous
 62
   179
370
    15
100
AcDbLine
 10
680.7098994167
 20
643.0095857355
 30
0.0
 11
681.2477791817
 21
642.4953885722
 31
0.0
  0
LINE
  5
B1
330
1F
100
AcDbEntity
  8
SLD-0
  6
Continuous
 62
   179
370
    15
100
AcDbLine
 10
681.2477791817
 20
642.4953885722
 30
0.0
 11
681.2806660445
 21
642.4498538832
 31
0.0
  0
LINE
  5
B2
330
1F
100
AcDbEntity
  8
SLD-0
  6
Continuous
 62
   179
370
    15
100
AcDbLine
 10
681.2806660445
 20
635.9178814451
 30
0.0
 11
680.9990042956
 21
635.5850751857
 31
0.0
  0
LINE
  5
B3
330
1F
100
AcDbEntity
  8
SLD-0
  6
Continuous
 62
   179
370
    15
100
AcDbLine
 10
680.9990042956
 20
635.5850751857
 30
0.0
 11
680.429832092
 21
635.2303018208
 31
0.0
  0
LINE
  5
B4
330
1F
100
AcDbEntity
  8
SLD-0
  6
Continuous
 62
   179
370
    15
100
AcDbLine
 10
680.429832092
 20
635.2303018208
 30
0.0
 11
679.833666435
 21
635.226820537
 31
0.0
  0
LINE
  5
B5
330
1F
100
AcDbEntity
  8
SLD-0
  6
Continuous
 62
   179
370
    15
100
AcDbLine
 10
679.833666435
 20
635.226820537
 30
0.0
 11
679.2634660513
 21
635.5749396022
 31
0.0
  0
LINE
  5
B6
330
1F
100
AcDbEntity
  8
SLD-0
  6
Continuous
 62
   179
370
    15
100
AcDbLine
 10
679.2634660513
 20
635.5749396022
 30
0.0
 11
678.7699097903
 21
636.2437279309
 31
0.0
  0
LINE
  5
B7
330
1F
100
AcDbEntity
  8
SLD-0
  6
Continuous
 62
   179
370
    15
100
AcDbLine
 10
678.7699097903
 20
636.2437279309
 30
0.0
 11
678.3968443186
 21
637.1737606238
 31
0.0
  0
LINE
  5
B8
330
1F
100
AcDbEntity
  8
SLD-0
  6
Continuous
 62
   179
370
    15
100
AcDbLine
 10
678.3968443186
 20
637.1737606238
 30
0.0
 11
678.1774247201
 21
638.282399566
 31
0.0
  0
LINE
  5
B9
330
1F
100
AcDbEntity
  8
SLD-0
  6
Continuous
 62
   179
370
    15
100
AcDbLine
 10
678.1774247201
 20
638.282399566
 30
0.0
 11
678.1311342628
 21
639.4711387689
 31
0.0
  0
LINE
  5
BA
330
1F
100
AcDbEntity
  8
SLD-0
  6
Continuous
 62
   179
370
    15
100
AcDbLine
 10
678.1311342628
 20
639.4711387689
 30
0.0
 11
678.2621005685
 21
640.6343522827
 31
0.0
  0
LINE
  5
BB
330
1F
100
AcDbEntity
  8
SLD-0
  6
Continuous
 62
   179
370
    15
100
AcDbLine
 10
678.2621005685
 20
640.6343522827
 30
0.0
 11
678.5586709292
 21
641.6686837907
 31
0.0
  0
LINE
  5
BC
330
1F
100
AcDbEntity
  8
SLD-0
  6
Continuous
 62
   179
370
    15
100
AcDbLine
 10
678.5586709292
 20
641.6686837907
 30
0.0
 11
678.9945075424
 21
642.4822285186
 31
0.0
  0
LINE
  5
BD
330
1F
100
AcDbEntity
  8
SLD-0
  6
Continuous
 62
   179
370
    15
100
AcDbLine
 10
671.6822246225
 20
643.1838673885
 30
0.0
 11
671.378367594
 21
643.1374330419
 31
0.0
  0
LINE
  5
BE
330
1F
100
AcDbEntity
  8
SLD-0
  6
Continuous
 62
   179
370
    15
100
AcDbLine
 10
671.378367594
 20
643.1374330419
 30
0.0
 11
670.8091953905
 21
642.782659677
 31
0.0
  0
LINE
  5
BF
330
1F
100
AcDbEntity
  8
SLD-0
  6
Continuous
 62
   179
370
    15
100
AcDbLine
 10
670.8091953905
 20
642.782659677
 30
0.0
 11
670.3176060827
 21
642.1081171717
 31
0.0
  0
LINE
  5
C0
330
1F
100
AcDbEntity
  8
SLD-0
  6
Continuous
 62
   179
370
    15
100
AcDbLine
 10
670.3176060827
 20
642.1081171717
 30
0.0
 11
669.9472600729
 21
641.1737435843
 31
0.0
  0
LINE
  5
C1
330
1F
100
AcDbEntity
  8
SLD-0
  6
Continuous
 62
   179
370
    15
100
AcDbLine
 10
669.9472600729
 20
641.1737435843
 30
0.0
 11
669.7310740263
 21
640.0625593375
 31
0.0
  0
LINE
  5
C2
330
1F
100
AcDbEntity
  8
SLD-0
  6
Continuous
 62
   179
370
    15
100
AcDbLine
 10
669.7310740263
 20
640.0625593375
 30
0.0
 11
669.6882629902
 21
638.8733004565
 31
0.0
  0
LINE
  5
C3
330
1F
100
AcDbEntity
  8
SLD-0
  6
Continuous
 62
   179
370
    15
100
AcDbLine
 10
669.6882629902
 20
638.8733004565
 30
0.0
 11
669.8226193101
 21
637.7116366635
 31
0.0
  0
LINE
  5
C4
330
1F
100
AcDbEntity
  8
SLD-0
  6
Continuous
 62
   179
370
    15
100
AcDbLine
 10
669.8226193101
 20
637.7116366635
 30
0.0
 11
670.1222071559
 21
636.6807864393
 31
0.0
  0
LINE
  5
C5
330
1F
100
AcDbEntity
  8
SLD-0
  6
Continuous
 62
   179
370
    15
100
AcDbLine
 10
670.1222071559
 20
636.6807864393
 30
0.0
 11
670.5604130538
 21
635.8723462905
 31
0.0
  0
LINE
  5
C6
330
1F
100
AcDbEntity
  8
SLD-0
  6
Continuous
 62
   179
370
    15
100
AcDbLine
 10
670.5604130538
 20
635.8723462905
 30
0.0
 11
671.0983002694
 21
635.3581500585
 31
0.0
  0
LINE
  5
C7
330
1F
100
AcDbEntity
  8
SLD-0
  6
Continuous
 62
   179
370
    15
100
AcDbLine
 10
671.0983002694
 20
635.3581500585
 30
0.0
 11
671.6822246225
 21
635.1838679398
 31
0.0
  0
LINE
  5
C8
330
1F
100
AcDbEntity
  8
SLD-0
  6
Continuous
 62
   179
370
    15
100
AcDbLine
 10
430.5196190388
 20
642.276081198
 30
0.0
 11
430.0937736542
 21
641.4691609676
 31
0.0
  0
LINE
  5
C9
330
1F
100
AcDbEntity
  8
SLD-0
  6
Continuous
 62
   179
370
    15
100
AcDbLine
 10
430.0937736542
 20
641.4691609676
 30
0.0
 11
429.8134232075
 21
640.4385407801
 31
0.0
  0
LINE
  5
CA
330
1F
100
AcDbEntity
  8
SLD-0
  6
Continuous
 62
   179
370
    15
100
AcDbLine
 10
429.8134232075
 20
640.4385407801
 30
0.0
 11
429.7060603411
 21
639.2851042907
 31
0.0
  0
LINE
  5
CB
330
1F
100
AcDbEntity
  8
SLD-0
  6
Continuous
 62
   179
370
    15
100
AcDbLine
 10
429.7060603411
 20
639.2851042907
 30
0.0
 11
429.7821456702
 21
638.1217575978
 31
0.0
  0
LINE
  5
CC
330
1F
100
AcDbEntity
  8
SLD-0
  6
Continuous
 62
   179
370
    15
100
AcDbLine
 10
429.7821456702
 20
638.1217575978
 30
0.0
 11
430.0342584164
 21
637.0623781691
 31
0.0
  0
LINE
  5
CD
330
1F
100
AcDbEntity
  8
SLD-0
  6
Continuous
 62
   179
370
    15
100
AcDbLine
 10
430.0342584164
 20
637.0623781691
 30
0.0
 11
430.4377222569
 21
636.2106650482
 31
0.0
  0
LINE
  5
CE
330
1F
100
AcDbEntity
  8
SLD-0
  6
Continuous
 62
   179
370
    15
100
AcDbLine
 10
430.4377222569
 20
636.2106650482
 30
0.0
 11
430.9530342133
 21
635.6499893005
 31
0.0
  0
LINE
  5
CF
330
1F
100
AcDbEntity
  8
SLD-0
  6
Continuous
 62
   179
370
    15
100
AcDbLine
 10
430.9530342133
 20
635.6499893005
 30
0.0
 11
431.529753855
 21
635.4352346967
 31
0.0
  0
LINE
  5
D0
330
1F
100
AcDbEntity
  8
SLD-0
  6
Continuous
 62
   179
370
    15
100
AcDbLine
 10
431.529753855
 20
635.4352346967
 30
0.0
 11
432.1114281328
 21
635.5874221186
 31
0.0
  0
LINE
  5
D1
330
1F
100
AcDbEntity
  8
SLD-0
  6
Continuous
 62
   179
370
    15
100
AcDbLine
 10
432.1114281328
 20
635.5874221186
 30
0.0
 11
432.6411122592
 21
636.0916541304
 31
0.0
  0
LINE
  5
D2
330
1F
100
AcDbEntity
  8
SLD-0
  6
Continuous
 62
   179
370
    15
100
AcDbLine
 10
432.6411122592
 20
636.0916541304
 30
0.0
 11
433.0669725449
 21
636.8985743607
 31
0.0
  0
LINE
  5
D3
330
1F
100
AcDbEntity
  8
SLD-0
  6
Continuous
 62
   179
370
    15
100
AcDbLine
 10
433.0669725449
 20
636.8985743607
 30
0.0
 11
433.3473080905
 21
637.9291945483
 31
0.0
  0
LINE
  5
D4
330
1F
100
AcDbEntity
  8
SLD-0
  6
Continuous
 62
   179
370
    15
100
AcDbLine
 10
433.3473080905
 20
637.9291945483
 30
0.0
 11
433.454685858
 21
639.0826310377
 31
0.0
  0
LINE
  5
D5
330
1F
100
AcDbEntity
  8
SLD-0
  6
Continuous
 62
   179
370
    15
100
AcDbLine
 10
433.454685858
 20
639.0826310377
 30
0.0
 11
433.3785930784
 21
640.2459767993
 31
0.0
  0
LINE
  5
D6
330
1F
100
AcDbEntity
  8
SLD-0
  6
Continuous
 62
   179
370
    15
100
AcDbLine
 10
433.3785930784
 20
640.2459767993
 30
0.0
 11
433.1264728816
 21
641.3053571592
 31
0.0
  0
LINE
  5
D7
330
1F
100
AcDbEntity
  8
SLD-0
  6
Continuous
 62
   179
370
    15
100
AcDbLine
 10
433.1264728816
 20
641.3053571592
 30
0.0
 11
432.7230164917
 21
642.1570702801
 31
0.0
  0
LINE
  5
D8
330
1F
100
AcDbEntity
  8
SLD-0
  6
Continuous
 62
   179
370
    15
100
AcDbLine
 10
432.7230164917
 20
642.1570702801
 30
0.0
 11
432.2077045352
 21
642.7177460278
 31
0.0
  0
LINE
  5
D9
330
1F
100
AcDbEntity
  8
SLD-0
  6
Continuous
 62
   179
370
    15
100
AcDbLine
 10
432.2077045352
 20
642.7177460278
 30
0.0
 11
431.6309848936
 21
642.9325006316
 31
0.0
  0
LINE
  5
DA
330
1F
100
AcDbEntity
  8
SLD-0
  6
Continuous
 62
   179
370
    15
100
AcDbLine
 10
431.6309848936
 20
642.9325006316
 30
0.0
 11
431.0493180664
 21
642.7803136754
 31
0.0
  0
LINE
  5
DB
330
1F
100
AcDbEntity
  8
SLD-0
  6
Continuous
 62
   179
370
    15
100
AcDbLine
 10
431.0493180664
 20
642.7803136754
 30
0.0
 11
430.5196190388
 21
642.276081198
 31
0.0
  0
LINE
  5
DC
330
1F
100
AcDbEntity
  8
SLD-0
  6
Continuous
 62
   179
370
    15
100
AcDbLine
 10
430.6654119999
 20
642.4822285186
 30
0.0
 11
431.2017867477
 21
643.0026995364
 31
0.0
  0
LINE
  5
DD
330
1F
100
AcDbEntity
  8
SLD-0
  6
Continuous
 62
   179
370
    15
100
AcDbLine
 10
431.2017867477
 20
643.0026995364
 30
0.0
 11
431.7910382659
 21
643.1838506247
 31
0.0
  0
LINE
  5
DE
330
1F
100
AcDbEntity
  8
SLD-0
  6
Continuous
 62
   179
370
    15
100
AcDbLine
 10
431.7910382659
 20
643.1838506247
 30
0.0
 11
432.3808038743
 21
643.0095857355
 31
0.0
  0
LINE
  5
DF
330
1F
100
AcDbEntity
  8
SLD-0
  6
Continuous
 62
   179
370
    15
100
AcDbLine
 10
432.3808038743
 20
643.0095857355
 30
0.0
 11
432.9186836393
 21
642.4953885722
 31
0.0
  0
LINE
  5
E0
330
1F
100
AcDbEntity
  8
SLD-0
  6
Continuous
 62
   179
370
    15
100
AcDbLine
 10
432.9186836393
 20
642.4953885722
 30
0.0
 11
433.3568895371
 21
641.686948889
 31
0.0
  0
LINE
  5
E1
330
1F
100
AcDbEntity
  8
SLD-0
  6
Continuous
 62
   179
370
    15
100
AcDbLine
 10
433.3568895371
 20
641.686948889
 30
0.0
 11
433.6564848335
 21
640.6560986648
 31
0.0
  0
LINE
  5
E2
330
1F
100
AcDbEntity
  8
SLD-0
  6
Continuous
 62
   179
370
    15
100
AcDbLine
 10
433.6564848335
 20
640.6560986648
 30
0.0
 11
433.7908411534
 21
639.4944348718
 31
0.0
  0
LINE
  5
E3
330
1F
100
AcDbEntity
  8
SLD-0
  6
Continuous
 62
   179
370
    15
100
AcDbLine
 10
433.7908411534
 20
639.4944348718
 30
0.0
 11
433.7480226667
 21
638.3051759909
 31
0.0
  0
LINE
  5
E4
330
1F
100
AcDbEntity
  8
SLD-0
  6
Continuous
 62
   179
370
    15
100
AcDbLine
 10
433.7480226667
 20
638.3051759909
 30
0.0
 11
433.5318366201
 21
637.1939917441
 31
0.0
  0
LINE
  5
E5
330
1F
100
AcDbEntity
  8
SLD-0
  6
Continuous
 62
   179
370
    15
100
AcDbLine
 10
433.5318366201
 20
637.1939917441
 30
0.0
 11
433.1614980609
 21
636.2596172254
 31
0.0
  0
LINE
  5
E6
330
1F
100
AcDbEntity
  8
SLD-0
  6
Continuous
 62
   179
370
    15
100
AcDbLine
 10
433.1614980609
 20
636.2596172254
 30
0.0
 11
432.6699013026
 21
635.5850751857
 31
0.0
  0
LINE
  5
E7
330
1F
100
AcDbEntity
  8
SLD-0
  6
Continuous
 62
   179
370
    15
100
AcDbLine
 10
432.6699013026
 20
635.5850751857
 30
0.0
 11
432.1007365496
 21
635.2303018208
 31
0.0
  0
LINE
  5
E8
330
1F
100
AcDbEntity
  8
SLD-0
  6
Continuous
 62
   179
370
    15
100
AcDbLine
 10
432.1007365496
 20
635.2303018208
 30
0.0
 11
431.5045708926
 21
635.226820537
 31
0.0
  0
LINE
  5
E9
330
1F
100
AcDbEntity
  8
SLD-0
  6
Continuous
 62
   179
370
    15
100
AcDbLine
 10
431.5045708926
 20
635.226820537
 30
0.0
 11
430.9343779595
 21
635.5749396022
 31
0.0
  0
LINE
  5
EA
330
1F
100
AcDbEntity
  8
SLD-0
  6
Continuous
 62
   179
370
    15
100
AcDbLine
 10
430.9343779595
 20
635.5749396022
 30
0.0
 11
430.6421810896
 21
635.9178814451
 31
0.0
  0
LINE
  5
EB
330
1F
100
AcDbEntity
  8
SLD-0
  6
Continuous
 62
   179
370
    15
100
AcDbLine
 10
441.3720825822
 20
635.8855068097
 30
0.0
 11
441.8079191954
 21
636.6990515375
 31
0.0
  0
LINE
  5
EC
330
1F
100
AcDbEntity
  8
SLD-0
  6
Continuous
 62
   179
370
    15
100
AcDbLine
 10
441.8079191954
 20
636.6990515375
 30
0.0
 11
442.1044970067
 21
637.7333830455
 31
0.0
  0
LINE
  5
ED
330
1F
100
AcDbEntity
  8
SLD-0
  6
Continuous
 62
   179
370
    15
100
AcDbLine
 10
442.1044970067
 20
637.7333830455
 30
0.0
 11
442.2354558618
 21
638.8965965593
 31
0.0
  0
LINE
  5
EE
330
1F
100
AcDbEntity
  8
SLD-0
  6
Continuous
 62
   179
370
    15
100
AcDbLine
 10
442.2354558618
 20
638.8965965593
 30
0.0
 11
442.1891728551
 21
640.0853357622
 31
0.0
  0
LINE
  5
EF
330
1F
100
AcDbEntity
  8
SLD-0
  6
Continuous
 62
   179
370
    15
100
AcDbLine
 10
442.1891728551
 20
640.0853357622
 30
0.0
 11
441.969745806
 21
641.1939747045
 31
0.0
  0
LINE
  5
F0
330
1F
100
AcDbEntity
  8
SLD-0
  6
Continuous
 62
   179
370
    15
100
AcDbLine
 10
441.969745806
 20
641.1939747045
 30
0.0
 11
441.5966803343
 21
642.1240073973
 31
0.0
  0
LINE
  5
F1
330
1F
100
AcDbEntity
  8
SLD-0
  6
Continuous
 62
   179
370
    15
100
AcDbLine
 10
441.5966803343
 20
642.1240073973
 30
0.0
 11
441.1031240733
 21
642.7927957261
 31
0.0
  0
LINE
  5
F2
330
1F
100
AcDbEntity
  8
SLD-0
  6
Continuous
 62
   179
370
    15
100
AcDbLine
 10
441.1031240733
 20
642.7927957261
 30
0.0
 11
440.5329311402
 21
643.1409147913
 31
0.0
  0
LINE
  5
F3
330
1F
100
AcDbEntity
  8
SLD-0
  6
Continuous
 62
   179
370
    15
100
AcDbLine
 10
440.5329311402
 20
643.1409147913
 30
0.0
 11
440.2406225116
 21
643.1838673884
 31
0.0
  0
LINE
  5
F4
330
1F
100
AcDbEntity
  8
SLD-0
  6
Continuous
 62
   179
370
    15
100
AcDbLine
 10
674.0833977373
 20
643.1838673885
 30
0.0
 11
673.7009072812
 21
643.9548376362
 31
0.0
  0
LINE
  5
F5
330
1F
100
AcDbEntity
  8
SLD-0
  6
Continuous
 62
   179
370
    15
100
AcDbLine
 10
673.7009072812
 20
643.9548376362
 30
0.0
 11
673.071363023
 21
644.7824076164
 31
0.0
  0
LINE
  5
F6
330
1F
100
AcDbEntity
  8
SLD-0
  6
Continuous
 62
   179
370
    15
100
AcDbLine
 10
673.071363023
 20
644.7824076164
 30
0.0
 11
672.3610917242
 21
645.2846107419
 31
0.0
  0
LINE
  5
F7
330
1F
100
AcDbEntity
  8
SLD-0
  6
Continuous
 62
   179
370
    15
100
AcDbLine
 10
672.3610917242
 20
645.2846107419
 30
0.0
 11
671.6113621504
 21
645.4322607602
 31
0.0
  0
LINE
  5
F8
330
1F
100
AcDbEntity
  8
SLD-0
  6
Continuous
 62
   179
370
    15
100
AcDbLine
 10
671.6113621504
 20
645.4322607602
 30
0.0
 11
670.8657527478
 21
645.2167764652
 31
0.0
  0
LINE
  5
F9
330
1F
100
AcDbEntity
  8
SLD-0
  6
Continuous
 62
   179
370
    15
100
AcDbLine
 10
670.8657527478
 20
645.2167764652
 30
0.0
 11
670.1675886424
 21
644.6506818171
 31
0.0
  0
LINE
  5
FA
330
1F
100
AcDbEntity
  8
SLD-0
  6
Continuous
 62
   179
370
    15
100
AcDbLine
 10
670.1675886424
 20
644.6506818171
 30
0.0
 11
669.5574531467
 21
643.7668762515
 31
0.0
  0
LINE
  5
FB
330
1F
100
AcDbEntity
  8
SLD-0
  6
Continuous
 62
   179
370
    15
100
AcDbLine
 10
669.5574531467
 20
643.7668762515
 30
0.0
 11
669.0708035738
 21
642.6167222085
 31
0.0
  0
LINE
  5
FC
330
1F
100
AcDbEntity
  8
SLD-0
  6
Continuous
 62
   179
370
    15
100
AcDbLine
 10
669.0708035738
 20
642.6167222085
 30
0.0
 11
668.7359223278
 21
641.2670630376
 31
0.0
  0
LINE
  5
FD
330
1F
100
AcDbEntity
  8
SLD-0
  6
Continuous
 62
   179
370
    15
100
AcDbLine
 10
668.7359223278
 20
641.2670630376
 30
0.0
 11
668.5722628744
 21
639.7963370542
 31
0.0
  0
LINE
  5
FE
330
1F
100
AcDbEntity
  8
SLD-0
  6
Continuous
 62
   179
370
    15
100
AcDbLine
 10
668.5722628744
 20
639.7963370542
 30
0.0
 11
668.5893470557
 21
638.290015922
 31
0.0
  0
LINE
  5
FF
330
1F
100
AcDbEntity
  8
SLD-0
  6
Continuous
 62
   179
370
    15
100
AcDbLine
 10
668.5893470557
 20
638.290015922
 30
0.0
 11
668.7861764939
 21
636.8356421004
 31
0.0
  0
LINE
  5
100
330
1F
100
AcDbEntity
  8
SLD-0
  6
Continuous
 62
   179
370
    15
100
AcDbLine
 10
668.7861764939
 20
636.8356421004
 30
0.0
 11
669.1513145478
 21
635.5177387009
 31
0.0
  0
LINE
  5
101
330
1F
100
AcDbEntity
  8
SLD-0
  6
Continuous
 62
   179
370
    15
100
AcDbLine
 10
669.1513145478
 20
635.5177387009
 30
0.0
 11
669.6635419638
 21
634.4128976922
 31
0.0
  0
LINE
  5
102
330
1F
100
AcDbEntity
  8
SLD-0
  6
Continuous
 62
   179
370
    15
100
AcDbLine
 10
669.6635419638
 20
634.4128976922
 30
0.0
 11
670.2930787714
 21
633.5853281776
 31
0.0
  0
LINE
  5
103
330
1F
100
AcDbEntity
  8
SLD-0
  6
Continuous
 62
   179
370
    15
100
AcDbLine
 10
670.2930787714
 20
633.5853281776
 30
0.0
 11
671.0033575208
 21
633.0831255178
 31
0.0
  0
LINE
  5
104
330
1F
100
AcDbEntity
  8
SLD-0
  6
Continuous
 62
   179
370
    15
100
AcDbLine
 10
671.0033575208
 20
633.0831255178
 30
0.0
 11
671.7530870945
 21
632.9354754995
 31
0.0
  0
LINE
  5
105
330
1F
100
AcDbEntity
  8
SLD-0
  6
Continuous
 62
   179
370
    15
100
AcDbLine
 10
671.7530870945
 20
632.9354754995
 30
0.0
 11
672.4986964972
 21
633.1509593288
 31
0.0
  0
LINE
  5
106
330
1F
100
AcDbEntity
  8
SLD-0
  6
Continuous
 62
   179
370
    15
100
AcDbLine
 10
672.4986964972
 20
633.1509593288
 30
0.0
 11
673.196853152
 21
633.71705258
 31
0.0
  0
LINE
  5
107
330
1F
100
AcDbEntity
  8
SLD-0
  6
Continuous
 62
   179
370
    15
100
AcDbLine
 10
673.196853152
 20
633.71705258
 30
0.0
 11
673.8069886477
 21
634.6008590768
 31
0.0
  0
LINE
  5
108
330
1F
100
AcDbEntity
  8
SLD-0
  6
Continuous
 62
   179
370
    15
100
AcDbLine
 10
673.8069886477
 20
634.6008590768
 30
0.0
 11
674.0833977373
 21
635.1838679398
 31
0.0
  0
LINE
  5
109
330
1F
100
AcDbEntity
  8
SLD-0
  6
Continuous
 62
   179
370
    15
100
AcDbLine
 10
670.7295933874
 20
645.4338677573
 30
0.0
 11
670.6587309153
 21
645.4322607602
 31
0.0
  0
LINE
  5
10A
330
1F
100
AcDbEntity
  8
SLD-0
  6
Continuous
 62
   179
370
    15
100
AcDbLine
 10
670.6587309153
 20
645.4322607602
 30
0.0
 11
669.9131215127
 21
645.2167764652
 31
0.0
  0
LINE
  5
10B
330
1F
100
AcDbEntity
  8
SLD-0
  6
Continuous
 62
   179
370
    15
100
AcDbLine
 10
669.9131215127
 20
645.2167764652
 30
0.0
 11
669.2149648578
 21
644.6506818171
 31
0.0
  0
LINE
  5
10C
330
1F
100
AcDbEntity
  8
SLD-0
  6
Continuous
 62
   179
370
    15
100
AcDbLine
 10
669.2149648578
 20
644.6506818171
 30
0.0
 11
668.6048293622
 21
643.7668762515
 31
0.0
  0
LINE
  5
10D
330
1F
100
AcDbEntity
  8
SLD-0
  6
Continuous
 62
   179
370
    15
100
AcDbLine
 10
668.6048293622
 20
643.7668762515
 30
0.0
 11
668.1181797893
 21
642.6167222085
 31
0.0
  0
LINE
  5
10E
330
1F
100
AcDbEntity
  8
SLD-0
  6
Continuous
 62
   179
370
    15
100
AcDbLine
 10
668.1181797893
 20
642.6167222085
 30
0.0
 11
667.7832910926
 21
641.2670630376
 31
0.0
  0
LINE
  5
10F
330
1F
100
AcDbEntity
  8
SLD-0
  6
Continuous
 62
   179
370
    15
100
AcDbLine
 10
667.7832910926
 20
641.2670630376
 30
0.0
 11
667.6196390898
 21
639.7963370542
 31
0.0
  0
LINE
  5
110
330
1F
100
AcDbEntity
  8
SLD-0
  6
Continuous
 62
   179
370
    15
100
AcDbLine
 10
667.6196390898
 20
639.7963370542
 30
0.0
 11
667.6367158206
 21
638.290015922
 31
0.0
  0
LINE
  5
111
330
1F
100
AcDbEntity
  8
SLD-0
  6
Continuous
 62
   179
370
    15
100
AcDbLine
 10
667.6367158206
 20
638.290015922
 30
0.0
 11
667.8335527093
 21
636.8356421004
 31
0.0
  0
LINE
  5
112
330
1F
100
AcDbEntity
  8
SLD-0
  6
Continuous
 62
   179
370
    15
100
AcDbLine
 10
667.8335527093
 20
636.8356421004
 30
0.0
 11
668.1986833127
 21
635.5177387009
 31
0.0
  0
LINE
  5
113
330
1F
100
AcDbEntity
  8
SLD-0
  6
Continuous
 62
   179
370
    15
100
AcDbLine
 10
668.1986833127
 20
635.5177387009
 30
0.0
 11
668.7109107287
 21
634.4128976922
 31
0.0
  0
LINE
  5
114
330
1F
100
AcDbEntity
  8
SLD-0
  6
Continuous
 62
   179
370
    15
100
AcDbLine
 10
668.7109107287
 20
634.4128976922
 30
0.0
 11
669.3404549868
 21
633.5853281776
 31
0.0
  0
LINE
  5
115
330
1F
100
AcDbEntity
  8
SLD-0
  6
Continuous
 62
   179
370
    15
100
AcDbLine
 10
669.3404549868
 20
633.5853281776
 30
0.0
 11
670.0507262857
 21
633.0831255178
 31
0.0
  0
LINE
  5
116
330
1F
100
AcDbEntity
  8
SLD-0
  6
Continuous
 62
   179
370
    15
100
AcDbLine
 10
670.0507262857
 20
633.0831255178
 30
0.0
 11
670.7295933874
 21
632.9338680367
 31
0.0
  0
LINE
  5
117
330
1F
100
AcDbEntity
  8
SLD-0
  6
Continuous
 62
   179
370
    15
100
AcDbLine
 10
443.1869248064
 20
637.1006713594
 30
0.0
 11
443.3505842598
 21
638.5713982741
 31
0.0
  0
LINE
  5
118
330
1F
100
AcDbEntity
  8
SLD-0
  6
Continuous
 62
   179
370
    15
100
AcDbLine
 10
443.3505842598
 20
638.5713982741
 30
0.0
 11
443.3335000784
 21
640.0777194063
 31
0.0
  0
LINE
  5
119
330
1F
100
AcDbEntity
  8
SLD-0
  6
Continuous
 62
   179
370
    15
100
AcDbLine
 10
443.3335000784
 20
640.0777194063
 30
0.0
 11
443.1366706402
 21
641.5320932279
 31
0.0
  0
LINE
  5
11A
330
1F
100
AcDbEntity
  8
SLD-0
  6
Continuous
 62
   179
370
    15
100
AcDbLine
 10
443.1366706402
 20
641.5320932279
 30
0.0
 11
442.7715325863
 21
642.8499966274
 31
0.0
  0
LINE
  5
11B
330
1F
100
AcDbEntity
  8
SLD-0
  6
Continuous
 62
   179
370
    15
100
AcDbLine
 10
442.7715325863
 20
642.8499966274
 30
0.0
 11
442.2593051703
 21
643.9548376362
 31
0.0
  0
LINE
  5
11C
330
1F
100
AcDbEntity
  8
SLD-0
  6
Continuous
 62
   179
370
    15
100
AcDbLine
 10
442.2593051703
 20
643.9548376362
 30
0.0
 11
441.6297683628
 21
644.7824076164
 31
0.0
  0
LINE
  5
11D
330
1F
100
AcDbEntity
  8
SLD-0
  6
Continuous
 62
   179
370
    15
100
AcDbLine
 10
441.6297683628
 20
644.7824076164
 30
0.0
 11
440.9194896133
 21
645.2846107419
 31
0.0
  0
LINE
  5
11E
330
1F
100
AcDbEntity
  8
SLD-0
  6
Continuous
 62
   179
370
    15
100
AcDbLine
 10
440.9194896133
 20
645.2846107419
 30
0.0
 11
440.1697600396
 21
645.4322607602
 31
0.0
  0
LINE
  5
11F
330
1F
100
AcDbEntity
  8
SLD-0
  6
Continuous
 62
   179
370
    15
100
AcDbLine
 10
440.1697600396
 20
645.4322607602
 30
0.0
 11
439.4241506369
 21
645.2167764652
 31
0.0
  0
LINE
  5
120
330
1F
100
AcDbEntity
  8
SLD-0
  6
Continuous
 62
   179
370
    15
100
AcDbLine
 10
439.4241506369
 20
645.2167764652
 30
0.0
 11
438.7259939821
 21
644.6506818171
 31
0.0
  0
LINE
  5
121
330
1F
100
AcDbEntity
  8
SLD-0
  6
Continuous
 62
   179
370
    15
100
AcDbLine
 10
438.7259939821
 20
644.6506818171
 30
0.0
 11
438.1158584864
 21
643.7668762515
 31
0.0
  0
LINE
  5
122
330
1F
100
AcDbEntity
  8
SLD-0
  6
Continuous
 62
   179
370
    15
100
AcDbLine
 10
438.1158584864
 20
643.7668762515
 30
0.0
 11
437.8394493969
 21
643.1838673885
 31
0.0
  0
LINE
  5
123
330
1F
100
AcDbEntity
  8
SLD-0
  6
Continuous
 62
   179
370
    15
100
AcDbLine
 10
437.8394493969
 20
635.1838679398
 30
0.0
 11
438.221939853
 21
634.4128976922
 31
0.0
  0
LINE
  5
124
330
1F
100
AcDbEntity
  8
SLD-0
  6
Continuous
 62
   179
370
    15
100
AcDbLine
 10
438.221939853
 20
634.4128976922
 30
0.0
 11
438.8514841111
 21
633.5853281776
 31
0.0
  0
LINE
  5
125
330
1F
100
AcDbEntity
  8
SLD-0
  6
Continuous
 62
   179
370
    15
100
AcDbLine
 10
438.8514841111
 20
633.5853281776
 30
0.0
 11
439.56175541
 21
633.0831255178
 31
0.0
  0
LINE
  5
126
330
1F
100
AcDbEntity
  8
SLD-0
  6
Continuous
 62
   179
370
    15
100
AcDbLine
 10
439.56175541
 20
633.0831255178
 30
0.0
 11
440.3114849837
 21
632.9354754995
 31
0.0
  0
LINE
  5
127
330
1F
100
AcDbEntity
  8
SLD-0
  6
Continuous
 62
   179
370
    15
100
AcDbLine
 10
440.3114849837
 20
632.9354754995
 30
0.0
 11
441.0570943863
 21
633.1509593288
 31
0.0
  0
LINE
  5
128
330
1F
100
AcDbEntity
  8
SLD-0
  6
Continuous
 62
   179
370
    15
100
AcDbLine
 10
441.0570943863
 20
633.1509593288
 30
0.0
 11
441.7552584918
 21
633.71705258
 31
0.0
  0
LINE
  5
129
330
1F
100
AcDbEntity
  8
SLD-0
  6
Continuous
 62
   179
370
    15
100
AcDbLine
 10
441.7552584918
 20
633.71705258
 30
0.0
 11
442.3653939874
 21
634.6008590768
 31
0.0
  0
LINE
  5
12A
330
1F
100
AcDbEntity
  8
SLD-0
  6
Continuous
 62
   179
370
    15
100
AcDbLine
 10
442.3653939874
 20
634.6008590768
 30
0.0
 11
442.8520435603
 21
635.7510126541
 31
0.0
  0
LINE
  5
12B
330
1F
100
AcDbEntity
  8
SLD-0
  6
Continuous
 62
   179
370
    15
100
AcDbLine
 10
442.8520435603
 20
635.7510126541
 30
0.0
 11
443.1869248064
 21
637.1006713594
 31
0.0
  0
LINE
  5
12C
330
1F
100
AcDbEntity
  8
SLD-0
  6
Continuous
 62
   179
370
    15
100
AcDbLine
 10
444.1395560415
 20
637.1006713594
 30
0.0
 11
444.3032080443
 21
638.5713982741
 31
0.0
  0
LINE
  5
12D
330
1F
100
AcDbEntity
  8
SLD-0
  6
Continuous
 62
   179
370
    15
100
AcDbLine
 10
444.3032080443
 20
638.5713982741
 30
0.0
 11
444.2861313136
 21
640.0777194063
 31
0.0
  0
LINE
  5
12E
330
1F
100
AcDbEntity
  8
SLD-0
  6
Continuous
 62
   179
370
    15
100
AcDbLine
 10
444.2861313136
 20
640.0777194063
 30
0.0
 11
444.0892944248
 21
641.5320932279
 31
0.0
  0
LINE
  5
12F
330
1F
100
AcDbEntity
  8
SLD-0
  6
Continuous
 62
   179
370
    15
100
AcDbLine
 10
444.0892944248
 20
641.5320932279
 30
0.0
 11
443.7241638215
 21
642.8499966274
 31
0.0
  0
LINE
  5
130
330
1F
100
AcDbEntity
  8
SLD-0
  6
Continuous
 62
   179
370
    15
100
AcDbLine
 10
443.7241638215
 20
642.8499966274
 30
0.0
 11
443.2119364054
 21
643.9548376362
 31
0.0
  0
LINE
  5
131
330
1F
100
AcDbEntity
  8
SLD-0
  6
Continuous
 62
   179
370
    15
100
AcDbLine
 10
443.2119364054
 20
643.9548376362
 30
0.0
 11
442.5823921473
 21
644.7824076164
 31
0.0
  0
LINE
  5
132
330
1F
100
AcDbEntity
  8
SLD-0
  6
Continuous
 62
   179
370
    15
100
AcDbLine
 10
442.5823921473
 20
644.7824076164
 30
0.0
 11
441.8721208484
 21
645.2846107419
 31
0.0
  0
LINE
  5
133
330
1F
100
AcDbEntity
  8
SLD-0
  6
Continuous
 62
   179
370
    15
100
AcDbLine
 10
441.8721208484
 20
645.2846107419
 30
0.0
 11
441.1932537467
 21
645.4338677573
 31
0.0
  0
LINE
  5
134
330
1F
100
AcDbEntity
  8
SLD-0
  6
Continuous
 62
   179
370
    15
100
AcDbLine
 10
441.1932537467
 20
632.9338680367
 30
0.0
 11
441.2641162188
 21
632.9354754995
 31
0.0
  0
LINE
  5
135
330
1F
100
AcDbEntity
  8
SLD-0
  6
Continuous
 62
   179
370
    15
100
AcDbLine
 10
441.2641162188
 20
632.9354754995
 30
0.0
 11
442.0097256215
 21
633.1509593288
 31
0.0
  0
LINE
  5
136
330
1F
100
AcDbEntity
  8
SLD-0
  6
Continuous
 62
   179
370
    15
100
AcDbLine
 10
442.0097256215
 20
633.1509593288
 30
0.0
 11
442.7078822763
 21
633.71705258
 31
0.0
  0
LINE
  5
137
330
1F
100
AcDbEntity
  8
SLD-0
  6
Continuous
 62
   179
370
    15
100
AcDbLine
 10
442.7078822763
 20
633.71705258
 30
0.0
 11
443.318017772
 21
634.6008590768
 31
0.0
  0
LINE
  5
138
330
1F
100
AcDbEntity
  8
SLD-0
  6
Continuous
 62
   179
370
    15
100
AcDbLine
 10
443.318017772
 20
634.6008590768
 30
0.0
 11
443.8046673448
 21
635.7510126541
 31
0.0
  0
LINE
  5
139
330
1F
100
AcDbEntity
  8
SLD-0
  6
Continuous
 62
   179
370
    15
100
AcDbLine
 10
443.8046673448
 20
635.7510126541
 30
0.0
 11
444.1395560415
 21
637.1006713594
 31
0.0
  0
LINE
  5
13A
330
1F
100
AcDbEntity
  8
SLD-0
  6
Continuous
 62
   179
370
    15
100
AcDbLine
 10
661.2129161568
 20
656.281559384
 30
0.0
 11
677.461425087
 21
656.2815592214
 31
0.0
  0
LINE
  5
13B
330
1F
100
AcDbEntity
  8
SLD-0
  6
Continuous
 62
   179
370
    15
100
AcDbLine
 10
434.461425087
 20
656.281559384
 30
0.0
 11
661.2129161568
 21
656.281559384
 31
0.0
  0
LINE
  5
13C
330
1F
100
AcDbEntity
  8
SLD-0
  6
Continuous
 62
   179
370
    15
100
AcDbLine
 10
427.0093183547
 20
330.2317623923
 30
0.0
 11
684.9135287794
 21
330.2317623923
 31
0.0
  0
LINE
  5
13D
330
1F
100
AcDbEntity
  8
SLD-0
  6
Continuous
 62
   179
370
    15
100
AcDbLine
 10
688.4614164145
 20
649.1838675571
 30
0.0
 11
423.4614307196
 21
649.1838675571
 31
0.0
  0
LINE
  5
13E
330
1F
100
AcDbEntity
  8
SLD-0
  6
Continuous
 62
   179
370
    15
100
AcDbLine
 10
424.461417845
 20
650.1838676046
 30
0.0
 11
687.4614292891
 21
650.1838676046
 31
0.0
  0
LINE
  5
13F
330
1F
100
AcDbEntity
  8
SLD-0
  6
Continuous
 62
     8
370
    15
100
AcDbLine
 10
662.9454502971
 20
654.2815607387
 30
0.0
 11
679.4614235671
 21
654.2815607387
 31
0.0
  0
LINE
  5
140
330
1F
100
AcDbEntity
  8
SLD-0
  6
Continuous
 62
     8
370
    15
100
AcDbLine
 10
432.4614266069
 20
654.2815607387
 30
0.0
 11
662.9454502971
 21
654.2815607387
 31
0.0
  0
ARC
  5
141
330
1F
100
AcDbEntity
  8
SLD-0
  6
Continuous
 62
   179
370
    15
100
AcDbCircle
 10
434.461425087
 20
654.2815609039
 30
0.0
 40
1.999998480100203
100
AcDbArc
 50
90.0
 51
180.0000047326
  0
ARC
  5
142
330
1F
100
AcDbEntity
  8
SLD-0
  6
Continuous
 62
   179
370
    15
100
AcDbCircle
 10
677.461425087
 20
654.2815607413
 30
0.0
 40
1.999998480050181
100
AcDbArc
 50
359.9999999241
 51
90.0
  0
ARC
  5
143
330
1F
100
AcDbEntity
  8
SLD-0
  6
Continuous
 62
   179
370
    15
100
AcDbCircle
 10
265.9615014564
 20
478.1168395255
 30
0.0
 40
500.0000000000001
100
AcDbArc
 50
350.680941467
 51
9.2550966153
  0
ARC
  5
144
330
1F
100
AcDbEntity
  8
SLD-0
  6
Continuous
 62
   179
370
    15
100
AcDbCircle
 10
845.9613456778
 20
478.1168395255
 30
0.0
 40
500.0
100
AcDbArc
 50
170.7449033847
 51
189.319058533
  0
ARC
  5
145
330
1F
100
AcDbEntity
  8
SLD-0
  6
Continuous
 62
   179
370
    15
100
AcDbCircle
 10
428.9614235671
 20
546.0676670381
 30
0.0
 40
77.50000000006789
100
AcDbArc
 50
100.203383338
 51
170.7449033845
  0
ARC
  5
146
330
1F
100
AcDbEntity
  8
SLD-0
  6
Continuous
 62
   179
370
    15
100
AcDbCircle
 10
682.9614235671
 20
546.0676670382
 30
0.0
 40
77.49999999994824
100
AcDbArc
 50
9.2550966153
 51
79.796616662
  0
ARC
  5
147
330
1F
100
AcDbEntity
  8
SLD-0
  6
Continuous
 62
   179
370
    15
100
AcDbCircle
 10
431.5045447955
 20
410.1053684161
 30
0.0
 40
79.99999999995683
100
AcDbArc
 50
189.3190585332
 51
266.778834634
  0
ARC
  5
148
330
1F
100
AcDbEntity
  8
SLD-0
  6
Continuous
 62
   179
370
    15
100
AcDbCircle
 10
680.4183023386
 20
410.1053684161
 30
0.0
 40
79.99999999996513
100
AcDbArc
 50
273.221165366
 51
350.6809414668
  0
ARC
  5
149
330
1F
100
AcDbEntity
  8
SLD-0
  6
Continuous
 62
   179
370
    15
100
AcDbCircle
 10
413.4614235671
 20
632.1838676046
 30
0.0
 40
10.0
100
AcDbArc
 50
280.2033833378
 51
0.0
  0
ARC
  5
14A
330
1F
100
AcDbEntity
  8
SLD-0
  6
Continuous
 62
   179
370
    15
100
AcDbCircle
 10
698.4614235671
 20
632.1838676046
 30
0.0
 40
10.0
100
AcDbArc
 50
180.0
 51
259.7966166622
  0
ARC
  5
14B
330
1F
100
AcDbEntity
  8
SLD-0
  6
Continuous
 62
   179
370
    15
100
AcDbCircle
 10
440.1819137378
 20
636.5416549322
 30
0.0
 40
1.359055641558365
100
AcDbArc
 50
272.4758456641
 51
331.1317550619
  0
DIMENSION
  5
14C
330
1F
100
AcDbEntity
  8
SLD-0
 62
   179
100
AcDbDimension
  2
_D
 10
765.9614235671
 20
15.2389851916
 30
0.0
 11
548.235403819
 21
15.2389851916
 31
0.0
 70
   160
  1
<>
 71
     2
 42
-1.0
  3
SLDDIMSTYLE0
100
AcDbAlignedDimension
 13
345.9614235671
 23
477.8377530252
 33
0.0
 14
765.9614235671
 24
477.8377530252
 34
0.0
100
AcDbRotatedDimension
  0
DIMENSION
  5
159
330
1F
100
AcDbEntity
  8
SLD-0
 62
   179
100
AcDbDimension
  2
_D_1
 10
639.9614235671
 20
791.1839176046
 30
0.0
 11
535.1320726768
 21
791.1839176046
 31
0.0
 70
   160
  1
%%c<>
 71
     2
 42
-1.0
  3
SLDDIMSTYLE0
100
AcDbAlignedDimension
 13
471.9614235671
 23
691.1838676046
 33
0.0
 14
639.9614235671
 24
691.1838676046
 34
0.0
100
AcDbRotatedDimension
  0
DIMENSION
  5
164
330
1F
100
AcDbEntity
  8
SLD-0
 62
   179
100
AcDbDimension
  2
_D_2
 10
865.9615014563
 20
656.2815609039
 30
0.0
 11
865.9615014563
 21
734.4550939051
 31
0.0
 70
   160
  1
<>
 71
     2
 42
-1.0
  3
SLDDIMSTYLE1
100
AcDbAlignedDimension
 13
634.7349626043
 23
691.1838676046
 33
0.0
 14
677.4614235671
 24
656.2815609039
 34
0.0
 50
90.0
100
AcDbRotatedDimension
  0
DIMENSION
  5
170
330
1F
100
AcDbEntity
  8
SLD-0
 62
   179
100
AcDbDimension
  2
_D_3
 10
865.9615014563
 20
260.1838676046
 30
0.0
 11
865.9615014563
 21
462.1568843798
 31
0.0
 70
   160
  1
<>
 71
     2
 42
-1.0
  3
SLDDIMSTYLE1
100
AcDbAlignedDimension
 13
677.4614235671
 23
656.2815609039
 33
0.0
 14
616.1884378808
 24
260.1838676046
 34
0.0
 50
90.0
100
AcDbRotatedDimension
  0
DIMENSION
  5
17A
330
1F
100
AcDbEntity
  8
SLD-0
 62
   179
100
AcDbDimension
  2
_D_4
 10
676.4154521945
 20
160.1838676045
 30
0.0
 11
560.6412820208
 21
160.1838676045
 31
0.0
 70
   160
  1
%%c<>
 71
     2
 42
-1.0
  3
SLDDIMSTYLE2
100
AcDbAlignedDimension
 13
435.5073949397
 23
260.1838676046
 33
0.0
 14
676.4154521945
 24
260.1838676046
 34
0.0
 50
0.0
100
AcDbRotatedDimension
  0
ENDSEC
  0
SECTION
  2
OBJECTS
  0
DICTIONARY
  5
C
330
0
100
AcDbDictionary
281
     1
  3
ACAD_GROUP
350
D
  3
ACAD_LAYOUT
350
1A
  3
ACAD_MLINESTYLE
350
17
  3
ACAD_PLOTSETTINGS
350
19
  3
ACAD_PLOTSTYLENAME
350
E
  0
DICTIONARY
  5
D
102
{ACAD_REACTORS
330
C
102
}
330
C
100
AcDbDictionary
281
     1
  0
DICTIONARY
  5
1A
102
{ACAD_REACTORS
330
C
102
}
330
C
100
AcDbDictionary
281
     1
  3
Layout1
350
1E
  3
Layout2
350
26
  3
Model
350
22
  0
DICTIONARY
  5
17
102
{ACAD_REACTORS
330
C
102
}
330
C
100
AcDbDictionary
281
     1
  3
Standard
350
18
  0
DICTIONARY
  5
19
102
{ACAD_REACTORS
330
C
102
}
330
C
100
AcDbDictionary
281
     1
  0
ACDBDICTIONARYWDFLT
  5
E
102
{ACAD_REACTORS
330
C
102
}
330
C
100
AcDbDictionary
281
     1
  3
Normal
350
F
100
AcDbDictionaryWithDefault
340
F
  0
LAYOUT
  5
1E
102
{ACAD_REACTORS
330
1A
102
}
330
1A
100
AcDbPlotSettings
  1

  2
none_device
  4

  6

 40
0.0
 41
0.0
 42
0.0
 43
0.0
 44
0.0
 45
0.0
 46
0.0
 47
0.0
 48
0.0
 49
0.0
140
0.0
141
0.0
142
1.0
143
1.0
 70
   688
 72
     0
 73
     0
 74
     5
  7

 75
    16
147
1.0
148
0.0
149
0.0
100
AcDbLayout
  1
Layout1
 70
     1
 71
     1
 10
0.0
 20
0.0
 11
420.0
 21
297.0
 12
0.0
 22
0.0
 32
0.0
 14
1.0000000000E+20
 24
1.0000000000E+20
 34
1.0000000000E+20
 15
-1.0000000000E+20
 25
-1.0000000000E+20
 35
-1.0000000000E+20
146
0.0
 13
0.0
 23
0.0
 33
0.0
 16
1.0
 26
0.0
 36
0.0
 17
0.0
 27
1.0
 37
0.0
 76
     0
330
1B
  0
LAYOUT
  5
26
102
{ACAD_REACTORS
330
1A
102
}
330
1A
100
AcDbPlotSettings
  1

  2
none_device
  4

  6

 40
0.0
 41
0.0
 42
0.0
 43
0.0
 44
0.0
 45
0.0
 46
0.0
 47
0.0
 48
0.0
 49
0.0
140
0.0
141
0.0
142
1.0
143
1.0
 70
   688
 72
     0
 73
     0
 74
     5
  7

 75
    16
147
1.0
148
0.0
149
0.0
100
AcDbLayout
  1
Layout2
 70
     1
 71
     2
 10
0.0
 20
0.0
 11
0.0
 21
0.0
 12
0.0
 22
0.0
 32
0.0
 14
0.0
 24
0.0
 34
0.0
 15
0.0
 25
0.0
 35
0.0
146
0.0
 13
0.0
 23
0.0
 33
0.0
 16
1.0
 26
0.0
 36
0.0
 17
0.0
 27
1.0
 37
0.0
 76
     0
330
23
  0
LAYOUT
  5
22
102
{ACAD_REACTORS
330
1A
102
}
330
1A
100
AcDbPlotSettings
  1

  2
none_device
  4

  6

 40
0.0
 41
0.0
 42
0.0
 43
0.0
 44
0.0
 45
0.0
 46
0.0
 47
0.0
 48
0.0
 49
0.0
140
0.0
141
0.0
142
1.0
143
1.0
 70
  1712
 72
     0
 73
     0
 74
     0
  7

 75
     0
147
1.0
148
0.0
149
0.0
100
AcDbLayout
  1
Model
 70
     1
 71
     0
 10
0.0
 20
0.0
 11
1189.0
 21
841.0
 12
0.0
 22
0.0
 32
0.0
 14
0.0
 24
0.0
 34
0.0
 15
1189.0
 25
841.0
 35
0.0
146
0.0
 13
0.0
 23
0.0
 33
0.0
 16
1.0
 26
0.0
 36
0.0
 17
0.0
 27
1.0
 37
0.0
 76
     0
330
1F
331
29
  0
MLINESTYLE
  5
18
102
{ACAD_REACTORS
330
17
102
}
330
17
100
AcDbMlineStyle
  2
Standard
 70
     0
  3

 62
   256
 51
90.0
 52
90.0
 71
     2
 49
0.5
 62
   256
  6
BYLAYER
 49
-0.5
 62
   256
  6
BYLAYER
  0
ACDBPLACEHOLDER
  5
F
102
{ACAD_REACTORS
330
E
102
}
330
E
  0
ENDSEC
  0
EOF
