  0
SECTION
  2
HEADER
  9
$ACADVER
  1
AC1015
  9
$ACADMAINTVER
 70
     6
  9
$DWGCODEPAGE
  3
ANSI_1252
  9
$INSBASE
 10
0.0
 20
0.0
 30
0.0
  9
$EXTMIN
 10
0.0
 20
0.0
 30
0.0
  9
$EXTMAX
 10
1189.0
 20
841.0
 30
0.0
  9
$LIMMIN
 10
0.0
 20
0.0
  9
$LIMMAX
 10
1189.0
 20
841.0
  9
$ORTHOMODE
 70
     0
  9
$REGENMODE
 70
     1
  9
$FILLMODE
 70
     1
  9
$QTEXTMODE
 70
     0
  9
$MIRRTEXT
 70
     1
  9
$LTSCALE
 40
1.0
  9
$ATTMODE
 70
     1
  9
$TEXTSIZE
 40
3.5
  9
$TRACEWID
 40
1.0
  9
$TEXTSTYLE
  7
Standard
  9
$CLAYER
  8
0
  9
$CELTYPE
  6
ByLayer
  9
$CECOLOR
 62
   256
  9
$CELTSCALE
 40
1.0
  9
$DISPSILH
 70
     0
  9
$DIMSCALE
 40
1.0
  9
$DIMASZ
 40
3.302
  9
$DIMEXO
 40
1.0
  9
$DIMDLI
 40
3.75
  9
$DIMRND
 40
0.0
  9
$DIMDLE
 40
0.0
  9
$DIMEXE
 40
1.0
  9
$DIMTP
 40
0.0
  9
$DIMTM
 40
0.0
  9
$DIMTXT
 40
3.5
  9
$DIMCEN
 40
2.5
  9
$DIMTSZ
 40
0.0
  9
$DIMTOL
 70
     0
  9
$DIMLIM
 70
     0
  9
$DIMTIH
 70
     1
  9
$DIMTOH
 70
     1
  9
$DIMSE1
 70
     0
  9
$DIMSE2
 70
     0
  9
$DIMTAD
 70
     1
  9
$DIMZIN
 70
     1
  9
$DIMBLK
  1

  9
$DIMASO
 70
     1
  9
$DIMSHO
 70
     1
  9
$DIMPOST
  1

  9
$DIMAPOST
  1

  9
$DIMALT
 70
     0
  9
$DIMALTD
 70
     3
  9
$DIMALTF
 40
0.0393700787
  9
$DIMLFAC
 40
1.0
  9
$DIMTOFL
 70
     1
  9
$DIMTVP
 40
0.0
  9
$DIMTIX
 70
     0
  9
$DIMSOXD
 70
     0
  9
$DIMSAH
 70
     0
  9
$DIMBLK1
  1

  9
$DIMBLK2
  1

  9
$DIMSTYLE
  2
ISO-25
  9
$DIMCLRD
 70
     0
  9
$DIMCLRE
 70
     0
  9
$DIMCLRT
 70
     0
  9
$DIMTFAC
 40
1.0
  9
$DIMGAP
 40
1.524
  9
$DIMJUST
 70
     0
  9
$DIMSD1
 70
     0
  9
$DIMSD2
 70
     0
  9
$DIMTOLJ
 70
     0
  9
$DIMTZIN
 70
     1
  9
$DIMALTZ
 70
     0
  9
$DIMALTTZ
 70
     0
  9
$DIMUPT
 70
     0
  9
$DIMDEC
 70
     3
  9
$DIMTDEC
 70
     3
  9
$DIMALTU
 70
     2
  9
$DIMALTTD
 70
     3
  9
$DIMTXSTY
  7
Standard
  9
$DIMAUNIT
 70
     0
  9
$DIMADEC
 70
     2
  9
$DIMALTRND
 40
0.0
  9
$DIMAZIN
 70
     0
  9
$DIMDSEP
 70
    44
  9
$DIMATFIT
 70
     3
  9
$DIMFRAC
 70
     0
  9
$DIMLDRBLK
  1

  9
$DIMLUNIT
 70
     2
  9
$DIMLWD
 70
    -2
  9
$DIMLWE
 70
    -2
  9
$DIMTMOVE
 70
     0
  9
$LUNITS
 70
     2
  9
$LUPREC
 70
     2
  9
$SKETCHINC
 40
1.0
  9
$FILLETRAD
 40
10.0
  9
$AUNITS
 70
     0
  9
$AUPREC
 70
     2
  9
$MENU
  1
.
  9
$ELEVATION
 40
0.0
  9
$PELEVATION
 40
0.0
  9
$THICKNESS
 40
0.0
  9
$LIMCHECK
 70
     0
  9
$CHAMFERA
 40
10.0
  9
$CHAMFERB
 40
10.0
  9
$CHAMFERC
 40
20.0
  9
$CHAMFERD
 40
0.0
  9
$SKPOLY
 70
     0
  9
$TDCREATE
 40
2459305.491646736
  9
$TDUCREATE
 40
2459305.408313403
  9
$TDUPDATE
 40
2459305.491647627
  9
$TDUUPDATE
 40
2459305.408314294
  9
$TDINDWG
 40
0.0000000116
  9
$TDUSRTIMER
 40
0.0000000116
  9
$USRTIMER
 70
     1
  9
$ANGBASE
 50
0.0
  9
$ANGDIR
 70
     0
  9
$PDMODE
 70
     0
  9
$PDSIZE
 40
-1.0
  9
$PLINEWID
 40
0.0
  9
$SPLFRAME
 70
     0
  9
$SPLINETYPE
 70
     6
  9
$SPLINESEGS
 70
     8
  9
$HANDSEED
  5
182
  9
$SURFTAB1
 70
     6
  9
$SURFTAB2
 70
     6
  9
$SURFTYPE
 70
     6
  9
$SURFU
 70
     6
  9
$SURFV
 70
     6
  9
$UCSBASE
  2

  9
$UCSNAME
  2

  9
$UCSORG
 10
0.0
 20
0.0
 30
0.0
  9
$UCSXDIR
 10
1.0
 20
0.0
 30
0.0
  9
$UCSYDIR
 10
0.0
 20
1.0
 30
0.0
  9
$UCSORTHOREF
  2

  9
$UCSORTHOVIEW
 70
     0
  9
$UCSORGTOP
 10
0.0
 20
0.0
 30
0.0
  9
$UCSORGBOTTOM
 10
0.0
 20
0.0
 30
0.0
  9
$UCSORGLEFT
 10
0.0
 20
0.0
 30
0.0
  9
$UCSORGRIGHT
 10
0.0
 20
0.0
 30
0.0
  9
$UCSORGFRONT
 10
0.0
 20
0.0
 30
0.0
  9
$UCSORGBACK
 10
0.0
 20
0.0
 30
0.0
  9
$PUCSBASE
  2

  9
$PUCSNAME
  2

  9
$PUCSORG
 10
0.0
 20
0.0
 30
0.0
  9
$PUCSXDIR
 10
1.0
 20
0.0
 30
0.0
  9
$PUCSYDIR
 10
0.0
 20
1.0
 30
0.0
  9
$PUCSORTHOREF
  2

  9
$PUCSORTHOVIEW
 70
     0
  9
$PUCSORGTOP
 10
0.0
 20
0.0
 30
0.0
  9
$PUCSORGBOTTOM
 10
0.0
 20
0.0
 30
0.0
  9
$PUCSORGLEFT
 10
0.0
 20
0.0
 30
0.0
  9
$PUCSORGRIGHT
 10
0.0
 20
0.0
 30
0.0
  9
$PUCSORGFRONT
 10
0.0
 20
0.0
 30
0.0
  9
$PUCSORGBACK
 10
0.0
 20
0.0
 30
0.0
  9
$USERI1
 70
     0
  9
$USERI2
 70
     0
  9
$USERI3
 70
     0
  9
$USERI4
 70
     0
  9
$USERI5
 70
     0
  9
$USERR1
 40
0.0
  9
$USERR2
 40
0.0
  9
$USERR3
 40
0.0
  9
$USERR4
 40
0.0
  9
$USERR5
 40
0.0
  9
$WORLDVIEW
 70
     1
  9
$SHADEDGE
 70
     3
  9
$SHADEDIF
 70
    70
  9
$TILEMODE
 70
     1
  9
$MAXACTVP
 70
    64
  9
$PINSBASE
 10
0.0
 20
0.0
 30
0.0
  9
$PLIMCHECK
 70
     0
  9
$PEXTMIN
 10
1.0000000000E+20
 20
1.0000000000E+20
 30
1.0000000000E+20
  9
$PEXTMAX
 10
-1.0000000000E+20
 20
-1.0000000000E+20
 30
-1.0000000000E+20
  9
$PLIMMIN
 10
0.0
 20
0.0
  9
$PLIMMAX
 10
420.0
 20
297.0
  9
$UNITMODE
 70
     0
  9
$VISRETAIN
 70
     1
  9
$PLINEGEN
 70
     0
  9
$PSLTSCALE
 70
     1
  9
$TREEDEPTH
 70
  3020
  9
$CMLSTYLE
  2
Standard
  9
$CMLJUST
 70
     0
  9
$CMLSCALE
 40
20.0
  9
$PROXYGRAPHICS
 70
     1
  9
$MEASUREMENT
 70
     1
  9
$CELWEIGHT
370
    -1
  9
$ENDCAPS
280
     0
  9
$JOINSTYLE
280
     0
  9
$LWDISPLAY
290
     1
  9
$INSUNITS
 70
     4
  9
$HYPERLINKBASE
  1

  9
$STYLESHEET
  1

  9
$XEDIT
290
     1
  9
$CEPSNTYPE
380
     0
  9
$PSTYLEMODE
290
     1
  9
$FINGERPRINTGUID
  2
{CAFF40B5-EFB2-4680-BB59-98CBDDCB3D50}
  9
$VERSIONGUID
  2
{FAEB1C32-E019-11D5-929B-00C0DF256EC4}
  9
$EXTNAMES
290
     1
  9
$PSVPSCALE
 40
0.0
  9
$OLESTARTUP
290
     0
  0
ENDSEC
  0
SECTION
  2
CLASSES
  0
CLASS
  1
ACDBDICTIONARYWDFLT
  2
AcDbDictionaryWithDefault
  3
ObjectDBX Classes
 90
        0
280
     0
281
     0
  0
CLASS
  1
VISUALSTYLE
  2
AcDbVisualStyle
  3
ObjectDBX Classes
 90
     4095
280
     0
281
     0
  0
CLASS
  1
MATERIAL
  2
AcDbMaterial
  3
ObjectDBX Classes
 90
     1153
280
     0
281
     0
  0
CLASS
  1
ACDBPLACEHOLDER
  2
AcDbPlaceHolder
  3
ObjectDBX Classes
 90
        0
280
     0
281
     0
  0
CLASS
  1
LAYOUT
  2
AcDbLayout
  3
ObjectDBX Classes
 90
        0
280
     0
281
     0
  0
ENDSEC
  0
SECTION
  2
TABLES
  0
TABLE
  2
VPORT
  5
8
330
0
100
AcDbSymbolTable
 70
     1
  0
VPORT
  5
29
330
8
100
AcDbSymbolTableRecord
100
AcDbViewportTableRecord
  2
*Active
 70
     0
 10
0.0
 20
0.0
 11
1.0
 21
1.0
 12
594.5
 22
420.5
 13
0.0
 23
0.0
 14
10.0
 24
10.0
 15
10.0
 25
10.0
 16
0.0
 26
0.0
 36
1.0
 17
0.0
 27
0.0
 37
0.0
 40
841.0
 41
1.4137931034
 42
50.0
 43
0.0
 44
0.0
 50
0.0
 51
0.0
 71
     0
 72
  2000
 73
     1
 74
     3
 75
     0
 76
     0
 77
     0
 78
     0
281
     0
 65
     1
110
0.0
120
0.0
130
0.0
111
1.0
121
0.0
131
0.0
112
0.0
122
1.0
132
0.0
 79
     0
146
0.0
  0
ENDTAB
  0
TABLE
  2
LTYPE
  5
5
330
0
100
AcDbSymbolTable
 70
     6
  0
LTYPE
  5
14
330
5
100
AcDbSymbolTableRecord
100
AcDbLinetypeTableRecord
  2
ByBlock
 70
     0
  3

 72
    65
 73
     0
 40
0.0
  0
LTYPE
  5
15
330
5
100
AcDbSymbolTableRecord
100
AcDbLinetypeTableRecord
  2
ByLayer
 70
     0
  3

 72
    65
 73
     0
 40
0.0
  0
LTYPE
  5
16
330
5
100
AcDbSymbolTableRecord
100
AcDbLinetypeTableRecord
  2
Continuous
 70
     0
  3
Solid line
 72
    65
 73
     0
 40
0.0
  0
LTYPE
  5
3F
330
5
100
AcDbSymbolTableRecord
100
AcDbLinetypeTableRecord
  2
HIDDEN
 70
     0
  3
Hidden __ __ __ __ __ __ __ __ __ __ __ __ __ __
 72
    65
 73
     2
 40
1.905
 49
1.27
 74
     0
 49
-0.635
 74
     0
  0
LTYPE
  5
40
330
5
100
AcDbSymbolTableRecord
100
AcDbLinetypeTableRecord
  2
PHANTOM
 70
     0
  3
Phantom ______  __  __  ______  __  __  ______
 72
    65
 73
     6
 40
12.7
 49
6.35
 74
     0
 49
-1.27
 74
     0
 49
1.27
 74
     0
 49
-1.27
 74
     0
 49
1.27
 74
     0
 49
-1.27
 74
     0
  0
LTYPE
  5
41
330
5
100
AcDbSymbolTableRecord
100
AcDbLinetypeTableRecord
  2
CENTER
 70
     0
  3
Center ____ _ ____ _ ____ _ ____ _ ____ _ ____
 72
    65
 73
     4
 40
10.16
 49
6.35
 74
     0
 49
-1.27
 74
     0
 49
1.27
 74
     0
 49
-1.27
 74
     0
  0
LTYPE
  5
42
330
5
100
AcDbSymbolTableRecord
100
AcDbLinetypeTableRecord
  2
CENTERX2
 70
     0
  3
Center (2x) ________  __  ________  __  _____
 72
    65
 73
     4
 40
20.32
 49
12.7
 74
     0
 49
-2.54
 74
     0
 49
2.54
 74
     0
 49
-2.54
 74
     0
  0
LTYPE
  5
43
330
5
100
AcDbSymbolTableRecord
100
AcDbLinetypeTableRecord
  2
DOT2
 70
     0
  3
Dot (.5x) ........................................
 72
    65
 73
     2
 40
0.635
 49
0.0
 74
     0
 49
-0.635
 74
     0
  0
ENDTAB
  0
TABLE
  2
LAYER
  5
2
330
0
100
AcDbSymbolTable
 70
     2
  0
LAYER
  5
10
330
2
100
AcDbSymbolTableRecord
100
AcDbLayerTableRecord
  2
0
 70
     0
 62
     7
  6
Continuous
370
    -3
390
F
  0
LAYER
  5
44
330
2
100
AcDbSymbolTableRecord
100
AcDbLayerTableRecord
  2
SLD-0
 70
     0
 62
   179
  6
Continuous
370
    -3
390
F
  0
ENDTAB
  0
TABLE
  2
STYLE
  5
3
330
0
100
AcDbSymbolTable
 70
     3
  0
STYLE
  5
11
330
3
100
AcDbSymbolTableRecord
100
AcDbTextStyleTableRecord
  2
Standard
 70
     0
 40
0.0
 41
1.0
 50
0.0
 71
     0
 42
3.5
  3
txt
  4

  0
STYLE
  5
144
330
3
100
AcDbSymbolTableRecord
100
AcDbTextStyleTableRecord
  2
SLDTEXTSTYLE0
 70
     0
 40
0.0
 41
0.75
 50
0.0
 71
     0
 42
0.2
  3
TXT
  4

  0
STYLE
  5
14F
330
3
100
AcDbSymbolTableRecord
100
AcDbTextStyleTableRecord
  2
SLDTEXTSTYLE1
 70
     0
 40
0.0
 41
0.96
 50
0.0
 71
     0
 42
0.2
  3
TXT
  4

  0
ENDTAB
  0
TABLE
  2
VIEW
  5
6
330
0
100
AcDbSymbolTable
 70
     0
  0
ENDTAB
  0
TABLE
  2
UCS
  5
7
330
0
100
AcDbSymbolTable
 70
     0
  0
ENDTAB
  0
TABLE
  2
APPID
  5
9
330
0
100
AcDbSymbolTable
 70
     1
  0
APPID
  5
12
330
9
100
AcDbSymbolTableRecord
100
AcDbRegAppTableRecord
  2
ACAD
 70
     0
  0
ENDTAB
  0
TABLE
  2
DIMSTYLE
  5
A
330
0
100
AcDbSymbolTable
 70
     4
100
AcDbDimStyleTable
  0
DIMSTYLE
105
27
330
A
100
AcDbSymbolTableRecord
100
AcDbDimStyleTableRecord
  2
ISO-25
 70
     0
 41
2.5
 42
0.625
 43
3.75
 44
1.25
 73
     0
 74
     0
 77
     1
 78
     8
140
2.5
141
2.5
143
0.0393700787
147
0.625
171
     3
172
     1
178
     0
271
     2
272
     2
274
     3
278
    44
283
     0
284
     8
340
11
  0
DIMSTYLE
105
145
102
{ACAD_REACTORS
330
143
330
176
102
}
330
A
100
AcDbSymbolTableRecord
100
AcDbDimStyleTableRecord
  2
SLDDIMSTYLE0
 70
     0
 41
3.302
 44
0.0
 45
0.000000001
 73
     0
 74
     0
 77
     1
 78
    12
 79
     3
140
17.5
147
4.375
173
     1
178
     0
271
     0
272
     0
276
     2
284
    12
340
144
341
146
343
146
344
146
  0
DIMSTYLE
105
154
102
{ACAD_REACTORS
330
153
102
}
330
A
100
AcDbSymbolTableRecord
100
AcDbDimStyleTableRecord
  2
SLDDIMSTYLE1
 70
     0
 41
3.302
 44
0.0
 45
0.000000001
 73
     0
 74
     0
 77
     1
 78
    12
 79
     3
140
17.5
147
4.375
173
     1
178
     0
271
     0
272
     3
276
     2
284
    12
340
144
341
146
343
146
344
146
  0
DIMSTYLE
105
162
102
{ACAD_REACTORS
330
161
330
16C
102
}
330
A
100
AcDbSymbolTableRecord
100
AcDbDimStyleTableRecord
  2
SLDDIMSTYLE2
 70
     0
 41
3.302
 44
0.0
 45
0.000000001
 73
     0
 74
     0
 77
     1
 78
    12
 79
     3
140
17.5
147
4.375
173
     1
178
     0
271
     0
272
     2
276
     2
284
    12
340
144
341
146
343
146
344
146
  0
ENDTAB
  0
TABLE
  2
BLOCK_RECORD
  5
1
330
0
100
AcDbSymbolTable
 70
     7
  0
BLOCK_RECORD
  5
1F
330
1
100
AcDbSymbolTableRecord
100
AcDbBlockTableRecord
  2
*Model_Space
340
22
  0
BLOCK_RECORD
  5
1B
330
1
100
AcDbSymbolTableRecord
100
AcDbBlockTableRecord
  2
*Paper_Space
340
1E
  0
BLOCK_RECORD
  5
23
330
1
100
AcDbSymbolTableRecord
100
AcDbBlockTableRecord
  2
*Paper_Space0
340
26
  0
BLOCK_RECORD
  5
146
330
1
100
AcDbSymbolTableRecord
100
AcDbBlockTableRecord
  2
_NONE
340
0
  0
BLOCK_RECORD
  5
149
330
1
100
AcDbSymbolTableRecord
100
AcDbBlockTableRecord
  2
_D
340
0
  0
BLOCK_RECORD
  5
155
330
1
100
AcDbSymbolTableRecord
100
AcDbBlockTableRecord
  2
_D_1
340
0
  0
BLOCK_RECORD
  5
163
330
1
100
AcDbSymbolTableRecord
100
AcDbBlockTableRecord
  2
_D_2
340
0
  0
BLOCK_RECORD
  5
16D
330
1
100
AcDbSymbolTableRecord
100
AcDbBlockTableRecord
  2
_D_3
340
0
  0
BLOCK_RECORD
  5
177
330
1
100
AcDbSymbolTableRecord
100
AcDbBlockTableRecord
  2
_D_4
340
0
  0
ENDTAB
  0
ENDSEC
  0
SECTION
  2
BLOCKS
  0
BLOCK
  5
20
330
1F
100
AcDbEntity
  8
0
100
AcDbBlockBegin
  2
*Model_Space
 70
     0
 10
0.0
 20
0.0
 30
0.0
  3
*Model_Space
  1

  0
ENDBLK
  5
21
330
1F
100
AcDbEntity
  8
0
100
AcDbBlockEnd
  0
BLOCK
  5
1C
330
1B
100
AcDbEntity
 67
     1
  8
0
100
AcDbBlockBegin
  2
*Paper_Space
 70
     0
 10
0.0
 20
0.0
 30
0.0
  3
*Paper_Space
  1

  0
ENDBLK
  5
1D
330
1B
100
AcDbEntity
 67
     1
  8
0
100
AcDbBlockEnd
  0
BLOCK
  5
24
330
23
100
AcDbEntity
  8
0
100
AcDbBlockBegin
  2
*Paper_Space0
 70
     0
 10
0.0
 20
0.0
 30
0.0
  3
*Paper_Space0
  1

  0
ENDBLK
  5
25
330
23
100
AcDbEntity
  8
0
100
AcDbBlockEnd
  0
BLOCK
  5
147
330
146
100
AcDbEntity
  8
0
100
AcDbBlockBegin
  2
_NONE
 70
     0
 10
0.0
 20
0.0
 30
0.0
  3
_NONE
  1

  0
ENDBLK
  5
148
330
146
100
AcDbEntity
  8
0
100
AcDbBlockEnd
  0
BLOCK
  5
14A
330
149
100
AcDbEntity
  8
0
100
AcDbBlockBegin
  2
_D
 70
     0
 10
0.0
 20
0.0
 30
0.0
  3
_D
  1

  0
LINE
  5
14C
330
149
100
AcDbEntity
  8
SLD-0
 62
   179
100
AcDbLine
 10
434.0164182886
 20
900.0534532837
 30
0.0
 11
432.9681469425
 21
659.4494804003
 31
0.0
  0
LINE
  5
14D
330
149
100
AcDbEntity
  8
SLD-0
 62
   179
100
AcDbLine
 10
684.0035909081
 20
897.1092556045
 30
0.0
 11
682.9634015313
 21
658.3602928075
 31
0.0
  0
LINE
  5
14E
330
149
100
AcDbEntity
  8
SLD-0
 62
   179
100
AcDbLine
 10
432.9899309011
 20
664.449432946
 30
0.0
 11
682.9851854899
 21
663.3602453532
 31
0.0
  0
MTEXT
  5
150
330
149
100
AcDbEntity
  8
SLD-0
 62
   179
100
AcDbMText
 10
525.7174713408
 20
685.2922889682
 30
0.2
 40
17.5
 41
0.0
 71
     1
 72
     1
  1
250
  7
SLDTEXTSTYLE1
 73
     1
 44
1.0
  0
SOLID
  5
151
330
149
100
AcDbEntity
  8
SLD-0
 62
   179
100
AcDbTrace
 10
432.9899309011
 20
664.449432946
 30
0.0
 11
449.488707956
 21
661.8375264215
 31
0.0
 12
449.510840458
 22
666.9174782079
 32
0.0
 13
449.510840458
 23
666.9174782079
 33
0.0
  0
SOLID
  5
152
330
149
100
AcDbEntity
  8
SLD-0
 62
   179
100
AcDbTrace
 10
682.9851854899
 20
663.3602453532
 30
0.0
 11
666.486408435
 21
665.9721518777
 31
0.0
 12
666.4642759331
 22
660.8922000913
 32
0.0
 13
666.4642759331
 23
660.8922000913
 33
0.0
  0
ENDBLK
  5
14B
330
149
100
AcDbEntity
  8
0
100
AcDbBlockEnd
  0
BLOCK
  5
156
330
155
100
AcDbEntity
  8
0
100
AcDbBlockBegin
  2
_D_1
 70
     0
 10
0.0
 20
0.0
 30
0.0
  3
_D_1
  1

  0
LINE
  5
158
330
155
100
AcDbEntity
  8
SLD-0
 62
   179
100
AcDbLine
 10
610.0382022472
 20
1054.1272188554
 30
0.0
 11
610.0382022472
 21
1117.1092696629
 31
0.0
  0
LINE
  5
159
330
155
100
AcDbEntity
  8
SLD-0
 62
   179
100
AcDbLine
 10
508.0382022472
 20
1054.1272188554
 30
0.0
 11
508.0382022472
 21
1117.1092696629
 31
0.0
  0
LINE
  5
15A
330
155
100
AcDbEntity
  8
SLD-0
 62
   179
100
AcDbLine
 10
610.0382022472
 20
1112.1092696629
 30
0.0
 11
641.7882022472
 21
1112.1092696629
 31
0.0
  0
LINE
  5
15B
330
155
100
AcDbEntity
  8
SLD-0
 62
   179
100
AcDbLine
 10
610.0382022472
 20
1112.1092696629
 30
0.0
 11
508.0382022472
 21
1112.1092696629
 31
0.0
  0
LINE
  5
15C
330
155
100
AcDbEntity
  8
SLD-0
 62
   179
100
AcDbLine
 10
508.0382022472
 20
1112.1092696629
 30
0.0
 11
476.2882022472
 21
1112.1092696629
 31
0.0
  0
MTEXT
  5
15D
330
155
100
AcDbEntity
  8
SLD-0
 62
   179
100
AcDbMText
 10
503.7768386837
 20
1133.3561374234
 30
0.2
 40
17.5
 41
0.0
 71
     1
 72
     1
  1
%%c
  7
SLDTEXTSTYLE1
 73
     1
 44
1.0
  0
MTEXT
  5
15E
330
155
100
AcDbEntity
  8
SLD-0
 62
   179
100
AcDbMText
 10
538.9190256755
 20
1133.6234983067
 30
0.2
 40
17.5
 41
0.0
 71
     1
 72
     1
  1
102
  7
SLDTEXTSTYLE1
 73
     1
 44
1.0
  0
SOLID
  5
15F
330
155
100
AcDbEntity
  8
SLD-0
 62
   179
100
AcDbTrace
 10
610.0382022472
 20
1112.1092696629
 30
0.0
 11
626.5482022472
 21
1109.5692696629
 31
0.0
 12
626.5482022472
 22
1114.6492696629
 32
0.0
 13
626.5482022472
 23
1114.6492696629
 33
0.0
  0
SOLID
  5
160
330
155
100
AcDbEntity
  8
SLD-0
 62
   179
100
AcDbTrace
 10
508.0382022472
 20
1112.1092696629
 30
0.0
 11
491.5282022472
 21
1114.6492696629
 31
0.0
 12
491.5282022472
 22
1109.5692696629
 32
0.0
 13
491.5282022472
 23
1109.5692696629
 33
0.0
  0
ENDBLK
  5
157
330
155
100
AcDbEntity
  8
0
100
AcDbBlockEnd
  0
BLOCK
  5
164
330
163
100
AcDbEntity
  8
0
100
AcDbBlockBegin
  2
_D_2
 70
     0
 10
0.0
 20
0.0
 30
0.0
  3
_D_2
  1

  0
LINE
  5
166
330
163
100
AcDbEntity
  8
SLD-0
 62
   179
100
AcDbLine
 10
632.0382022472
 20
1032.2285024008
 30
0.0
 11
769.0382022472
 21
1032.2285024008
 31
0.0
  0
LINE
  5
167
330
163
100
AcDbEntity
  8
SLD-0
 62
   179
100
AcDbLine
 10
625.5051499143
 20
766.0634620835
 30
0.0
 11
769.0382022472
 21
766.0634620835
 31
0.0
  0
LINE
  5
168
330
163
100
AcDbEntity
  8
SLD-0
 62
   179
100
AcDbLine
 10
764.0382022472
 20
1032.2285024008
 30
0.0
 11
764.0382022472
 21
766.0634620835
 31
0.0
  0
MTEXT
  5
169
330
163
100
AcDbEntity
  8
SLD-0
 62
   179
100
AcDbMText
 10
742.7913353598
 20
889.5276589726
 30
0.2
 40
17.5
 41
0.0
 71
     1
 72
     1
  1
266
  7
SLDTEXTSTYLE1
 11
-7.044195017643634E-15
 21
1.0
 31
0.0
 73
     1
 44
1.0
  0
SOLID
  5
16A
330
163
100
AcDbEntity
  8
SLD-0
 62
   179
100
AcDbTrace
 10
764.0382022472
 20
1032.2285024008
 30
0.0
 11
761.4982022472
 21
1015.7185024008
 31
0.0
 12
766.5782022472
 22
1015.7185024008
 32
0.0
 13
766.5782022472
 23
1015.7185024008
 33
0.0
  0
SOLID
  5
16B
330
163
100
AcDbEntity
  8
SLD-0
 62
   179
100
AcDbTrace
 10
764.0382022472
 20
766.0634620835
 30
0.0
 11
766.5782022472
 21
782.5734620835
 31
0.0
 12
761.4982022472
 22
782.5734620835
 32
0.0
 13
761.4982022472
 23
782.5734620835
 33
0.0
  0
ENDBLK
  5
165
330
163
100
AcDbEntity
  8
0
100
AcDbBlockEnd
  0
BLOCK
  5
16E
330
16D
100
AcDbEntity
  8
0
100
AcDbBlockBegin
  2
_D_3
 70
     0
 10
0.0
 20
0.0
 30
0.0
  3
_D_3
  1

  0
LINE
  5
170
330
16D
100
AcDbEntity
  8
SLD-0
 62
   179
100
AcDbLine
 10
491.7542514018
 20
761.0634620835
 30
0.0
 11
491.7542514018
 21
711.0634620835
 31
0.0
  0
LINE
  5
171
330
16D
100
AcDbEntity
  8
SLD-0
 62
   179
100
AcDbLine
 10
626.3221530926
 20
761.0634620835
 30
0.0
 11
626.3221530926
 21
711.0634620835
 31
0.0
  0
LINE
  5
172
330
16D
100
AcDbEntity
  8
SLD-0
 62
   179
100
AcDbLine
 10
491.7542514018
 20
716.0634620835
 30
0.0
 11
626.3221530926
 21
716.0634620835
 31
0.0
  0
MTEXT
  5
173
330
16D
100
AcDbEntity
  8
SLD-0
 62
   179
100
AcDbMText
 10
531.5091531758
 20
737.3103289709
 30
0.2
 40
17.5
 41
0.0
 71
     1
 72
     1
  1
135
  7
SLDTEXTSTYLE1
 73
     1
 44
1.0
  0
SOLID
  5
174
330
16D
100
AcDbEntity
  8
SLD-0
 62
   179
100
AcDbTrace
 10
491.7542514018
 20
716.0634620835
 30
0.0
 11
508.2642514018
 21
713.5234620835
 31
0.0
 12
508.2642514018
 22
718.6034620835
 32
0.0
 13
508.2642514018
 23
718.6034620835
 33
0.0
  0
SOLID
  5
175
330
16D
100
AcDbEntity
  8
SLD-0
 62
   179
100
AcDbTrace
 10
626.3221530926
 20
716.0634620835
 30
0.0
 11
609.8121530926
 21
718.6034620835
 31
0.0
 12
609.8121530926
 22
713.5234620835
 32
0.0
 13
609.8121530926
 23
713.5234620835
 33
0.0
  0
ENDBLK
  5
16F
330
16D
100
AcDbEntity
  8
0
100
AcDbBlockEnd
  0
BLOCK
  5
178
330
177
100
AcDbEntity
  8
0
100
AcDbBlockBegin
  2
_D_4
 70
     0
 10
0.0
 20
0.0
 30
0.0
  3
_D_4
  1

  0
LINE
  5
17A
330
177
100
AcDbEntity
  8
SLD-0
 62
   179
100
AcDbLine
 10
632.0382022472
 20
1032.2285024008
 30
0.0
 11
739.0382022472
 21
1032.2285024008
 31
0.0
  0
LINE
  5
17B
330
177
100
AcDbEntity
  8
SLD-0
 62
   179
100
AcDbLine
 10
615.0382022472
 20
1062.1092696629
 30
0.0
 11
739.0382022472
 21
1062.1092696629
 31
0.0
  0
LINE
  5
17C
330
177
100
AcDbEntity
  8
SLD-0
 62
   179
100
AcDbLine
 10
734.0382022472
 20
1032.2285024008
 30
0.0
 11
734.0382022472
 21
1000.4785024008
 31
0.0
  0
LINE
  5
17D
330
177
100
AcDbEntity
  8
SLD-0
 62
   179
100
AcDbLine
 10
734.0382022472
 20
1032.2285024008
 30
0.0
 11
734.0382022472
 21
1062.1092696629
 31
0.0
  0
LINE
  5
17E
330
177
100
AcDbEntity
  8
SLD-0
 62
   179
100
AcDbLine
 10
734.0382022472
 20
1062.1092696629
 30
0.0
 11
734.0382022472
 21
1093.8592696629
 31
0.0
  0
MTEXT
  5
17F
330
177
100
AcDbEntity
  8
SLD-0
 62
   179
100
AcDbMText
 10
712.7913353598
 20
1026.9105766693
 30
0.2
 40
17.5
 41
0.0
 71
     1
 72
     1
  1
30
  7
SLDTEXTSTYLE1
 11
6.123233995736766E-17
 21
1.0
 31
0.0
 73
     1
 44
1.0
  0
SOLID
  5
180
330
177
100
AcDbEntity
  8
SLD-0
 62
   179
100
AcDbTrace
 10
734.0382022472
 20
1032.2285024008
 30
0.0
 11
731.4982022472
 21
1015.7185024008
 31
0.0
 12
736.5782022472
 22
1015.7185024008
 32
0.0
 13
736.5782022472
 23
1015.7185024008
 33
0.0
  0
SOLID
  5
181
330
177
100
AcDbEntity
  8
SLD-0
 62
   179
100
AcDbTrace
 10
734.0382022472
 20
1062.1092696629
 30
0.0
 11
736.5782022472
 21
1078.6192696629
 31
0.0
 12
731.4982022472
 22
1078.6192696629
 32
0.0
 13
731.4982022472
 23
1078.6192696629
 33
0.0
  0
ENDBLK
  5
179
330
177
100
AcDbEntity
  8
0
100
AcDbBlockEnd
  0
ENDSEC
  0
SECTION
  2
ENTITIES
  0
LINE
  5
45
330
1F
100
AcDbEntity
  8
SLD-0
  6
Continuous
 62
   179
370
    15
100
AcDbLine
 10
489.0382022472
 20
1030.2285024008
 30
0.0
 11
489.0382019492
 21
1027.1092696629
 31
0.0
  0
LINE
  5
46
330
1F
100
AcDbEntity
  8
SLD-0
  6
Continuous
 62
   179
370
    15
100
AcDbLine
 10
629.0382025452
 20
1027.1092696629
 30
0.0
 11
629.0382022472
 21
1030.2285024008
 31
0.0
  0
LINE
  5
47
330
1F
100
AcDbEntity
  8
SLD-0
  6
Continuous
 62
   179
370
    15
100
AcDbLine
 10
610.0382012935
 20
1057.0735453211
 30
0.0
 11
610.0382012935
 21
1062.1092698119
 31
0.0
  0
LINE
  5
48
330
1F
100
AcDbEntity
  8
SLD-0
  6
Continuous
 62
   179
370
    15
100
AcDbLine
 10
610.0382012935
 20
1032.2285025894
 30
0.0
 11
610.0382012935
 21
1049.144993215
 31
0.0
  0
LINE
  5
49
330
1F
100
AcDbEntity
  8
SLD-0
  6
Continuous
 62
   179
370
    15
100
AcDbLine
 10
508.0382032009
 20
1049.144993215
 30
0.0
 11
508.0382032009
 21
1032.2285025894
 31
0.0
  0
LINE
  5
4A
330
1F
100
AcDbEntity
  8
SLD-0
  6
Continuous
 62
   179
370
    15
100
AcDbLine
 10
508.0382032009
 20
1062.1092698119
 30
0.0
 11
508.0382032009
 21
1057.0735453211
 31
0.0
  0
LINE
  5
4B
330
1F
100
AcDbEntity
  8
SLD-0
  6
Continuous
 62
   179
370
    15
100
AcDbLine
 10
610.0739268275
 20
1049.1092695437
 30
0.0
 11
610.3739281805
 21
1049.1092695437
 31
0.0
  0
LINE
  5
4C
330
1F
100
AcDbEntity
  8
SLD-0
  6
Continuous
 62
   179
370
    15
100
AcDbLine
 10
610.3739281805
 20
1057.1092689924
 30
0.0
 11
610.0739268275
 21
1057.1092689924
 31
0.0
  0
LINE
  5
4D
330
1F
100
AcDbEntity
  8
SLD-0
  6
Continuous
 62
   179
370
    15
100
AcDbLine
 10
610.0739268275
 20
1057.1092689924
 30
0.0
 11
610.0382012935
 21
1057.0735453211
 31
0.0
  0
LINE
  5
4E
330
1F
100
AcDbEntity
  8
SLD-0
  6
Continuous
 62
   179
370
    15
100
AcDbLine
 10
610.0382012935
 20
1049.144993215
 30
0.0
 11
610.0739268275
 21
1049.1092695437
 31
0.0
  0
LINE
  5
4F
330
1F
100
AcDbEntity
  8
SLD-0
  6
Continuous
 62
   179
370
    15
100
AcDbLine
 10
508.0024776669
 20
1057.1092689924
 30
0.0
 11
507.7024763139
 21
1057.1092689924
 31
0.0
  0
LINE
  5
50
330
1F
100
AcDbEntity
  8
SLD-0
  6
Continuous
 62
   179
370
    15
100
AcDbLine
 10
507.7024763139
 20
1049.1092695437
 30
0.0
 11
508.0024776669
 21
1049.1092695437
 31
0.0
  0
LINE
  5
51
330
1F
100
AcDbEntity
  8
SLD-0
  6
Continuous
 62
   179
370
    15
100
AcDbLine
 10
508.0024776669
 20
1049.1092695437
 30
0.0
 11
508.0382032009
 21
1049.144993215
 31
0.0
  0
LINE
  5
52
330
1F
100
AcDbEntity
  8
SLD-0
  6
Continuous
 62
   179
370
    15
100
AcDbLine
 10
508.0382032009
 20
1057.0735453211
 30
0.0
 11
508.0024776669
 21
1057.1092689924
 31
0.0
  0
LINE
  5
53
330
1F
100
AcDbEntity
  8
SLD-0
  6
Continuous
 62
   179
370
    15
100
AcDbLine
 10
493.0802909346
 20
1022.1092697747
 30
0.0
 11
492.2142652483
 21
1022.1092697747
 31
0.0
  0
LINE
  5
54
330
1F
100
AcDbEntity
  8
SLD-0
  6
Continuous
 62
   179
370
    15
100
AcDbLine
 10
492.2142652483
 20
1012.1092699982
 30
0.0
 11
493.0802909346
 21
1012.1092699982
 31
0.0
  0
LINE
  5
55
330
1F
100
AcDbEntity
  8
SLD-0
  6
Continuous
 62
   179
370
    15
100
AcDbLine
 10
624.9961135598
 20
1012.1092699982
 30
0.0
 11
625.862139246
 21
1012.1092699982
 31
0.0
  0
LINE
  5
56
330
1F
100
AcDbEntity
  8
SLD-0
  6
Continuous
 62
   179
370
    15
100
AcDbLine
 10
625.862139246
 20
1022.1092697747
 30
0.0
 11
624.9961135598
 21
1022.1092697747
 31
0.0
  0
LINE
  5
57
330
1F
100
AcDbEntity
  8
SLD-0
  6
Continuous
 62
   179
370
    15
100
AcDbLine
 10
631.7078051777
 20
1014.6597797565
 30
0.0
 11
631.8521452756
 21
1014.8639042444
 31
0.0
  0
LINE
  5
58
330
1F
100
AcDbEntity
  8
SLD-0
  6
Continuous
 62
   179
370
    15
100
AcDbLine
 10
631.8521452756
 20
1019.3546350628
 30
0.0
 11
631.7078051777
 21
1019.5587595507
 31
0.0
  0
LINE
  5
59
330
1F
100
AcDbEntity
  8
SLD-0
  6
Continuous
 62
   179
370
    15
100
AcDbLine
 10
630.8417794915
 20
1020.1092694469
 30
0.0
 11
625.862139246
 21
1020.1092694469
 31
0.0
  0
LINE
  5
5A
330
1F
100
AcDbEntity
  8
SLD-0
  6
Continuous
 62
   179
370
    15
100
AcDbLine
 10
625.862139246
 20
1014.1092693947
 30
0.0
 11
630.8417794915
 21
1014.1092693947
 31
0.0
  0
LINE
  5
5B
330
1F
100
AcDbEntity
  8
SLD-0
  6
Continuous
 62
   179
370
    15
100
AcDbLine
 10
486.3685993166
 20
1019.5587595507
 30
0.0
 11
486.2242592187
 21
1019.3546350628
 31
0.0
  0
LINE
  5
5C
330
1F
100
AcDbEntity
  8
SLD-0
  6
Continuous
 62
   179
370
    15
100
AcDbLine
 10
486.2242592187
 20
1014.8639042444
 30
0.0
 11
486.3685993166
 21
1014.6597797565
 31
0.0
  0
LINE
  5
5D
330
1F
100
AcDbEntity
  8
SLD-0
  6
Continuous
 62
   179
370
    15
100
AcDbLine
 10
487.2346250029
 20
1014.1092693947
 30
0.0
 11
492.2142652483
 21
1014.1092693947
 31
0.0
  0
LINE
  5
5E
330
1F
100
AcDbEntity
  8
SLD-0
  6
Continuous
 62
   179
370
    15
100
AcDbLine
 10
492.2142652483
 20
1020.1092694469
 30
0.0
 11
487.2346250029
 21
1020.1092694469
 31
0.0
  0
LINE
  5
5F
330
1F
100
AcDbEntity
  8
SLD-0
  6
Continuous
 62
   179
370
    15
100
AcDbLine
 10
635.0381998034
 20
1026.1092696154
 30
0.0
 11
634.0382052274
 21
1027.1092696629
 31
0.0
  0
LINE
  5
60
330
1F
100
AcDbEntity
  8
SLD-0
  6
Continuous
 62
   179
370
    15
100
AcDbLine
 10
484.038199267
 20
1027.1092696629
 30
0.0
 11
483.038204691
 21
1026.1092696154
 31
0.0
  0
LINE
  5
61
330
1F
100
AcDbEntity
  8
SLD-0
  6
Continuous
 62
   179
370
    15
100
AcDbLine
 10
483.038204691
 20
1026.1092696154
 30
0.0
 11
483.0382022472
 21
1011.1092696629
 31
0.0
  0
LINE
  5
62
330
1F
100
AcDbEntity
  8
SLD-0
  6
Continuous
 62
   179
370
    15
100
AcDbLine
 10
635.0382022472
 20
1011.1092696629
 30
0.0
 11
635.0381998034
 21
1026.1092696154
 31
0.0
  0
LINE
  5
63
330
1F
100
AcDbEntity
  8
SLD-0
  6
Continuous
 62
   179
370
    15
100
AcDbLine
 10
552.0051144684
 20
807.109270855
 30
0.0
 11
552.0051144684
 21
766.0634561024
 31
0.0
  0
LINE
  5
64
330
1F
100
AcDbEntity
  8
SLD-0
  6
Continuous
 62
   179
370
    15
100
AcDbLine
 10
546.7214937942
 20
766.0634561024
 30
0.0
 11
552.0051144684
 21
766.0634561024
 31
0.0
  0
LINE
  5
65
330
1F
100
AcDbEntity
  8
SLD-0
  6
Continuous
 62
   179
370
    15
100
AcDbLine
 10
546.7214937942
 20
807.109270855
 30
0.0
 11
546.7214937942
 21
766.0634561024
 31
0.0
  0
LINE
  5
66
330
1F
100
AcDbEntity
  8
SLD-0
  6
Continuous
 62
   179
370
    15
100
AcDbLine
 10
571.3549107002
 20
807.109270855
 30
0.0
 11
571.3549107002
 21
766.0634561024
 31
0.0
  0
LINE
  5
67
330
1F
100
AcDbEntity
  8
SLD-0
  6
Continuous
 62
   179
370
    15
100
AcDbLine
 10
566.071290026
 20
766.0634561024
 30
0.0
 11
571.3549107002
 21
766.0634561024
 31
0.0
  0
LINE
  5
68
330
1F
100
AcDbEntity
  8
SLD-0
  6
Continuous
 62
   179
370
    15
100
AcDbLine
 10
566.071290026
 20
807.109270855
 30
0.0
 11
566.071290026
 21
766.0634561024
 31
0.0
  0
LINE
  5
69
330
1F
100
AcDbEntity
  8
SLD-0
  6
Continuous
 62
   179
370
    15
100
AcDbLine
 10
559.0382022472
 20
807.109270855
 30
0.0
 11
559.0382022472
 21
766.0634561024
 31
0.0
  0
LINE
  5
6A
330
1F
100
AcDbEntity
  8
SLD-0
  6
Continuous
 62
   179
370
    15
100
AcDbLine
 10
552.0051144684
 20
766.0634561024
 30
0.0
 11
559.0382022472
 21
766.0634561024
 31
0.0
  0
LINE
  5
6B
330
1F
100
AcDbEntity
  8
SLD-0
  6
Continuous
 62
   179
370
    15
100
AcDbLine
 10
559.0382022472
 20
766.0634561024
 30
0.0
 11
566.071290026
 21
766.0634561024
 31
0.0
  0
LINE
  5
6C
330
1F
100
AcDbEntity
  8
SLD-0
  6
Continuous
 62
   179
370
    15
100
AcDbLine
 10
538.2463177355
 20
807.109270855
 30
0.0
 11
538.2463177355
 21
766.0634561024
 31
0.0
  0
LINE
  5
6D
330
1F
100
AcDbEntity
  8
SLD-0
  6
Continuous
 62
   179
370
    15
100
AcDbLine
 10
534.943086064
 20
807.109270855
 30
0.0
 11
534.943086064
 21
766.0634561024
 31
0.0
  0
LINE
  5
6E
330
1F
100
AcDbEntity
  8
SLD-0
  6
Continuous
 62
   179
370
    15
100
AcDbLine
 10
534.943086064
 20
766.0634561024
 30
0.0
 11
538.2463177355
 21
766.0634561024
 31
0.0
  0
LINE
  5
6F
330
1F
100
AcDbEntity
  8
SLD-0
  6
Continuous
 62
   179
370
    15
100
AcDbLine
 10
538.2463177355
 20
766.0634561024
 30
0.0
 11
546.7214937942
 21
766.0634561024
 31
0.0
  0
LINE
  5
70
330
1F
100
AcDbEntity
  8
SLD-0
  6
Continuous
 62
   179
370
    15
100
AcDbLine
 10
579.8300867589
 20
807.109270855
 30
0.0
 11
579.8300867589
 21
766.0634561024
 31
0.0
  0
LINE
  5
71
330
1F
100
AcDbEntity
  8
SLD-0
  6
Continuous
 62
   179
370
    15
100
AcDbLine
 10
571.3549107002
 20
766.0634561024
 30
0.0
 11
579.8300867589
 21
766.0634561024
 31
0.0
  0
LINE
  5
72
330
1F
100
AcDbEntity
  8
SLD-0
  6
Continuous
 62
   179
370
    15
100
AcDbLine
 10
583.1333184304
 20
807.109270855
 30
0.0
 11
583.1333184304
 21
766.0634561024
 31
0.0
  0
LINE
  5
73
330
1F
100
AcDbEntity
  8
SLD-0
  6
Continuous
 62
   179
370
    15
100
AcDbLine
 10
579.8300867589
 20
766.0634561024
 30
0.0
 11
583.1333184304
 21
766.0634561024
 31
0.0
  0
LINE
  5
74
330
1F
100
AcDbEntity
  8
SLD-0
  6
Continuous
 62
   179
370
    15
100
AcDbLine
 10
525.3962268742
 20
807.109270855
 30
0.0
 11
525.3962268742
 21
766.0634561024
 31
0.0
  0
LINE
  5
75
330
1F
100
AcDbEntity
  8
SLD-0
  6
Continuous
 62
   179
370
    15
100
AcDbLine
 10
524.2177499147
 20
807.109270855
 30
0.0
 11
524.2177499147
 21
766.0634561024
 31
0.0
  0
LINE
  5
76
330
1F
100
AcDbEntity
  8
SLD-0
  6
Continuous
 62
   179
370
    15
100
AcDbLine
 10
524.2177499147
 20
766.0634561024
 30
0.0
 11
525.3962268742
 21
766.0634561024
 31
0.0
  0
LINE
  5
77
330
1F
100
AcDbEntity
  8
SLD-0
  6
Continuous
 62
   179
370
    15
100
AcDbLine
 10
525.3962268742
 20
766.0634561024
 30
0.0
 11
534.943086064
 21
766.0634561024
 31
0.0
  0
LINE
  5
78
330
1F
100
AcDbEntity
  8
SLD-0
  6
Continuous
 62
   179
370
    15
100
AcDbLine
 10
593.8586545797
 20
807.109270855
 30
0.0
 11
593.8586545797
 21
766.0634561024
 31
0.0
  0
LINE
  5
79
330
1F
100
AcDbEntity
  8
SLD-0
  6
Continuous
 62
   179
370
    15
100
AcDbLine
 10
592.6801776202
 20
807.109270855
 30
0.0
 11
592.6801776202
 21
766.0634561024
 31
0.0
  0
LINE
  5
7A
330
1F
100
AcDbEntity
  8
SLD-0
  6
Continuous
 62
   179
370
    15
100
AcDbLine
 10
592.6801776202
 20
766.0634561024
 30
0.0
 11
593.8586545797
 21
766.0634561024
 31
0.0
  0
LINE
  5
7B
330
1F
100
AcDbEntity
  8
SLD-0
  6
Continuous
 62
   179
370
    15
100
AcDbLine
 10
583.1333184304
 20
766.0634561024
 30
0.0
 11
592.6801776202
 21
766.0634561024
 31
0.0
  0
LINE
  5
7C
330
1F
100
AcDbEntity
  8
SLD-0
  6
Continuous
 62
   179
370
    15
100
AcDbLine
 10
514.0164522143
 20
807.109270855
 30
0.0
 11
514.0164522143
 21
766.0634561024
 31
0.0
  0
LINE
  5
7D
330
1F
100
AcDbEntity
  8
SLD-0
  6
Continuous
 62
   179
370
    15
100
AcDbLine
 10
514.0164522143
 20
766.0634561024
 30
0.0
 11
524.2177499147
 21
766.0634561024
 31
0.0
  0
LINE
  5
7E
330
1F
100
AcDbEntity
  8
SLD-0
  6
Continuous
 62
   179
370
    15
100
AcDbLine
 10
604.0599522801
 20
807.109270855
 30
0.0
 11
604.0599522801
 21
766.0634561024
 31
0.0
  0
LINE
  5
7F
330
1F
100
AcDbEntity
  8
SLD-0
  6
Continuous
 62
   179
370
    15
100
AcDbLine
 10
593.8586545797
 20
766.0634561024
 30
0.0
 11
604.0599522801
 21
766.0634561024
 31
0.0
  0
LINE
  5
80
330
1F
100
AcDbEntity
  8
SLD-0
  6
Continuous
 62
   179
370
    15
100
AcDbLine
 10
504.6043423625
 20
807.109270855
 30
0.0
 11
504.6043423625
 21
766.0634561024
 31
0.0
  0
LINE
  5
81
330
1F
100
AcDbEntity
  8
SLD-0
  6
Continuous
 62
   179
370
    15
100
AcDbLine
 10
504.6043423625
 20
766.0634561024
 30
0.0
 11
514.0164522143
 21
766.0634561024
 31
0.0
  0
LINE
  5
82
330
1F
100
AcDbEntity
  8
SLD-0
  6
Continuous
 62
   179
370
    15
100
AcDbLine
 10
613.4720621319
 20
807.109270855
 30
0.0
 11
613.4720621319
 21
766.0634561024
 31
0.0
  0
LINE
  5
83
330
1F
100
AcDbEntity
  8
SLD-0
  6
Continuous
 62
   179
370
    15
100
AcDbLine
 10
604.0599522801
 20
766.0634561024
 30
0.0
 11
613.4720621319
 21
766.0634561024
 31
0.0
  0
LINE
  5
84
330
1F
100
AcDbEntity
  8
SLD-0
  6
Continuous
 62
   179
370
    15
100
AcDbLine
 10
497.5712550493
 20
807.109270855
 30
0.0
 11
497.5712550493
 21
766.0634561024
 31
0.0
  0
LINE
  5
85
330
1F
100
AcDbEntity
  8
SLD-0
  6
Continuous
 62
   179
370
    15
100
AcDbLine
 10
497.5712550493
 20
766.0634561024
 30
0.0
 11
504.6043423625
 21
766.0634561024
 31
0.0
  0
LINE
  5
86
330
1F
100
AcDbEntity
  8
SLD-0
  6
Continuous
 62
   179
370
    15
100
AcDbLine
 10
620.5051494451
 20
807.109270855
 30
0.0
 11
620.5051494451
 21
766.0634561024
 31
0.0
  0
LINE
  5
87
330
1F
100
AcDbEntity
  8
SLD-0
  6
Continuous
 62
   179
370
    15
100
AcDbLine
 10
613.4720621319
 20
766.0634561024
 30
0.0
 11
620.5051494451
 21
766.0634561024
 31
0.0
  0
LINE
  5
88
330
1F
100
AcDbEntity
  8
SLD-0
  6
Continuous
 62
   179
370
    15
100
AcDbLine
 10
493.2245639773
 20
807.109270855
 30
0.0
 11
493.2245639773
 21
766.0634561024
 31
0.0
  0
LINE
  5
89
330
1F
100
AcDbEntity
  8
SLD-0
  6
Continuous
 62
   179
370
    15
100
AcDbLine
 10
493.2245639773
 20
766.0634561024
 30
0.0
 11
497.5712550493
 21
766.0634561024
 31
0.0
  0
LINE
  5
8A
330
1F
100
AcDbEntity
  8
SLD-0
  6
Continuous
 62
   179
370
    15
100
AcDbLine
 10
624.8518405171
 20
807.109270855
 30
0.0
 11
624.8518405171
 21
766.0634561024
 31
0.0
  0
LINE
  5
8B
330
1F
100
AcDbEntity
  8
SLD-0
  6
Continuous
 62
   179
370
    15
100
AcDbLine
 10
620.5051494451
 20
766.0634561024
 30
0.0
 11
624.8518405171
 21
766.0634561024
 31
0.0
  0
LINE
  5
8C
330
1F
100
AcDbEntity
  8
SLD-0
  6
Continuous
 62
   179
370
    15
100
AcDbLine
 10
491.7542515011
 20
807.109270855
 30
0.0
 11
491.7542515011
 21
766.0634561024
 31
0.0
  0
LINE
  5
8D
330
1F
100
AcDbEntity
  8
SLD-0
  6
Continuous
 62
   179
370
    15
100
AcDbLine
 10
491.7542515011
 20
766.0634561024
 30
0.0
 11
493.2245639773
 21
766.0634561024
 31
0.0
  0
LINE
  5
8E
330
1F
100
AcDbEntity
  8
SLD-0
  6
Continuous
 62
   179
370
    15
100
AcDbLine
 10
626.3221529933
 20
807.109270855
 30
0.0
 11
626.3221529933
 21
766.0634561024
 31
0.0
  0
LINE
  5
8F
330
1F
100
AcDbEntity
  8
SLD-0
  6
Continuous
 62
   179
370
    15
100
AcDbLine
 10
624.8518405171
 20
766.0634561024
 30
0.0
 11
626.3221529933
 21
766.0634561024
 31
0.0
  0
LINE
  5
90
330
1F
100
AcDbEntity
  8
SLD-0
  6
Continuous
 62
   179
370
    15
100
AcDbLine
 10
499.9755872102
 20
1032.2285025894
 30
0.0
 11
627.0382022472
 21
1032.2285025894
 31
0.0
  0
LINE
  5
91
330
1F
100
AcDbEntity
  8
SLD-0
  6
Continuous
 62
   179
370
    15
100
AcDbLine
 10
491.0382022472
 20
1032.2285024008
 30
0.0
 11
499.9755872102
 21
1032.2285025894
 31
0.0
  0
LINE
  5
92
330
1F
100
AcDbEntity
  8
SLD-0
  6
Continuous
 62
   179
370
    15
100
AcDbLine
 10
610.0382012935
 20
1062.1092698119
 30
0.0
 11
508.0382032009
 21
1062.1092698119
 31
0.0
  0
LINE
  5
93
330
1F
100
AcDbEntity
  8
SLD-0
  6
Continuous
 62
   179
370
    15
100
AcDbLine
 10
610.0739268275
 20
1057.1092689924
 30
0.0
 11
610.0739268275
 21
1049.1092695437
 31
0.0
  0
LINE
  5
94
330
1F
100
AcDbEntity
  8
SLD-0
  6
Continuous
 62
   179
370
    15
100
AcDbLine
 10
610.3739281805
 20
1057.1092689924
 30
0.0
 11
610.3739281805
 21
1049.1092695437
 31
0.0
  0
LINE
  5
95
330
1F
100
AcDbEntity
  8
SLD-0
  6
Continuous
 62
   179
370
    15
100
AcDbLine
 10
508.0024776669
 20
1050.5484572194
 30
0.0
 11
508.0024776669
 21
1057.1092689924
 31
0.0
  0
LINE
  5
96
330
1F
100
AcDbEntity
  8
SLD-0
  6
Continuous
 62
   179
370
    15
100
AcDbLine
 10
508.0024776669
 20
1049.1092695437
 30
0.0
 11
508.0024776669
 21
1050.5484572194
 31
0.0
  0
LINE
  5
97
330
1F
100
AcDbEntity
  8
SLD-0
  6
Continuous
 62
   179
370
    15
100
AcDbLine
 10
507.7024763139
 20
1050.5484572194
 30
0.0
 11
507.7024763139
 21
1057.1092689924
 31
0.0
  0
LINE
  5
98
330
1F
100
AcDbEntity
  8
SLD-0
  6
Continuous
 62
   179
370
    15
100
AcDbLine
 10
507.7024763139
 20
1049.1092695437
 30
0.0
 11
507.7024763139
 21
1050.5484572194
 31
0.0
  0
LINE
  5
99
330
1F
100
AcDbEntity
  8
SLD-0
  6
Continuous
 62
   179
370
    15
100
AcDbLine
 10
494.7142703147
 20
1017.1092698864
 30
0.0
 11
494.6290803762
 21
1018.4033649556
 31
0.0
  0
LINE
  5
9A
330
1F
100
AcDbEntity
  8
SLD-0
  6
Continuous
 62
   179
370
    15
100
AcDbLine
 10
494.6290803762
 20
1018.4033649556
 30
0.0
 11
494.379329464
 21
1019.6092698306
 31
0.0
  0
LINE
  5
9B
330
1F
100
AcDbEntity
  8
SLD-0
  6
Continuous
 62
   179
370
    15
100
AcDbLine
 10
494.379329464
 20
1019.6092698306
 30
0.0
 11
493.9820347043
 21
1020.644803676
 31
0.0
  0
LINE
  5
9C
330
1F
100
AcDbEntity
  8
SLD-0
  6
Continuous
 62
   179
370
    15
100
AcDbLine
 10
493.9820347043
 20
1020.644803676
 30
0.0
 11
493.4642715068
 21
1021.4393964551
 31
0.0
  0
LINE
  5
9D
330
1F
100
AcDbEntity
  8
SLD-0
  6
Continuous
 62
   179
370
    15
100
AcDbLine
 10
493.4642715068
 20
1021.4393964551
 30
0.0
 11
492.8613183709
 21
1021.9388987452
 31
0.0
  0
LINE
  5
9E
330
1F
100
AcDbEntity
  8
SLD-0
  6
Continuous
 62
   179
370
    15
100
AcDbLine
 10
492.8613183709
 20
1021.9388987452
 30
0.0
 11
492.2142652483
 21
1022.1092697747
 31
0.0
  0
LINE
  5
9F
330
1F
100
AcDbEntity
  8
SLD-0
  6
Continuous
 62
   179
370
    15
100
AcDbLine
 10
492.2142652483
 20
1022.1092697747
 30
0.0
 11
491.5672195764
 21
1021.9388987452
 31
0.0
  0
LINE
  5
A0
330
1F
100
AcDbEntity
  8
SLD-0
  6
Continuous
 62
   179
370
    15
100
AcDbLine
 10
491.5672195764
 20
1021.9388987452
 30
0.0
 11
490.9642664404
 21
1021.4393964551
 31
0.0
  0
LINE
  5
A1
330
1F
100
AcDbEntity
  8
SLD-0
  6
Continuous
 62
   179
370
    15
100
AcDbLine
 10
490.9642664404
 20
1021.4393964551
 30
0.0
 11
490.446503243
 21
1020.644803676
 31
0.0
  0
LINE
  5
A2
330
1F
100
AcDbEntity
  8
SLD-0
  6
Continuous
 62
   179
370
    15
100
AcDbLine
 10
490.446503243
 20
1020.644803676
 30
0.0
 11
490.2142686458
 21
1020.1092694469
 31
0.0
  0
LINE
  5
A3
330
1F
100
AcDbEntity
  8
SLD-0
  6
Continuous
 62
   179
370
    15
100
AcDbLine
 10
490.2142686458
 20
1014.1092693947
 30
0.0
 11
490.446503243
 21
1013.5737356312
 31
0.0
  0
LINE
  5
A4
330
1F
100
AcDbEntity
  8
SLD-0
  6
Continuous
 62
   179
370
    15
100
AcDbLine
 10
490.446503243
 20
1013.5737356312
 30
0.0
 11
490.9642664404
 21
1012.7791423864
 31
0.0
  0
LINE
  5
A5
330
1F
100
AcDbEntity
  8
SLD-0
  6
Continuous
 62
   179
370
    15
100
AcDbLine
 10
490.9642664404
 20
1012.7791423864
 30
0.0
 11
491.5672195764
 21
1012.2796405621
 31
0.0
  0
LINE
  5
A6
330
1F
100
AcDbEntity
  8
SLD-0
  6
Continuous
 62
   179
370
    15
100
AcDbLine
 10
491.5672195764
 20
1012.2796405621
 30
0.0
 11
492.2142652483
 21
1012.1092699982
 31
0.0
  0
LINE
  5
A7
330
1F
100
AcDbEntity
  8
SLD-0
  6
Continuous
 62
   179
370
    15
100
AcDbLine
 10
492.2142652483
 20
1012.1092699982
 30
0.0
 11
492.8613183709
 21
1012.2796405621
 31
0.0
  0
LINE
  5
A8
330
1F
100
AcDbEntity
  8
SLD-0
  6
Continuous
 62
   179
370
    15
100
AcDbLine
 10
492.8613183709
 20
1012.2796405621
 30
0.0
 11
493.4642715068
 21
1012.7791423864
 31
0.0
  0
LINE
  5
A9
330
1F
100
AcDbEntity
  8
SLD-0
  6
Continuous
 62
   179
370
    15
100
AcDbLine
 10
493.4642715068
 20
1012.7791423864
 30
0.0
 11
493.9820347043
 21
1013.5737356312
 31
0.0
  0
LINE
  5
AA
330
1F
100
AcDbEntity
  8
SLD-0
  6
Continuous
 62
   179
370
    15
100
AcDbLine
 10
493.9820347043
 20
1013.5737356312
 30
0.0
 11
494.379329464
 21
1014.6092694767
 31
0.0
  0
LINE
  5
AB
330
1F
100
AcDbEntity
  8
SLD-0
  6
Continuous
 62
   179
370
    15
100
AcDbLine
 10
494.379329464
 20
1014.6092694767
 30
0.0
 11
494.6290803762
 21
1015.8151748173
 31
0.0
  0
LINE
  5
AC
330
1F
100
AcDbEntity
  8
SLD-0
  6
Continuous
 62
   179
370
    15
100
AcDbLine
 10
494.6290803762
 20
1015.8151748173
 30
0.0
 11
494.7142703147
 21
1017.1092698864
 31
0.0
  0
LINE
  5
AD
330
1F
100
AcDbEntity
  8
SLD-0
  6
Continuous
 62
   179
370
    15
100
AcDbLine
 10
495.580296001
 20
1017.1092698864
 30
0.0
 11
495.4951060625
 21
1018.4033649556
 31
0.0
  0
LINE
  5
AE
330
1F
100
AcDbEntity
  8
SLD-0
  6
Continuous
 62
   179
370
    15
100
AcDbLine
 10
495.4951060625
 20
1018.4033649556
 30
0.0
 11
495.2453551503
 21
1019.6092698306
 31
0.0
  0
LINE
  5
AF
330
1F
100
AcDbEntity
  8
SLD-0
  6
Continuous
 62
   179
370
    15
100
AcDbLine
 10
495.2453551503
 20
1019.6092698306
 30
0.0
 11
494.8480603905
 21
1020.644803676
 31
0.0
  0
LINE
  5
B0
330
1F
100
AcDbEntity
  8
SLD-0
  6
Continuous
 62
   179
370
    15
100
AcDbLine
 10
494.8480603905
 20
1020.644803676
 30
0.0
 11
494.3302971931
 21
1021.4393964551
 31
0.0
  0
LINE
  5
B1
330
1F
100
AcDbEntity
  8
SLD-0
  6
Continuous
 62
   179
370
    15
100
AcDbLine
 10
494.3302971931
 20
1021.4393964551
 30
0.0
 11
493.7273440571
 21
1021.9388987452
 31
0.0
  0
LINE
  5
B2
330
1F
100
AcDbEntity
  8
SLD-0
  6
Continuous
 62
   179
370
    15
100
AcDbLine
 10
493.7273440571
 20
1021.9388987452
 30
0.0
 11
493.0802909346
 21
1022.1092697747
 31
0.0
  0
LINE
  5
B3
330
1F
100
AcDbEntity
  8
SLD-0
  6
Continuous
 62
   179
370
    15
100
AcDbLine
 10
493.0802909346
 20
1012.1092699982
 30
0.0
 11
493.7273440571
 21
1012.2796405621
 31
0.0
  0
LINE
  5
B4
330
1F
100
AcDbEntity
  8
SLD-0
  6
Continuous
 62
   179
370
    15
100
AcDbLine
 10
493.7273440571
 20
1012.2796405621
 30
0.0
 11
494.3302971931
 21
1012.7791423864
 31
0.0
  0
LINE
  5
B5
330
1F
100
AcDbEntity
  8
SLD-0
  6
Continuous
 62
   179
370
    15
100
AcDbLine
 10
494.3302971931
 20
1012.7791423864
 30
0.0
 11
494.8480603905
 21
1013.5737356312
 31
0.0
  0
LINE
  5
B6
330
1F
100
AcDbEntity
  8
SLD-0
  6
Continuous
 62
   179
370
    15
100
AcDbLine
 10
494.8480603905
 20
1013.5737356312
 30
0.0
 11
495.2453551503
 21
1014.6092694767
 31
0.0
  0
LINE
  5
B7
330
1F
100
AcDbEntity
  8
SLD-0
  6
Continuous
 62
   179
370
    15
100
AcDbLine
 10
495.2453551503
 20
1014.6092694767
 30
0.0
 11
495.4951060625
 21
1015.8151748173
 31
0.0
  0
LINE
  5
B8
330
1F
100
AcDbEntity
  8
SLD-0
  6
Continuous
 62
   179
370
    15
100
AcDbLine
 10
495.4951060625
 20
1015.8151748173
 30
0.0
 11
495.580296001
 21
1017.1092698864
 31
0.0
  0
LINE
  5
B9
330
1F
100
AcDbEntity
  8
SLD-0
  6
Continuous
 62
   179
370
    15
100
AcDbLine
 10
627.8621358486
 20
1020.1092694469
 30
0.0
 11
627.6299012514
 21
1020.644803676
 31
0.0
  0
LINE
  5
BA
330
1F
100
AcDbEntity
  8
SLD-0
  6
Continuous
 62
   179
370
    15
100
AcDbLine
 10
627.6299012514
 20
1020.644803676
 30
0.0
 11
627.1121380539
 21
1021.4393964551
 31
0.0
  0
LINE
  5
BB
330
1F
100
AcDbEntity
  8
SLD-0
  6
Continuous
 62
   179
370
    15
100
AcDbLine
 10
627.1121380539
 20
1021.4393964551
 30
0.0
 11
626.509184918
 21
1021.9388987452
 31
0.0
  0
LINE
  5
BC
330
1F
100
AcDbEntity
  8
SLD-0
  6
Continuous
 62
   179
370
    15
100
AcDbLine
 10
626.509184918
 20
1021.9388987452
 30
0.0
 11
625.862139246
 21
1022.1092697747
 31
0.0
  0
LINE
  5
BD
330
1F
100
AcDbEntity
  8
SLD-0
  6
Continuous
 62
   179
370
    15
100
AcDbLine
 10
625.862139246
 20
1022.1092697747
 30
0.0
 11
625.2150861235
 21
1021.9388987452
 31
0.0
  0
LINE
  5
BE
330
1F
100
AcDbEntity
  8
SLD-0
  6
Continuous
 62
   179
370
    15
100
AcDbLine
 10
625.2150861235
 20
1021.9388987452
 30
0.0
 11
624.6121329875
 21
1021.4393964551
 31
0.0
  0
LINE
  5
BF
330
1F
100
AcDbEntity
  8
SLD-0
  6
Continuous
 62
   179
370
    15
100
AcDbLine
 10
624.6121329875
 20
1021.4393964551
 30
0.0
 11
624.0943697901
 21
1020.644803676
 31
0.0
  0
LINE
  5
C0
330
1F
100
AcDbEntity
  8
SLD-0
  6
Continuous
 62
   179
370
    15
100
AcDbLine
 10
624.0943697901
 20
1020.644803676
 30
0.0
 11
623.6970750304
 21
1019.6092698306
 31
0.0
  0
LINE
  5
C1
330
1F
100
AcDbEntity
  8
SLD-0
  6
Continuous
 62
   179
370
    15
100
AcDbLine
 10
623.6970750304
 20
1019.6092698306
 30
0.0
 11
623.4473241182
 21
1018.4033649556
 31
0.0
  0
LINE
  5
C2
330
1F
100
AcDbEntity
  8
SLD-0
  6
Continuous
 62
   179
370
    15
100
AcDbLine
 10
623.4473241182
 20
1018.4033649556
 30
0.0
 11
623.3621341796
 21
1017.1092698864
 31
0.0
  0
LINE
  5
C3
330
1F
100
AcDbEntity
  8
SLD-0
  6
Continuous
 62
   179
370
    15
100
AcDbLine
 10
623.3621341796
 20
1017.1092698864
 30
0.0
 11
623.4473241182
 21
1015.8151748173
 31
0.0
  0
LINE
  5
C4
330
1F
100
AcDbEntity
  8
SLD-0
  6
Continuous
 62
   179
370
    15
100
AcDbLine
 10
623.4473241182
 20
1015.8151748173
 30
0.0
 11
623.6970750304
 21
1014.6092694767
 31
0.0
  0
LINE
  5
C5
330
1F
100
AcDbEntity
  8
SLD-0
  6
Continuous
 62
   179
370
    15
100
AcDbLine
 10
623.6970750304
 20
1014.6092694767
 30
0.0
 11
624.0943697901
 21
1013.5737356312
 31
0.0
  0
LINE
  5
C6
330
1F
100
AcDbEntity
  8
SLD-0
  6
Continuous
 62
   179
370
    15
100
AcDbLine
 10
624.0943697901
 20
1013.5737356312
 30
0.0
 11
624.6121329875
 21
1012.7791423864
 31
0.0
  0
LINE
  5
C7
330
1F
100
AcDbEntity
  8
SLD-0
  6
Continuous
 62
   179
370
    15
100
AcDbLine
 10
624.6121329875
 20
1012.7791423864
 30
0.0
 11
625.2150861235
 21
1012.2796405621
 31
0.0
  0
LINE
  5
C8
330
1F
100
AcDbEntity
  8
SLD-0
  6
Continuous
 62
   179
370
    15
100
AcDbLine
 10
625.2150861235
 20
1012.2796405621
 30
0.0
 11
625.862139246
 21
1012.1092699982
 31
0.0
  0
LINE
  5
C9
330
1F
100
AcDbEntity
  8
SLD-0
  6
Continuous
 62
   179
370
    15
100
AcDbLine
 10
625.862139246
 20
1012.1092699982
 30
0.0
 11
626.509184918
 21
1012.2796405621
 31
0.0
  0
LINE
  5
CA
330
1F
100
AcDbEntity
  8
SLD-0
  6
Continuous
 62
   179
370
    15
100
AcDbLine
 10
626.509184918
 20
1012.2796405621
 30
0.0
 11
627.1121380539
 21
1012.7791423864
 31
0.0
  0
LINE
  5
CB
330
1F
100
AcDbEntity
  8
SLD-0
  6
Continuous
 62
   179
370
    15
100
AcDbLine
 10
627.1121380539
 20
1012.7791423864
 30
0.0
 11
627.6299012514
 21
1013.5737356312
 31
0.0
  0
LINE
  5
CC
330
1F
100
AcDbEntity
  8
SLD-0
  6
Continuous
 62
   179
370
    15
100
AcDbLine
 10
627.6299012514
 20
1013.5737356312
 30
0.0
 11
627.8621358486
 21
1014.1092693947
 31
0.0
  0
LINE
  5
CD
330
1F
100
AcDbEntity
  8
SLD-0
  6
Continuous
 62
   179
370
    15
100
AcDbLine
 10
624.9961135598
 20
1022.1092697747
 30
0.0
 11
624.3490604373
 21
1021.9388987452
 31
0.0
  0
LINE
  5
CE
330
1F
100
AcDbEntity
  8
SLD-0
  6
Continuous
 62
   179
370
    15
100
AcDbLine
 10
624.3490604373
 20
1021.9388987452
 30
0.0
 11
623.7461073013
 21
1021.4393964551
 31
0.0
  0
LINE
  5
CF
330
1F
100
AcDbEntity
  8
SLD-0
  6
Continuous
 62
   179
370
    15
100
AcDbLine
 10
623.7461073013
 20
1021.4393964551
 30
0.0
 11
623.2283441039
 21
1020.644803676
 31
0.0
  0
LINE
  5
D0
330
1F
100
AcDbEntity
  8
SLD-0
  6
Continuous
 62
   179
370
    15
100
AcDbLine
 10
623.2283441039
 20
1020.644803676
 30
0.0
 11
622.8310493441
 21
1019.6092698306
 31
0.0
  0
LINE
  5
D1
330
1F
100
AcDbEntity
  8
SLD-0
  6
Continuous
 62
   179
370
    15
100
AcDbLine
 10
622.8310493441
 20
1019.6092698306
 30
0.0
 11
622.5812984319
 21
1018.4033649556
 31
0.0
  0
LINE
  5
D2
330
1F
100
AcDbEntity
  8
SLD-0
  6
Continuous
 62
   179
370
    15
100
AcDbLine
 10
622.5812984319
 20
1018.4033649556
 30
0.0
 11
622.4961084934
 21
1017.1092698864
 31
0.0
  0
LINE
  5
D3
330
1F
100
AcDbEntity
  8
SLD-0
  6
Continuous
 62
   179
370
    15
100
AcDbLine
 10
622.4961084934
 20
1017.1092698864
 30
0.0
 11
622.5812984319
 21
1015.8151748173
 31
0.0
  0
LINE
  5
D4
330
1F
100
AcDbEntity
  8
SLD-0
  6
Continuous
 62
   179
370
    15
100
AcDbLine
 10
622.5812984319
 20
1015.8151748173
 30
0.0
 11
622.8310493441
 21
1014.6092694767
 31
0.0
  0
LINE
  5
D5
330
1F
100
AcDbEntity
  8
SLD-0
  6
Continuous
 62
   179
370
    15
100
AcDbLine
 10
622.8310493441
 20
1014.6092694767
 30
0.0
 11
623.2283441039
 21
1013.5737356312
 31
0.0
  0
LINE
  5
D6
330
1F
100
AcDbEntity
  8
SLD-0
  6
Continuous
 62
   179
370
    15
100
AcDbLine
 10
623.2283441039
 20
1013.5737356312
 30
0.0
 11
623.7461073013
 21
1012.7791423864
 31
0.0
  0
LINE
  5
D7
330
1F
100
AcDbEntity
  8
SLD-0
  6
Continuous
 62
   179
370
    15
100
AcDbLine
 10
623.7461073013
 20
1012.7791423864
 30
0.0
 11
624.3490604373
 21
1012.2796405621
 31
0.0
  0
LINE
  5
D8
330
1F
100
AcDbEntity
  8
SLD-0
  6
Continuous
 62
   179
370
    15
100
AcDbLine
 10
624.3490604373
 20
1012.2796405621
 30
0.0
 11
624.9961135598
 21
1012.1092699982
 31
0.0
  0
LINE
  5
D9
330
1F
100
AcDbEntity
  8
SLD-0
  6
Continuous
 62
   179
370
    15
100
AcDbLine
 10
630.7382238718
 20
1019.7837279692
 30
0.0
 11
630.3001669856
 21
1019.40349923
 31
0.0
  0
LINE
  5
DA
330
1F
100
AcDbEntity
  8
SLD-0
  6
Continuous
 62
   179
370
    15
100
AcDbLine
 10
630.3001669856
 20
1019.40349923
 30
0.0
 11
629.953551075
 21
1018.7465526677
 31
0.0
  0
LINE
  5
DB
330
1F
100
AcDbEntity
  8
SLD-0
  6
Continuous
 62
   179
370
    15
100
AcDbLine
 10
629.953551075
 20
1018.7465526677
 30
0.0
 11
629.7401813479
 21
1017.8921256728
 31
0.0
  0
LINE
  5
DC
330
1F
100
AcDbEntity
  8
SLD-0
  6
Continuous
 62
   179
370
    15
100
AcDbLine
 10
629.7401813479
 20
1017.8921256728
 30
0.0
 11
629.6857921095
 21
1016.9432737447
 31
0.0
  0
LINE
  5
DD
330
1F
100
AcDbEntity
  8
SLD-0
  6
Continuous
 62
   179
370
    15
100
AcDbLine
 10
629.6857921095
 20
1016.9432737447
 30
0.0
 11
629.796954772
 21
1016.0144443206
 31
0.0
  0
LINE
  5
DE
330
1F
100
AcDbEntity
  8
SLD-0
  6
Continuous
 62
   179
370
    15
100
AcDbLine
 10
629.796954772
 20
1016.0144443206
 30
0.0
 11
630.0602508398
 21
1015.2176671244
 31
0.0
  0
LINE
  5
DF
330
1F
100
AcDbEntity
  8
SLD-0
  6
Continuous
 62
   179
370
    15
100
AcDbLine
 10
630.0602508398
 20
1015.2176671244
 30
0.0
 11
630.4439184876
 21
1014.6490444012
 31
0.0
  0
LINE
  5
E0
330
1F
100
AcDbEntity
  8
SLD-0
  6
Continuous
 62
   179
370
    15
100
AcDbLine
 10
630.4439184876
 20
1014.6490444012
 30
0.0
 11
630.9016970606
 21
1014.3771615393
 31
0.0
  0
LINE
  5
E1
330
1F
100
AcDbEntity
  8
SLD-0
  6
Continuous
 62
   179
370
    15
100
AcDbLine
 10
630.9016970606
 20
1014.3771615393
 30
0.0
 11
631.3783554049
 21
1014.434811338
 31
0.0
  0
LINE
  5
E2
330
1F
100
AcDbEntity
  8
SLD-0
  6
Continuous
 62
   179
370
    15
100
AcDbLine
 10
631.3783554049
 20
1014.434811338
 30
0.0
 11
631.8164122911
 21
1014.8150405429
 31
0.0
  0
LINE
  5
E3
330
1F
100
AcDbEntity
  8
SLD-0
  6
Continuous
 62
   179
370
    15
100
AcDbLine
 10
631.8164122911
 20
1014.8150405429
 30
0.0
 11
632.1630282016
 21
1015.4719871051
 31
0.0
  0
LINE
  5
E4
330
1F
100
AcDbEntity
  8
SLD-0
  6
Continuous
 62
   179
370
    15
100
AcDbLine
 10
632.1630282016
 20
1015.4719871051
 30
0.0
 11
632.3763979288
 21
1016.3264141001
 31
0.0
  0
LINE
  5
E5
330
1F
100
AcDbEntity
  8
SLD-0
  6
Continuous
 62
   179
370
    15
100
AcDbLine
 10
632.3763979288
 20
1016.3264141001
 30
0.0
 11
632.4307797165
 21
1017.2752650968
 31
0.0
  0
LINE
  5
E6
330
1F
100
AcDbEntity
  8
SLD-0
  6
Continuous
 62
   179
370
    15
100
AcDbLine
 10
632.4307797165
 20
1017.2752650968
 30
0.0
 11
632.3196245046
 21
1018.2040945209
 31
0.0
  0
LINE
  5
E7
330
1F
100
AcDbEntity
  8
SLD-0
  6
Continuous
 62
   179
370
    15
100
AcDbLine
 10
632.3196245046
 20
1018.2040945209
 30
0.0
 11
632.0563284369
 21
1019.0008726485
 31
0.0
  0
LINE
  5
E8
330
1F
100
AcDbEntity
  8
SLD-0
  6
Continuous
 62
   179
370
    15
100
AcDbLine
 10
632.0563284369
 20
1019.0008726485
 30
0.0
 11
631.6726533385
 21
1019.5694944404
 31
0.0
  0
LINE
  5
E9
330
1F
100
AcDbEntity
  8
SLD-0
  6
Continuous
 62
   179
370
    15
100
AcDbLine
 10
631.6726533385
 20
1019.5694944404
 30
0.0
 11
631.214882216
 21
1019.8413773022
 31
0.0
  0
LINE
  5
EA
330
1F
100
AcDbEntity
  8
SLD-0
  6
Continuous
 62
   179
370
    15
100
AcDbLine
 10
631.214882216
 20
1019.8413773022
 30
0.0
 11
630.7382238718
 21
1019.7837279692
 31
0.0
  0
LINE
  5
EB
330
1F
100
AcDbEntity
  8
SLD-0
  6
Continuous
 62
   179
370
    15
100
AcDbLine
 10
631.7078051777
 20
1014.6597797565
 30
0.0
 11
631.4262924405
 21
1014.3464120619
 31
0.0
  0
LINE
  5
EC
330
1F
100
AcDbEntity
  8
SLD-0
  6
Continuous
 62
   179
370
    15
100
AcDbLine
 10
631.4262924405
 20
1014.3464120619
 30
0.0
 11
630.9460727187
 21
1014.1165299855
 31
0.0
  0
LINE
  5
ED
330
1F
100
AcDbEntity
  8
SLD-0
  6
Continuous
 62
   179
370
    15
100
AcDbLine
 10
630.9460727187
 20
1014.1165299855
 30
0.0
 11
630.4545504661
 21
1014.2109567813
 31
0.0
  0
LINE
  5
EE
330
1F
100
AcDbEntity
  8
SLD-0
  6
Continuous
 62
   179
370
    15
100
AcDbLine
 10
630.4545504661
 20
1014.2109567813
 30
0.0
 11
630.0049973341
 21
1014.6194618709
 31
0.0
  0
LINE
  5
EF
330
1F
100
AcDbEntity
  8
SLD-0
  6
Continuous
 62
   179
370
    15
100
AcDbLine
 10
630.0049973341
 20
1014.6194618709
 30
0.0
 11
629.6461103173
 21
1015.2977748357
 31
0.0
  0
LINE
  5
F0
330
1F
100
AcDbEntity
  8
SLD-0
  6
Continuous
 62
   179
370
    15
100
AcDbLine
 10
629.6461103173
 20
1015.2977748357
 30
0.0
 11
629.4168037982
 21
1016.172392904
 31
0.0
  0
LINE
  5
F1
330
1F
100
AcDbEntity
  8
SLD-0
  6
Continuous
 62
   179
370
    15
100
AcDbLine
 10
629.4168037982
 20
1016.172392904
 30
0.0
 11
629.3419105621
 21
1017.1485353775
 31
0.0
  0
LINE
  5
F2
330
1F
100
AcDbEntity
  8
SLD-0
  6
Continuous
 62
   179
370
    15
100
AcDbLine
 10
629.3419105621
 20
1017.1485353775
 30
0.0
 11
629.4295517416
 21
1018.1204226382
 31
0.0
  0
LINE
  5
F3
330
1F
100
AcDbEntity
  8
SLD-0
  6
Continuous
 62
   179
370
    15
100
AcDbLine
 10
629.4295517416
 20
1018.1204226382
 30
0.0
 11
629.6702278467
 21
1018.9827360727
 31
0.0
  0
LINE
  5
F4
330
1F
100
AcDbEntity
  8
SLD-0
  6
Continuous
 62
   179
370
    15
100
AcDbLine
 10
629.6702278467
 20
1018.9827360727
 30
0.0
 11
630.0378692956
 21
1019.6420300334
 31
0.0
  0
LINE
  5
F5
330
1F
100
AcDbEntity
  8
SLD-0
  6
Continuous
 62
   179
370
    15
100
AcDbLine
 10
630.0378692956
 20
1019.6420300334
 30
0.0
 11
630.4926154824
 21
1020.0268604375
 31
0.0
  0
LINE
  5
F6
330
1F
100
AcDbEntity
  8
SLD-0
  6
Continuous
 62
   179
370
    15
100
AcDbLine
 10
625.862139246
 20
1020.1092694469
 30
0.0
 11
625.7578460188
 21
1020.1020093217
 31
0.0
  0
LINE
  5
F7
330
1F
100
AcDbEntity
  8
SLD-0
  6
Continuous
 62
   179
370
    15
100
AcDbLine
 10
625.7578460188
 20
1020.1020093217
 30
0.0
 11
625.277626297
 21
1019.8721272453
 31
0.0
  0
LINE
  5
F8
330
1F
100
AcDbEntity
  8
SLD-0
  6
Continuous
 62
   179
370
    15
100
AcDbLine
 10
625.277626297
 20
1019.8721272453
 30
0.0
 11
624.8607439609
 21
1019.342845916
 31
0.0
  0
LINE
  5
F9
330
1F
100
AcDbEntity
  8
SLD-0
  6
Continuous
 62
   179
370
    15
100
AcDbLine
 10
624.8607439609
 20
1019.342845916
 30
0.0
 11
624.5523793312
 21
1018.571522697
 31
0.0
  0
LINE
  5
FA
330
1F
100
AcDbEntity
  8
SLD-0
  6
Continuous
 62
   179
370
    15
100
AcDbLine
 10
624.5523793312
 20
1018.571522697
 30
0.0
 11
624.3859557124
 21
1017.64174053
 31
0.0
  0
LINE
  5
FB
330
1F
100
AcDbEntity
  8
SLD-0
  6
Continuous
 62
   179
370
    15
100
AcDbLine
 10
624.3859557124
 20
1017.64174053
 30
0.0
 11
624.3794886084
 21
1016.6542582728
 31
0.0
  0
LINE
  5
FC
330
1F
100
AcDbEntity
  8
SLD-0
  6
Continuous
 62
   179
370
    15
100
AcDbLine
 10
624.3794886084
 20
1016.6542582728
 30
0.0
 11
624.533693275
 21
1015.7160830267
 31
0.0
  0
LINE
  5
FD
330
1F
100
AcDbEntity
  8
SLD-0
  6
Continuous
 62
   179
370
    15
100
AcDbLine
 10
624.533693275
 20
1015.7160830267
 30
0.0
 11
624.8318580599
 21
1014.9288807578
 31
0.0
  0
LINE
  5
FE
330
1F
100
AcDbEntity
  8
SLD-0
  6
Continuous
 62
   179
370
    15
100
AcDbLine
 10
624.8318580599
 20
1014.9288807578
 30
0.0
 11
625.2416623445
 21
1014.3779578201
 31
0.0
  0
LINE
  5
FF
330
1F
100
AcDbEntity
  8
SLD-0
  6
Continuous
 62
   179
370
    15
100
AcDbLine
 10
625.2416623445
 20
1014.3779578201
 30
0.0
 11
625.7187155695
 21
1014.1230147846
 31
0.0
  0
LINE
  5
100
330
1F
100
AcDbEntity
  8
SLD-0
  6
Continuous
 62
   179
370
    15
100
AcDbLine
 10
625.7187155695
 20
1014.1230147846
 30
0.0
 11
625.862139246
 21
1014.1092693947
 31
0.0
  0
LINE
  5
101
330
1F
100
AcDbEntity
  8
SLD-0
  6
Continuous
 62
   179
370
    15
100
AcDbLine
 10
486.6980490895
 20
1019.7837279692
 30
0.0
 11
486.2599922033
 21
1019.40349923
 31
0.0
  0
LINE
  5
102
330
1F
100
AcDbEntity
  8
SLD-0
  6
Continuous
 62
   179
370
    15
100
AcDbLine
 10
486.2599922033
 20
1019.40349923
 30
0.0
 11
485.9133762928
 21
1018.7465526677
 31
0.0
  0
LINE
  5
103
330
1F
100
AcDbEntity
  8
SLD-0
  6
Continuous
 62
   179
370
    15
100
AcDbLine
 10
485.9133762928
 20
1018.7465526677
 30
0.0
 11
485.7000065656
 21
1017.8921256728
 31
0.0
  0
LINE
  5
104
330
1F
100
AcDbEntity
  8
SLD-0
  6
Continuous
 62
   179
370
    15
100
AcDbLine
 10
485.7000065656
 20
1017.8921256728
 30
0.0
 11
485.6456247778
 21
1016.9432737447
 31
0.0
  0
LINE
  5
105
330
1F
100
AcDbEntity
  8
SLD-0
  6
Continuous
 62
   179
370
    15
100
AcDbLine
 10
485.6456247778
 20
1016.9432737447
 30
0.0
 11
485.7567799898
 21
1016.0144443206
 31
0.0
  0
LINE
  5
106
330
1F
100
AcDbEntity
  8
SLD-0
  6
Continuous
 62
   179
370
    15
100
AcDbLine
 10
485.7567799898
 20
1016.0144443206
 30
0.0
 11
486.0200760575
 21
1015.2176671244
 31
0.0
  0
LINE
  5
107
330
1F
100
AcDbEntity
  8
SLD-0
  6
Continuous
 62
   179
370
    15
100
AcDbLine
 10
486.0200760575
 20
1015.2176671244
 30
0.0
 11
486.4037511559
 21
1014.6490444012
 31
0.0
  0
LINE
  5
108
330
1F
100
AcDbEntity
  8
SLD-0
  6
Continuous
 62
   179
370
    15
100
AcDbLine
 10
486.4037511559
 20
1014.6490444012
 30
0.0
 11
486.8615222784
 21
1014.3771615393
 31
0.0
  0
LINE
  5
109
330
1F
100
AcDbEntity
  8
SLD-0
  6
Continuous
 62
   179
370
    15
100
AcDbLine
 10
486.8615222784
 20
1014.3771615393
 30
0.0
 11
487.3381806226
 21
1014.434811338
 31
0.0
  0
LINE
  5
10A
330
1F
100
AcDbEntity
  8
SLD-0
  6
Continuous
 62
   179
370
    15
100
AcDbLine
 10
487.3381806226
 20
1014.434811338
 30
0.0
 11
487.7762375088
 21
1014.8150405429
 31
0.0
  0
LINE
  5
10B
330
1F
100
AcDbEntity
  8
SLD-0
  6
Continuous
 62
   179
370
    15
100
AcDbLine
 10
487.7762375088
 20
1014.8150405429
 30
0.0
 11
488.1228534194
 21
1015.4719871051
 31
0.0
  0
LINE
  5
10C
330
1F
100
AcDbEntity
  8
SLD-0
  6
Continuous
 62
   179
370
    15
100
AcDbLine
 10
488.1228534194
 20
1015.4719871051
 30
0.0
 11
488.3362231465
 21
1016.3264141001
 31
0.0
  0
LINE
  5
10D
330
1F
100
AcDbEntity
  8
SLD-0
  6
Continuous
 62
   179
370
    15
100
AcDbLine
 10
488.3362231465
 20
1016.3264141001
 30
0.0
 11
488.3906123848
 21
1017.2752650968
 31
0.0
  0
LINE
  5
10E
330
1F
100
AcDbEntity
  8
SLD-0
  6
Continuous
 62
   179
370
    15
100
AcDbLine
 10
488.3906123848
 20
1017.2752650968
 30
0.0
 11
488.2794497223
 21
1018.2040945209
 31
0.0
  0
LINE
  5
10F
330
1F
100
AcDbEntity
  8
SLD-0
  6
Continuous
 62
   179
370
    15
100
AcDbLine
 10
488.2794497223
 20
1018.2040945209
 30
0.0
 11
488.0161536546
 21
1019.0008726485
 31
0.0
  0
LINE
  5
110
330
1F
100
AcDbEntity
  8
SLD-0
  6
Continuous
 62
   179
370
    15
100
AcDbLine
 10
488.0161536546
 20
1019.0008726485
 30
0.0
 11
487.6324860068
 21
1019.5694944404
 31
0.0
  0
LINE
  5
111
330
1F
100
AcDbEntity
  8
SLD-0
  6
Continuous
 62
   179
370
    15
100
AcDbLine
 10
487.6324860068
 20
1019.5694944404
 30
0.0
 11
487.1747074337
 21
1019.8413773022
 31
0.0
  0
LINE
  5
112
330
1F
100
AcDbEntity
  8
SLD-0
  6
Continuous
 62
   179
370
    15
100
AcDbLine
 10
487.1747074337
 20
1019.8413773022
 30
0.0
 11
486.6980490895
 21
1019.7837279692
 31
0.0
  0
LINE
  5
113
330
1F
100
AcDbEntity
  8
SLD-0
  6
Continuous
 62
   179
370
    15
100
AcDbLine
 10
486.8854609938
 20
1020.0268604375
 30
0.0
 11
487.3780486794
 21
1020.0955245226
 31
0.0
  0
LINE
  5
114
330
1F
100
AcDbEntity
  8
SLD-0
  6
Continuous
 62
   179
370
    15
100
AcDbLine
 10
487.3780486794
 20
1020.0955245226
 30
0.0
 11
487.8550944539
 21
1019.8405814871
 31
0.0
  0
LINE
  5
115
330
1F
100
AcDbEntity
  8
SLD-0
  6
Continuous
 62
   179
370
    15
100
AcDbLine
 10
487.8550944539
 20
1019.8405814871
 30
0.0
 11
488.2648987384
 21
1019.2896590151
 31
0.0
  0
LINE
  5
116
330
1F
100
AcDbEntity
  8
SLD-0
  6
Continuous
 62
   179
370
    15
100
AcDbLine
 10
488.2648987384
 20
1019.2896590151
 30
0.0
 11
488.5630635233
 21
1018.5024567462
 31
0.0
  0
LINE
  5
117
330
1F
100
AcDbEntity
  8
SLD-0
  6
Continuous
 62
   179
370
    15
100
AcDbLine
 10
488.5630635233
 20
1018.5024567462
 30
0.0
 11
488.71726819
 21
1017.5642815001
 31
0.0
  0
LINE
  5
118
330
1F
100
AcDbEntity
  8
SLD-0
  6
Continuous
 62
   179
370
    15
100
AcDbLine
 10
488.71726819
 20
1017.5642815001
 30
0.0
 11
488.7108085366
 21
1016.5767983116
 31
0.0
  0
LINE
  5
119
330
1F
100
AcDbEntity
  8
SLD-0
  6
Continuous
 62
   179
370
    15
100
AcDbLine
 10
488.7108085366
 20
1016.5767983116
 30
0.0
 11
488.5443774672
 21
1015.6470170758
 31
0.0
  0
LINE
  5
11A
330
1F
100
AcDbEntity
  8
SLD-0
  6
Continuous
 62
   179
370
    15
100
AcDbLine
 10
488.5443774672
 20
1015.6470170758
 30
0.0
 11
488.2360128375
 21
1014.8756929256
 31
0.0
  0
LINE
  5
11B
330
1F
100
AcDbEntity
  8
SLD-0
  6
Continuous
 62
   179
370
    15
100
AcDbLine
 10
488.2360128375
 20
1014.8756929256
 30
0.0
 11
487.8191379519
 21
1014.3464120619
 31
0.0
  0
LINE
  5
11C
330
1F
100
AcDbEntity
  8
SLD-0
  6
Continuous
 62
   179
370
    15
100
AcDbLine
 10
487.8191379519
 20
1014.3464120619
 30
0.0
 11
487.3389182301
 21
1014.1165299855
 31
0.0
  0
LINE
  5
11D
330
1F
100
AcDbEntity
  8
SLD-0
  6
Continuous
 62
   179
370
    15
100
AcDbLine
 10
487.3389182301
 20
1014.1165299855
 30
0.0
 11
486.8473959775
 21
1014.2109567813
 31
0.0
  0
LINE
  5
11E
330
1F
100
AcDbEntity
  8
SLD-0
  6
Continuous
 62
   179
370
    15
100
AcDbLine
 10
486.8473959775
 20
1014.2109567813
 30
0.0
 11
486.3978353949
 21
1014.6194618709
 31
0.0
  0
LINE
  5
11F
330
1F
100
AcDbEntity
  8
SLD-0
  6
Continuous
 62
   179
370
    15
100
AcDbLine
 10
486.3978353949
 20
1014.6194618709
 30
0.0
 11
486.3685993166
 21
1014.6597797565
 31
0.0
  0
LINE
  5
120
330
1F
100
AcDbEntity
  8
SLD-0
  6
Continuous
 62
   179
370
    15
100
AcDbLine
 10
486.3685993166
 20
1019.5587595507
 30
0.0
 11
486.4307073565
 21
1019.6420300334
 31
0.0
  0
LINE
  5
121
330
1F
100
AcDbEntity
  8
SLD-0
  6
Continuous
 62
   179
370
    15
100
AcDbLine
 10
486.4307073565
 20
1019.6420300334
 30
0.0
 11
486.8854609938
 21
1020.0268604375
 31
0.0
  0
LINE
  5
122
330
1F
100
AcDbEntity
  8
SLD-0
  6
Continuous
 62
   179
370
    15
100
AcDbLine
 10
492.2142652483
 20
1014.1092693947
 30
0.0
 11
492.563436708
 21
1014.1916793354
 31
0.0
  0
LINE
  5
123
330
1F
100
AcDbEntity
  8
SLD-0
  6
Continuous
 62
   179
370
    15
100
AcDbLine
 10
492.563436708
 20
1014.1916793354
 30
0.0
 11
493.0181828948
 21
1014.5765092738
 31
0.0
  0
LINE
  5
124
330
1F
100
AcDbEntity
  8
SLD-0
  6
Continuous
 62
   179
370
    15
100
AcDbLine
 10
493.0181828948
 20
1014.5765092738
 30
0.0
 11
493.3858168931
 21
1015.2358037002
 31
0.0
  0
LINE
  5
125
330
1F
100
AcDbEntity
  8
SLD-0
  6
Continuous
 62
   179
370
    15
100
AcDbLine
 10
493.3858168931
 20
1015.2358037002
 30
0.0
 11
493.6265004488
 21
1016.0981171347
 31
0.0
  0
LINE
  5
126
330
1F
100
AcDbEntity
  8
SLD-0
  6
Continuous
 62
   179
370
    15
100
AcDbLine
 10
493.6265004488
 20
1016.0981171347
 30
0.0
 11
493.7141416283
 21
1017.0700043954
 31
0.0
  0
LINE
  5
127
330
1F
100
AcDbEntity
  8
SLD-0
  6
Continuous
 62
   179
370
    15
100
AcDbLine
 10
493.7141416283
 20
1017.0700043954
 30
0.0
 11
493.6392483922
 21
1018.0461468689
 31
0.0
  0
LINE
  5
128
330
1F
100
AcDbEntity
  8
SLD-0
  6
Continuous
 62
   179
370
    15
100
AcDbLine
 10
493.6392483922
 20
1018.0461468689
 30
0.0
 11
493.4099344225
 21
1018.9207640059
 31
0.0
  0
LINE
  5
129
330
1F
100
AcDbEntity
  8
SLD-0
  6
Continuous
 62
   179
370
    15
100
AcDbLine
 10
493.4099344225
 20
1018.9207640059
 30
0.0
 11
493.0510548563
 21
1019.599077902
 31
0.0
  0
LINE
  5
12A
330
1F
100
AcDbEntity
  8
SLD-0
  6
Continuous
 62
   179
370
    15
100
AcDbLine
 10
493.0510548563
 20
1019.599077902
 30
0.0
 11
492.6014942737
 21
1020.0075820602
 31
0.0
  0
LINE
  5
12B
330
1F
100
AcDbEntity
  8
SLD-0
  6
Continuous
 62
   179
370
    15
100
AcDbLine
 10
492.6014942737
 20
1020.0075820602
 30
0.0
 11
492.2142652483
 21
1020.1092694469
 31
0.0
  0
LINE
  5
12C
330
1F
100
AcDbEntity
  8
SLD-0
  6
Continuous
 62
   179
370
    15
100
AcDbLine
 10
559.0382022472
 20
807.109270855
 30
0.0
 11
631.5382022472
 21
807.1092696629
 31
0.0
  0
LINE
  5
12D
330
1F
100
AcDbEntity
  8
SLD-0
  6
Continuous
 62
   179
370
    15
100
AcDbLine
 10
486.5382022472
 20
807.1092696629
 30
0.0
 11
559.0382022472
 21
807.109270855
 31
0.0
  0
LINE
  5
12E
330
1F
100
AcDbEntity
  8
SLD-0
  6
Continuous
 62
   179
370
    15
100
AcDbLine
 10
484.038199267
 20
1027.1092696629
 30
0.0
 11
634.0382052274
 21
1027.1092696629
 31
0.0
  0
LINE
  5
12F
330
1F
100
AcDbEntity
  8
SLD-0
  6
Continuous
 62
   179
370
    15
100
AcDbLine
 10
635.0381998034
 20
1026.1092696154
 30
0.0
 11
483.038204691
 21
1026.1092696154
 31
0.0
  0
LINE
  5
130
330
1F
100
AcDbEntity
  8
SLD-0
  6
Continuous
 62
     8
370
    15
100
AcDbLine
 10
498.2384508164
 20
1030.2285024008
 30
0.0
 11
629.0382022472
 21
1030.2285024008
 31
0.0
  0
LINE
  5
131
330
1F
100
AcDbEntity
  8
SLD-0
  6
Continuous
 62
     8
370
    15
100
AcDbLine
 10
489.0382022472
 20
1030.2285024008
 30
0.0
 11
498.2384508164
 21
1030.2285024008
 31
0.0
  0
LINE
  5
132
330
1F
100
AcDbEntity
  8
SLD-0
  6
CENTERX2
 62
   179
370
     0
100
AcDbLine
 10
434.0382022472
 20
905.0534058294
 30
0.0
 11
434.0468203858
 21
902.6401349387
 31
0.0
  0
LINE
  5
133
330
1F
100
AcDbEntity
  8
SLD-0
  6
CENTERX2
 62
   179
370
     0
100
AcDbLine
 10
684.0382022472
 20
905.0534064492
 30
0.0
 11
684.0253748667
 21
902.1092081502
 31
0.0
  0
ARC
  5
134
330
1F
100
AcDbEntity
  8
SLD-0
  6
Continuous
 62
   179
370
    15
100
AcDbCircle
 10
491.0382022472
 20
1030.2285024008
 30
0.0
 40
2.000000000000057
100
AcDbArc
 50
90.0
 51
180.0
  0
ARC
  5
135
330
1F
100
AcDbEntity
  8
SLD-0
  6
Continuous
 62
   179
370
    15
100
AcDbCircle
 10
627.0382022472
 20
1030.2285025894
 30
0.0
 40
2.000000000000227
100
AcDbArc
 50
359.999994597
 51
90.0
  0
ARC
  5
136
330
1F
100
AcDbEntity
  8
SLD-0
  6
Continuous
 62
   179
370
    15
100
AcDbCircle
 10
346.1491366875
 20
905.0534056115
 30
0.0
 40
337.8890655596721
100
AcDbArc
 50
350.4087851856
 51
9.5912150985
  0
ARC
  5
137
330
1F
100
AcDbEntity
  8
SLD-0
  6
Continuous
 62
   179
370
    15
100
AcDbCircle
 10
771.9272678069
 20
905.0534056115
 30
0.0
 40
337.889065559672
100
AcDbArc
 50
170.4087849015
 51
189.5912148144
  0
ARC
  5
138
330
1F
100
AcDbEntity
  8
SLD-0
  6
Continuous
 62
   179
370
    15
100
AcDbCircle
 10
488.0624318549
 20
857.0860315038
 30
0.0
 40
49.99999999998019
100
AcDbArc
 50
189.5912148146
 51
268.253090888
  0
ARC
  5
139
330
1F
100
AcDbEntity
  8
SLD-0
  6
Continuous
 62
   179
370
    15
100
AcDbCircle
 10
630.0139726395
 20
857.0860315038
 30
0.0
 40
49.99999999998016
100
AcDbArc
 50
271.746909112
 51
350.4087851854
  0
ARC
  5
13A
330
1F
100
AcDbEntity
  8
SLD-0
  6
Continuous
 62
   179
370
    15
100
AcDbCircle
 10
488.0624318549
 20
953.0207811669
 30
0.0
 40
49.99999975875559
100
AcDbArc
 50
104.5014099136
 51
170.4087849013
  0
ARC
  5
13B
330
1F
100
AcDbEntity
  8
SLD-0
  6
Continuous
 62
   179
370
    15
100
AcDbCircle
 10
630.0139726395
 20
953.0207811669
 30
0.0
 40
49.99999975875561
100
AcDbArc
 50
9.5912150987
 51
75.4985900864
  0
ARC
  5
13C
330
1F
100
AcDbEntity
  8
SLD-0
  6
Continuous
 62
   179
370
    15
100
AcDbCircle
 10
473.0382022472
 20
1011.1092696629
 30
0.0
 40
10.00000000001026
100
AcDbArc
 50
284.5014099135
 51
0.0
  0
ARC
  5
13D
330
1F
100
AcDbEntity
  8
SLD-0
  6
Continuous
 62
   179
370
    15
100
AcDbCircle
 10
645.0382022472
 20
1011.1092696629
 30
0.0
 40
10.00000000001376
100
AcDbArc
 50
180.0
 51
255.4985900864
  0
ARC
  5
13E
330
1F
100
AcDbEntity
  8
SLD-0
  6
Continuous
 62
   179
370
    15
100
AcDbCircle
 10
630.8318288685
 20
1019.0960918384
 30
0.0
 40
0.9906542819482366
100
AcDbArc
 50
27.841839263
 51
110.0239850689
  0
SPLINE
  5
13F
330
1F
100
AcDbEntity
  8
SLD-0
  6
Continuous
 62
   179
370
    15
100
AcDbSpline
210
0.0
220
0.0
230
1.0
 70
     8
 71
     3
 72
    14
 73
    10
 74
     0
 42
0.00000001
 43
0.00000001
 12
1.0
 22
0.0
 32
0.0
 13
1.0
 23
0.0
 33
0.0
 40
0.0
 40
0.0
 40
0.0
 40
0.0
 40
0.1446763601760961
 40
0.2901842642279768
 40
0.4376549959886156
 40
0.5855872887511663
 40
0.7324410225034645
 40
0.876726823363861
 40
1.0
 40
1.0
 40
1.0
 40
1.0
 10
508.114813795853
 20
1055.883791907851
 30
0.0
 10
508.1315000145025
 20
1055.530614627884
 30
0.0
 10
508.1649683577455
 20
1054.822230141264
 30
0.0
 10
508.1917905059223
 20
1053.482142645005
 30
0.0
 10
508.1836285300542
 20
1052.113436360463
 30
0.0
 10
508.1430010701706
 20
1050.842543750326
 30
0.0
 10
508.0895153286468
 20
1049.850714872515
 30
0.0
 10
508.0457646808948
 20
1049.226143519846
 30
0.0
 10
508.0418148718027
 20
1049.175148916576
 30
0.0
 10
508.0399950654987
 20
1049.151654034082
 30
0.0
  0
SPLINE
  5
140
330
1F
100
AcDbEntity
  8
SLD-0
  6
Continuous
 62
   179
370
    15
100
AcDbSpline
210
0.0
220
0.0
230
1.0
 70
     8
 71
     3
 72
    10
 73
     6
 74
     0
 42
0.00000001
 43
0.00000001
 12
1.0
 22
0.0
 32
0.0
 13
1.0
 23
0.0
 33
0.0
 40
0.0
 40
0.0
 40
0.0
 40
0.0
 40
0.3302374062054925
 40
0.7402481592456883
 40
1.0
 40
1.0
 40
1.0
 40
1.0
 10
508.0407363982681
 20
1057.056911899869
 30
0.0
 10
508.0417877258943
 20
1057.042862612707
 30
0.0
 10
508.044144343665
 20
1057.011370241568
 30
0.0
 10
508.0784391000703
 20
1056.53879564814
 30
0.0
 10
508.1046489249966
 20
1056.066832020965
 30
0.0
 10
508.114813795853
 20
1055.883791907851
 30
0.0
  0
SPLINE
  5
141
330
1F
100
AcDbEntity
  8
SLD-0
  6
Continuous
 62
   179
370
    15
100
AcDbSpline
210
0.0
220
0.0
230
1.0
 70
     8
 71
     3
 72
    14
 73
    10
 74
     0
 42
0.00000001
 43
0.00000001
 12
1.0
 22
0.0
 32
0.0
 13
1.0
 23
0.0
 33
0.0
 40
0.0
 40
0.0
 40
0.0
 40
0.0
 40
0.1446763601760961
 40
0.2901842642279768
 40
0.4376549959886156
 40
0.5855872887511663
 40
0.7324410225034645
 40
0.876726823363861
 40
1.0
 40
1.0
 40
1.0
 40
1.0
 10
609.9615906985287
 20
1055.883791907851
 30
0.0
 10
609.9449044798793
 20
1055.530614627884
 30
0.0
 10
609.9114361366362
 20
1054.822230141264
 30
0.0
 10
609.8846139884594
 20
1053.482142645005
 30
0.0
 10
609.8927759643274
 20
1052.113436360463
 30
0.0
 10
609.9334034242111
 20
1050.842543750326
 30
0.0
 10
609.986889165735
 20
1049.850714872515
 30
0.0
 10
610.0306398134869
 20
1049.226143519846
 30
0.0
 10
610.0345896225791
 20
1049.175148916576
 30
0.0
 10
610.036409428883
 20
1049.151654034082
 30
0.0
  0
SPLINE
  5
142
330
1F
100
AcDbEntity
  8
SLD-0
  6
Continuous
 62
   179
370
    15
100
AcDbSpline
210
0.0
220
0.0
230
1.0
 70
     8
 71
     3
 72
    10
 73
     6
 74
     0
 42
0.00000001
 43
0.00000001
 12
1.0
 22
0.0
 32
0.0
 13
1.0
 23
0.0
 33
0.0
 40
0.0
 40
0.0
 40
0.0
 40
0.0
 40
0.3302374062054925
 40
0.7402481592456883
 40
1.0
 40
1.0
 40
1.0
 40
1.0
 10
610.0356680961136
 20
1057.056911899869
 30
0.0
 10
610.0346167684875
 20
1057.042862612707
 30
0.0
 10
610.0322601507168
 20
1057.011370241568
 30
0.0
 10
609.9979653943113
 20
1056.53879564814
 30
0.0
 10
609.9717555693851
 20
1056.066832020965
 30
0.0
 10
609.9615906985287
 20
1055.883791907851
 30
0.0
  0
DIMENSION
  5
143
330
1F
100
AcDbEntity
  8
SLD-0
 62
   179
100
AcDbDimension
  2
_D
 10
432.9899309013
 20
664.4494329459
 30
0.0
 11
552.2281427487
 21
663.9299319613
 31
0.0
 70
   160
  1
<>
 71
     2
 42
-1.0
  3
SLDDIMSTYLE0
100
AcDbAlignedDimension
 13
684.0253748667
 23
902.1092081502
 33
0.0
 14
434.0382022472
 24
905.0534058294
 34
0.0
 50
-0.2496265675
100
AcDbRotatedDimension
  0
DIMENSION
  5
153
330
1F
100
AcDbEntity
  8
SLD-0
 62
   179
100
AcDbDimension
  2
_D_1
 10
610.0382022472
 20
1112.1092696629
 30
0.0
 11
552.2281421508
 21
1112.1092696629
 31
0.0
 70
   160
  1
%%c<>
 71
     2
 42
-1.0
  3
SLDDIMSTYLE1
100
AcDbAlignedDimension
 13
508.0382022472
 23
1049.1272188554
 33
0.0
 14
610.0382022472
 24
1049.1272188554
 34
0.0
100
AcDbRotatedDimension
  0
DIMENSION
  5
161
330
1F
100
AcDbEntity
  8
SLD-0
 62
   179
100
AcDbDimension
  2
_D_2
 10
764.0382022472
 20
1032.2285024008
 30
0.0
 11
764.0382022472
 21
916.0328666155
 31
0.0
 70
   160
  1
<>
 71
     2
 42
-1.0
  3
SLDDIMSTYLE2
100
AcDbAlignedDimension
 13
620.5051499143
 23
766.0634620835
 33
0.0
 14
627.0382022472
 24
1032.2285024008
 34
0.0
 50
90.0
100
AcDbRotatedDimension
  0
DIMENSION
  5
16C
330
1F
100
AcDbEntity
  8
SLD-0
 62
   179
100
AcDbDimension
  2
_D_3
 10
491.7542514018
 20
716.0634620835
 30
0.0
 11
558.0143608187
 21
716.0634620835
 31
0.0
 70
   160
  1
<>
 71
     2
 42
-1.0
  3
SLDDIMSTYLE2
100
AcDbAlignedDimension
 13
626.3221530926
 23
766.0634620835
 33
0.0
 14
491.7542514018
 24
766.0634620835
 34
0.0
100
AcDbRotatedDimension
  0
DIMENSION
  5
176
330
1F
100
AcDbEntity
  8
SLD-0
 62
   179
100
AcDbDimension
  2
_D_4
 10
734.0382022472
 20
1032.2285024008
 30
0.0
 11
734.0382022472
 21
1046.9505080746
 31
0.0
 70
   160
  1
<>
 71
     2
 42
-1.0
  3
SLDDIMSTYLE0
100
AcDbAlignedDimension
 13
610.0382022472
 23
1062.1092696629
 33
0.0
 14
627.0382022472
 24
1032.2285024008
 34
0.0
 50
90.0
100
AcDbRotatedDimension
  0
ENDSEC
  0
SECTION
  2
OBJECTS
  0
DICTIONARY
  5
C
330
0
100
AcDbDictionary
281
     1
  3
ACAD_GROUP
350
D
  3
ACAD_LAYOUT
350
1A
  3
ACAD_MLINESTYLE
350
17
  3
ACAD_PLOTSETTINGS
350
19
  3
ACAD_PLOTSTYLENAME
350
E
  0
DICTIONARY
  5
D
102
{ACAD_REACTORS
330
C
102
}
330
C
100
AcDbDictionary
281
     1
  0
DICTIONARY
  5
1A
102
{ACAD_REACTORS
330
C
102
}
330
C
100
AcDbDictionary
281
     1
  3
Layout1
350
1E
  3
Layout2
350
26
  3
Model
350
22
  0
DICTIONARY
  5
17
102
{ACAD_REACTORS
330
C
102
}
330
C
100
AcDbDictionary
281
     1
  3
Standard
350
18
  0
DICTIONARY
  5
19
102
{ACAD_REACTORS
330
C
102
}
330
C
100
AcDbDictionary
281
     1
  0
ACDBDICTIONARYWDFLT
  5
E
102
{ACAD_REACTORS
330
C
102
}
330
C
100
AcDbDictionary
281
     1
  3
Normal
350
F
100
AcDbDictionaryWithDefault
340
F
  0
LAYOUT
  5
1E
102
{ACAD_REACTORS
330
1A
102
}
330
1A
100
AcDbPlotSettings
  1

  2
none_device
  4

  6

 40
0.0
 41
0.0
 42
0.0
 43
0.0
 44
0.0
 45
0.0
 46
0.0
 47
0.0
 48
0.0
 49
0.0
140
0.0
141
0.0
142
1.0
143
1.0
 70
   688
 72
     0
 73
     0
 74
     5
  7

 75
    16
147
1.0
148
0.0
149
0.0
100
AcDbLayout
  1
Layout1
 70
     1
 71
     1
 10
0.0
 20
0.0
 11
420.0
 21
297.0
 12
0.0
 22
0.0
 32
0.0
 14
1.0000000000E+20
 24
1.0000000000E+20
 34
1.0000000000E+20
 15
-1.0000000000E+20
 25
-1.0000000000E+20
 35
-1.0000000000E+20
146
0.0
 13
0.0
 23
0.0
 33
0.0
 16
1.0
 26
0.0
 36
0.0
 17
0.0
 27
1.0
 37
0.0
 76
     0
330
1B
  0
LAYOUT
  5
26
102
{ACAD_REACTORS
330
1A
102
}
330
1A
100
AcDbPlotSettings
  1

  2
none_device
  4

  6

 40
0.0
 41
0.0
 42
0.0
 43
0.0
 44
0.0
 45
0.0
 46
0.0
 47
0.0
 48
0.0
 49
0.0
140
0.0
141
0.0
142
1.0
143
1.0
 70
   688
 72
     0
 73
     0
 74
     5
  7

 75
    16
147
1.0
148
0.0
149
0.0
100
AcDbLayout
  1
Layout2
 70
     1
 71
     2
 10
0.0
 20
0.0
 11
0.0
 21
0.0
 12
0.0
 22
0.0
 32
0.0
 14
0.0
 24
0.0
 34
0.0
 15
0.0
 25
0.0
 35
0.0
146
0.0
 13
0.0
 23
0.0
 33
0.0
 16
1.0
 26
0.0
 36
0.0
 17
0.0
 27
1.0
 37
0.0
 76
     0
330
23
  0
LAYOUT
  5
22
102
{ACAD_REACTORS
330
1A
102
}
330
1A
100
AcDbPlotSettings
  1

  2
none_device
  4

  6

 40
0.0
 41
0.0
 42
0.0
 43
0.0
 44
0.0
 45
0.0
 46
0.0
 47
0.0
 48
0.0
 49
0.0
140
0.0
141
0.0
142
1.0
143
1.0
 70
  1712
 72
     0
 73
     0
 74
     0
  7

 75
     0
147
1.0
148
0.0
149
0.0
100
AcDbLayout
  1
Model
 70
     1
 71
     0
 10
0.0
 20
0.0
 11
1189.0
 21
841.0
 12
0.0
 22
0.0
 32
0.0
 14
0.0
 24
0.0
 34
0.0
 15
1189.0
 25
841.0
 35
0.0
146
0.0
 13
0.0
 23
0.0
 33
0.0
 16
1.0
 26
0.0
 36
0.0
 17
0.0
 27
1.0
 37
0.0
 76
     0
330
1F
331
29
  0
MLINESTYLE
  5
18
102
{ACAD_REACTORS
330
17
102
}
330
17
100
AcDbMlineStyle
  2
Standard
 70
     0
  3

 62
   256
 51
90.0
 52
90.0
 71
     2
 49
0.5
 62
   256
  6
BYLAYER
 49
-0.5
 62
   256
  6
BYLAYER
  0
ACDBPLACEHOLDER
  5
F
102
{ACAD_REACTORS
330
E
102
}
330
E
  0
ENDSEC
  0
EOF
