  0
SECTION
  2
HEADER
  9
$ACADVER
  1
AC1021
  9
$ACADMAINTVER
 70
    25
  9
$DWGCODEPAGE
  3
ANSI_1252
  9
$LASTSAVEDBY
  1
Josep Sancho
  9
$INSBASE
 10
0.0
 20
0.0
 30
0.0
  9
$EXTMIN
 10
265.2397497845
 20
74.9971091133
 30
0.0
  9
$EXTMAX
 10
3074.1485614599
 20
4379.9971091133
 30
0.1264036807
  9
$LIMMIN
 10
0.0
 20
0.0
  9
$LIMMAX
 10
3150.0
 20
4455.0
  9
$ORTHOMODE
 70
     0
  9
$REGENMODE
 70
     1
  9
$FILLMODE
 70
     1
  9
$QTEXTMODE
 70
     0
  9
$MIRRTEXT
 70
     1
  9
$LTSCALE
 40
15.0
  9
$ATTMODE
 70
     1
  9
$TEXTSIZE
 40
52.5
  9
$TRACEWID
 40
1.0
  9
$TEXTSTYLE
  7
Standard
  9
$CLAYER
  8
0
  9
$CELTYPE
  6
ByLayer
  9
$CECOLOR
 62
   256
  9
$CELTSCALE
 40
1.0
  9
$DISPSILH
 70
     0
  9
$DIMSCALE
 40
1.0
  9
$DIMASZ
 40
49.53
  9
$DIMEXO
 40
15.0
  9
$DIMDLI
 40
3.75
  9
$DIMRND
 40
0.0
  9
$DIMDLE
 40
0.0
  9
$DIMEXE
 40
15.0
  9
$DIMTP
 40
0.0
  9
$DIMTM
 40
0.0
  9
$DIMTXT
 40
52.5
  9
$DIMCEN
 40
2.5
  9
$DIMTSZ
 40
0.0
  9
$DIMTOL
 70
     0
  9
$DIMLIM
 70
     0
  9
$DIMTIH
 70
     1
  9
$DIMTOH
 70
     1
  9
$DIMSE1
 70
     0
  9
$DIMSE2
 70
     0
  9
$DIMTAD
 70
     1
  9
$DIMZIN
 70
     0
  9
$DIMBLK
  1

  9
$DIMASO
 70
     1
  9
$DIMSHO
 70
     1
  9
$DIMPOST
  1

  9
$DIMAPOST
  1

  9
$DIMALT
 70
     0
  9
$DIMALTD
 70
     3
  9
$DIMALTF
 40
0.0393700787
  9
$DIMLFAC
 40
1.0
  9
$DIMTOFL
 70
     1
  9
$DIMTVP
 40
0.0
  9
$DIMTIX
 70
     0
  9
$DIMSOXD
 70
     0
  9
$DIMSAH
 70
     0
  9
$DIMBLK1
  1

  9
$DIMBLK2
  1

  9
$DIMSTYLE
  2
ISO-25
  9
$DIMCLRD
 70
     0
  9
$DIMCLRE
 70
     0
  9
$DIMCLRT
 70
     0
  9
$DIMTFAC
 40
1.0
  9
$DIMGAP
 40
22.86
  9
$DIMJUST
 70
     0
  9
$DIMSD1
 70
     0
  9
$DIMSD2
 70
     0
  9
$DIMTOLJ
 70
     0
  9
$DIMTZIN
 70
     0
  9
$DIMALTZ
 70
     0
  9
$DIMALTTZ
 70
     0
  9
$DIMUPT
 70
     0
  9
$DIMDEC
 70
     3
  9
$DIMTDEC
 70
     3
  9
$DIMALTU
 70
     2
  9
$DIMALTTD
 70
     3
  9
$DIMTXSTY
  7
Standard
  9
$DIMAUNIT
 70
     0
  9
$DIMADEC
 70
     2
  9
$DIMALTRND
 40
0.0
  9
$DIMAZIN
 70
     0
  9
$DIMDSEP
 70
    44
  9
$DIMATFIT
 70
     3
  9
$DIMFRAC
 70
     0
  9
$DIMLDRBLK
  1

  9
$DIMLUNIT
 70
     2
  9
$DIMLWD
 70
    -2
  9
$DIMLWE
 70
    -2
  9
$DIMTMOVE
 70
     0
  9
$DIMFXL
 40
1.0
  9
$DIMFXLON
 70
     0
  9
$DIMJOGANG
 40
0.7853981633974483
  9
$DIMTFILL
 70
     0
  9
$DIMTFILLCLR
 70
     0
  9
$DIMARCSYM
 70
     0
  9
$DIMLTYPE
  6

  9
$DIMLTEX1
  6

  9
$DIMLTEX2
  6

  9
$LUNITS
 70
     2
  9
$LUPREC
 70
     2
  9
$SKETCHINC
 40
1.0
  9
$FILLETRAD
 40
10.0
  9
$AUNITS
 70
     0
  9
$AUPREC
 70
     2
  9
$MENU
  1
.
  9
$ELEVATION
 40
0.0
  9
$PELEVATION
 40
0.0
  9
$THICKNESS
 40
0.0
  9
$LIMCHECK
 70
     0
  9
$CHAMFERA
 40
10.0
  9
$CHAMFERB
 40
10.0
  9
$CHAMFERC
 40
20.0
  9
$CHAMFERD
 40
0.0
  9
$SKPOLY
 70
     0
  9
$TDCREATE
 40
2453353.800459155
  9
$TDUCREATE
 40
2453353.717125822
  9
$TDUPDATE
 40
2457512.838471771
  9
$TDUUPDATE
 40
2457512.755138438
  9
$TDINDWG
 40
0.0426041782
  9
$TDUSRTIMER
 40
0.0426041782
  9
$USRTIMER
 70
     1
  9
$ANGBASE
 50
0.0
  9
$ANGDIR
 70
     0
  9
$PDMODE
 70
     0
  9
$PDSIZE
 40
-1.0
  9
$PLINEWID
 40
0.0
  9
$SPLFRAME
 70
     0
  9
$SPLINETYPE
 70
     6
  9
$SPLINESEGS
 70
     8
  9
$HANDSEED
  5
294
  9
$SURFTAB1
 70
     6
  9
$SURFTAB2
 70
     6
  9
$SURFTYPE
 70
     6
  9
$SURFU
 70
     6
  9
$SURFV
 70
     6
  9
$UCSBASE
  2

  9
$UCSNAME
  2

  9
$UCSORG
 10
0.0
 20
0.0
 30
0.0
  9
$UCSXDIR
 10
1.0
 20
0.0
 30
0.0
  9
$UCSYDIR
 10
0.0
 20
1.0
 30
0.0
  9
$UCSORTHOREF
  2

  9
$UCSORTHOVIEW
 70
     0
  9
$UCSORGTOP
 10
0.0
 20
0.0
 30
0.0
  9
$UCSORGBOTTOM
 10
0.0
 20
0.0
 30
0.0
  9
$UCSORGLEFT
 10
0.0
 20
0.0
 30
0.0
  9
$UCSORGRIGHT
 10
0.0
 20
0.0
 30
0.0
  9
$UCSORGFRONT
 10
0.0
 20
0.0
 30
0.0
  9
$UCSORGBACK
 10
0.0
 20
0.0
 30
0.0
  9
$PUCSBASE
  2

  9
$PUCSNAME
  2

  9
$PUCSORG
 10
0.0
 20
0.0
 30
0.0
  9
$PUCSXDIR
 10
1.0
 20
0.0
 30
0.0
  9
$PUCSYDIR
 10
0.0
 20
1.0
 30
0.0
  9
$PUCSORTHOREF
  2

  9
$PUCSORTHOVIEW
 70
     0
  9
$PUCSORGTOP
 10
0.0
 20
0.0
 30
0.0
  9
$PUCSORGBOTTOM
 10
0.0
 20
0.0
 30
0.0
  9
$PUCSORGLEFT
 10
0.0
 20
0.0
 30
0.0
  9
$PUCSORGRIGHT
 10
0.0
 20
0.0
 30
0.0
  9
$PUCSORGFRONT
 10
0.0
 20
0.0
 30
0.0
  9
$PUCSORGBACK
 10
0.0
 20
0.0
 30
0.0
  9
$USERI1
 70
     0
  9
$USERI2
 70
     0
  9
$USERI3
 70
     0
  9
$USERI4
 70
     0
  9
$USERI5
 70
     0
  9
$USERR1
 40
0.0
  9
$USERR2
 40
0.0
  9
$USERR3
 40
0.0
  9
$USERR4
 40
0.0
  9
$USERR5
 40
0.0
  9
$WORLDVIEW
 70
     1
  9
$SHADEDGE
 70
     3
  9
$SHADEDIF
 70
    70
  9
$TILEMODE
 70
     1
  9
$MAXACTVP
 70
    64
  9
$PINSBASE
 10
0.0
 20
0.0
 30
0.0
  9
$PLIMCHECK
 70
     0
  9
$PEXTMIN
 10
1.000000000000000E+20
 20
1.000000000000000E+20
 30
1.000000000000000E+20
  9
$PEXTMAX
 10
-1.000000000000000E+20
 20
-1.000000000000000E+20
 30
-1.000000000000000E+20
  9
$PLIMMIN
 10
0.0
 20
0.0
  9
$PLIMMAX
 10
420.0
 20
297.0
  9
$UNITMODE
 70
     0
  9
$VISRETAIN
 70
     1
  9
$PLINEGEN
 70
     0
  9
$PSLTSCALE
 70
     1
  9
$TREEDEPTH
 70
  3020
  9
$CMLSTYLE
  2
Standard
  9
$CMLJUST
 70
     0
  9
$CMLSCALE
 40
20.0
  9
$PROXYGRAPHICS
 70
     1
  9
$MEASUREMENT
 70
     1
  9
$CELWEIGHT
370
    -1
  9
$ENDCAPS
280
     0
  9
$JOINSTYLE
280
     0
  9
$LWDISPLAY
290
     1
  9
$INSUNITS
 70
     4
  9
$HYPERLINKBASE
  1

  9
$STYLESHEET
  1

  9
$XEDIT
290
     0
  9
$CEPSNTYPE
380
     0
  9
$PSTYLEMODE
290
     1
  9
$FINGERPRINTGUID
  2
{D60326B7-D982-4058-9853-ED9121415528}
  9
$VERSIONGUID
  2
{FAEB1C32-E019-11D5-929B-00C0DF256EC4}
  9
$EXTNAMES
290
     1
  9
$PSVPSCALE
 40
0.0
  9
$OLESTARTUP
290
     0
  9
$SORTENTS
280
   127
  9
$INDEXCTL
280
     0
  9
$HIDETEXT
280
     1
  9
$XCLIPFRAME
290
     0
  9
$HALOGAP
280
     0
  9
$OBSCOLOR
 70
   257
  9
$OBSLTYPE
280
     0
  9
$INTERSECTIONDISPLAY
280
     0
  9
$INTERSECTIONCOLOR
 70
   257
  9
$DIMASSOC
280
     2
  9
$PROJECTNAME
  1

  9
$CAMERADISPLAY
290
     0
  9
$LENSLENGTH
 40
50.0
  9
$CAMERAHEIGHT
 40
0.0
  9
$STEPSPERSEC
 40
2.0
  9
$STEPSIZE
 40
6.0
  9
$3DDWFPREC
 40
2.0
  9
$PSOLWIDTH
 40
0.25
  9
$PSOLHEIGHT
 40
4.0
  9
$LOFTANG1
 40
1.570796326794897
  9
$LOFTANG2
 40
1.570796326794897
  9
$LOFTMAG1
 40
0.0
  9
$LOFTMAG2
 40
0.0
  9
$LOFTPARAM
 70
     7
  9
$LOFTNORMALS
280
     1
  9
$LATITUDE
 40
37.795
  9
$LONGITUDE
 40
-122.394
  9
$NORTHDIRECTION
 40
0.0
  9
$TIMEZONE
 70
 -8000
  9
$LIGHTGLYPHDISPLAY
280
     1
  9
$TILEMODELIGHTSYNCH
280
     1
  9
$SOLIDHIST
280
     1
  9
$SHOWHIST
280
     1
  9
$DWFFRAME
280
     2
  9
$DGNFRAME
280
     2
  9
$REALWORLDSCALE
290
     1
  9
$INTERFERECOLOR
 62
   256
  9
$CSHADOW
280
     0
  9
$SHADOWPLANELOCATION
 40
0.0
  0
ENDSEC
  0
SECTION
  2
CLASSES
  0
CLASS
  1
ACDBDICTIONARYWDFLT
  2
AcDbDictionaryWithDefault
  3
ObjectDBX Classes
 90
        0
 91
        4
280
     0
281
     0
  0
CLASS
  1
ACDBPLACEHOLDER
  2
AcDbPlaceHolder
  3
ObjectDBX Classes
 90
        0
 91
        1
280
     0
281
     0
  0
CLASS
  1
LAYOUT
  2
AcDbLayout
  3
ObjectDBX Classes
 90
        0
 91
        1
280
     0
281
     0
  0
CLASS
  1
DICTIONARYVAR
  2
AcDbDictionaryVar
  3
ObjectDBX Classes
 90
        0
 91
        4
280
     0
281
     0
  0
CLASS
  1
TABLESTYLE
  2
AcDbTableStyle
  3
ObjectDBX Classes
 90
     4095
 91
        4
280
     0
281
     0
  0
CLASS
  1
SCALE
  2
AcDbScale
  3
ObjectDBX Classes
 90
     1153
 91
        4
280
     0
281
     0
  0
ENDSEC
  0
SECTION
  2
TABLES
  0
TABLE
  2
VPORT
  5
8
330
0
100
AcDbSymbolTable
 70
     2
  0
VPORT
  5
97
330
8
100
AcDbSymbolTableRecord
100
AcDbViewportTableRecord
  2
*Active
 70
     0
 10
0.0
 20
0.0
 11
1.0
 21
1.0
 12
1575.0
 22
2227.5
 13
0.0
 23
0.0
 14
10.0
 24
10.0
 15
10.0
 25
10.0
 16
0.0
 26
0.0
 36
1.0
 17
0.0
 27
0.0
 37
0.0
 40
4455.0
 41
0.7070707071000001
 42
50.0
 43
0.0
 44
0.0
 50
0.0
 51
0.0
 71
    16
 72
  2000
 73
     1
 74
     3
 75
     0
 76
     0
 77
     0
 78
     0
281
     0
 65
     0
110
0.0
120
0.0
130
0.0
111
1.0
121
0.0
131
0.0
112
0.0
122
1.0
132
0.0
 79
     0
146
0.0
 60
     3
 61
     5
292
     1
282
     1
141
0.0
142
0.0
 63
   256
  0
ENDTAB
  0
TABLE
  2
LTYPE
  5
5
330
0
100
AcDbSymbolTable
 70
     6
  0
LTYPE
  5
14
330
5
100
AcDbSymbolTableRecord
100
AcDbLinetypeTableRecord
  2
ByBlock
 70
     0
  3

 72
    65
 73
     0
 40
0.0
  0
LTYPE
  5
15
330
5
100
AcDbSymbolTableRecord
100
AcDbLinetypeTableRecord
  2
ByLayer
 70
     0
  3

 72
    65
 73
     0
 40
0.0
  0
LTYPE
  5
16
330
5
100
AcDbSymbolTableRecord
100
AcDbLinetypeTableRecord
  2
Continuous
 70
     0
  3
Solid line
 72
    65
 73
     0
 40
0.0
  0
LTYPE
  5
25B
330
5
100
AcDbSymbolTableRecord
100
AcDbLinetypeTableRecord
  2
HIDDEN
 70
     0
  3
Hidden __ __ __ __ __ __ __ __ __ __ __ __ __ __
 72
    65
 73
     2
 40
1.905
 49
1.27
 74
     4
 75
     0
340
0
 46
1.0
 50
0.0
 44
0.0
 45
0.0
 49
-0.635
 74
     4
 75
     0
340
0
 46
1.0
 50
0.0
 44
0.0
 45
0.0
  0
LTYPE
  5
25C
330
5
100
AcDbSymbolTableRecord
100
AcDbLinetypeTableRecord
  2
PHANTOM
 70
     0
  3
Phantom ______  __  __  ______  __  __  ______
 72
    65
 73
     6
 40
12.7
 49
6.35
 74
     4
 75
     0
340
0
 46
1.0
 50
0.0
 44
0.0
 45
0.0
 49
-1.27
 74
     4
 75
     0
340
0
 46
1.0
 50
0.0
 44
0.0
 45
0.0
 49
1.27
 74
     4
 75
     0
340
0
 46
1.0
 50
0.0
 44
0.0
 45
0.0
 49
-1.27
 74
     4
 75
     0
340
0
 46
1.0
 50
0.0
 44
0.0
 45
0.0
 49
1.27
 74
     4
 75
     0
340
0
 46
1.0
 50
0.0
 44
0.0
 45
0.0
 49
-1.27
 74
     4
 75
     0
340
0
 46
1.0
 50
0.0
 44
0.0
 45
0.0
  0
LTYPE
  5
25D
330
5
100
AcDbSymbolTableRecord
100
AcDbLinetypeTableRecord
  2
CENTER
 70
     0
  3
Center ____ _ ____ _ ____ _ ____ _ ____ _ ____
 72
    65
 73
     4
 40
10.16
 49
6.35
 74
     4
 75
     0
340
0
 46
1.0
 50
0.0
 44
0.0
 45
0.0
 49
-1.27
 74
     4
 75
     0
340
0
 46
1.0
 50
0.0
 44
0.0
 45
0.0
 49
1.27
 74
     4
 75
     0
340
0
 46
1.0
 50
0.0
 44
0.0
 45
0.0
 49
-1.27
 74
     4
 75
     0
340
0
 46
1.0
 50
0.0
 44
0.0
 45
0.0
  0
LTYPE
  5
25E
330
5
100
AcDbSymbolTableRecord
100
AcDbLinetypeTableRecord
  2
CENTERX2
 70
     0
  3
Center (2x) ________  __  ________  __  _____
 72
    65
 73
     4
 40
20.32
 49
12.7
 74
     4
 75
     0
340
0
 46
1.0
 50
0.0
 44
0.0
 45
0.0
 49
-2.54
 74
     4
 75
     0
340
0
 46
1.0
 50
0.0
 44
0.0
 45
0.0
 49
2.54
 74
     4
 75
     0
340
0
 46
1.0
 50
0.0
 44
0.0
 45
0.0
 49
-2.54
 74
     4
 75
     0
340
0
 46
1.0
 50
0.0
 44
0.0
 45
0.0
  0
LTYPE
  5
25F
330
5
100
AcDbSymbolTableRecord
100
AcDbLinetypeTableRecord
  2
DOT2
 70
     0
  3
Dot (.5x) ........................................
 72
    65
 73
     2
 40
0.635
 49
0.0
 74
     4
 75
     0
340
0
 46
1.0
 50
0.0
 44
0.0
 45
0.0
 49
-0.635
 74
     4
 75
     0
340
0
 46
1.0
 50
0.0
 44
0.0
 45
0.0
  0
ENDTAB
  0
TABLE
  2
LAYER
  5
2
330
0
100
AcDbSymbolTable
 70
     1
  0
LAYER
  5
10
330
2
100
AcDbSymbolTableRecord
100
AcDbLayerTableRecord
  2
0
 70
     0
 62
     7
  6
Continuous
370
    -3
390
F
347
0
  0
ENDTAB
  0
TABLE
  2
STYLE
  5
3
330
0
100
AcDbSymbolTable
 70
     4
  0
STYLE
  5
11
330
3
100
AcDbSymbolTableRecord
100
AcDbTextStyleTableRecord
  2
Standard
 70
     0
 40
0.0
 41
1.0
 50
0.0
 71
     0
 42
52.5
  3
txt
  4

  0
STYLE
  5
65
330
3
100
AcDbSymbolTableRecord
100
AcDbTextStyleTableRecord
  2
SLDTEXTSTYLE0
 70
     0
 40
0.0
 41
0.75
 50
0.0
 71
     0
 42
0.2
  3
TXT
  4

  0
STYLE
  5
69
330
3
100
AcDbSymbolTableRecord
100
AcDbTextStyleTableRecord
  2
SLDTEXTSTYLE1
 70
     0
 40
0.0
 41
0.6944444444
 50
0.0
 71
     0
 42
0.2
  3
TXT
  4

  0
STYLE
  5
78
330
3
100
AcDbSymbolTableRecord
100
AcDbTextStyleTableRecord
  2
SLDTEXTSTYLE2
 70
     0
 40
0.0
 41
0.605
 50
0.0
 71
     0
 42
0.2
  3
TXT
  4

  0
ENDTAB
  0
TABLE
  2
VIEW
  5
6
330
0
100
AcDbSymbolTable
 70
     0
  0
ENDTAB
  0
TABLE
  2
UCS
  5
7
330
0
100
AcDbSymbolTable
 70
     0
  0
ENDTAB
  0
TABLE
  2
APPID
  5
9
330
0
100
AcDbSymbolTable
 70
     1
  0
APPID
  5
12
330
9
100
AcDbSymbolTableRecord
100
AcDbRegAppTableRecord
  2
ACAD
 70
     0
  0
ENDTAB
  0
TABLE
  2
DIMSTYLE
  5
A
330
0
100
AcDbSymbolTable
 70
     5
100
AcDbDimStyleTable
  0
DIMSTYLE
105
27
330
A
100
AcDbSymbolTableRecord
100
AcDbDimStyleTableRecord
  2
Standard
 70
     0
278
     0
340
11
  0
DIMSTYLE
105
260
330
A
100
AcDbSymbolTableRecord
100
AcDbDimStyleTableRecord
  2
ISO-25
 70
     0
 41
2.5
 42
0.625
 43
3.75
 44
1.25
 73
     0
 74
     0
 77
     1
 78
     8
140
2.5
141
2.5
143
0.0393700787
147
0.625
171
     3
172
     1
271
     2
272
     2
274
     3
278
    44
283
     0
284
     8
340
11
  0
DIMSTYLE
105
201
102
{ACAD_REACTORS
330
200
330
21C
102
}
330
A
100
AcDbSymbolTableRecord
100
AcDbDimStyleTableRecord
  2
SLDDIMSTYLE0
 70
     0
 41
49.53
 44
0.0
 45
0.000000001
 73
     0
 74
     0
 77
     1
 78
    12
 79
     3
140
52.5
147
13.125
172
     1
173
     1
271
     3
272
     3
276
     2
284
    12
289
     0
340
65
  0
DIMSTYLE
105
20F
102
{ACAD_REACTORS
330
20E
102
}
330
A
100
AcDbSymbolTableRecord
100
AcDbDimStyleTableRecord
  2
SLDDIMSTYLE1
 70
     0
 41
49.53
 44
0.0
 45
0.000000001
 73
     0
 74
     0
 77
     1
 78
    12
 79
     3
140
52.5
147
13.125
172
     1
173
     1
271
     0
272
     0
276
     2
284
    12
289
     0
340
65
  0
DIMSTYLE
105
229
102
{ACAD_REACTORS
330
228
102
}
330
A
100
AcDbSymbolTableRecord
100
AcDbDimStyleTableRecord
  2
SLDDIMSTYLE2
 70
     0
 41
49.53
 44
0.0
 45
0.000000001
 73
     0
 74
     0
 77
     1
 78
    12
 79
     3
140
52.5
147
13.125
173
     1
271
     3
272
     3
276
     2
284
    12
340
65
  0
ENDTAB
  0
TABLE
  2
BLOCK_RECORD
  5
1
330
0
100
AcDbSymbolTable
 70
     5
  0
BLOCK_RECORD
  5
1F
102
{ACAD_XDICTIONARY
360
291
102
}
330
1
100
AcDbSymbolTableRecord
100
AcDbBlockTableRecord
  2
*Model_Space
340
22
 70
     0
280
     1
281
     0
  0
BLOCK_RECORD
  5
73
330
1
100
AcDbSymbolTableRecord
100
AcDbBlockTableRecord
  2
*Paper_Space
340
74
 70
     0
280
     1
281
     0
  0
BLOCK_RECORD
  5
23
330
1
100
AcDbSymbolTableRecord
100
AcDbBlockTableRecord
  2
*Paper_Space0
340
26
 70
     0
280
     1
281
     0
  0
BLOCK_RECORD
  5
202
330
1
100
AcDbSymbolTableRecord
100
AcDbBlockTableRecord
  2
_D
340
0
 70
     0
280
     1
281
     0
  0
BLOCK_RECORD
  5
210
330
1
100
AcDbSymbolTableRecord
100
AcDbBlockTableRecord
  2
_D_1
340
0
 70
     0
280
     1
281
     0
  0
BLOCK_RECORD
  5
21D
330
1
100
AcDbSymbolTableRecord
100
AcDbBlockTableRecord
  2
_D_2
340
0
 70
     0
280
     1
281
     0
  0
BLOCK_RECORD
  5
22A
330
1
100
AcDbSymbolTableRecord
100
AcDbBlockTableRecord
  2
_D_3
340
0
 70
     0
280
     1
281
     0
  0
ENDTAB
  0
ENDSEC
  0
SECTION
  2
BLOCKS
  0
BLOCK
  5
20
330
1F
100
AcDbEntity
  8
0
100
AcDbBlockBegin
  2
*Model_Space
 70
     0
 10
0.0
 20
0.0
 30
0.0
  3
*Model_Space
  1

  0
ENDBLK
  5
21
330
1F
100
AcDbEntity
  8
0
100
AcDbBlockEnd
  0
BLOCK
  5
75
330
73
100
AcDbEntity
 67
     1
  8
0
100
AcDbBlockBegin
  2
*Paper_Space
 70
     0
 10
0.0
 20
0.0
 30
0.0
  3
*Paper_Space
  1

  0
ENDBLK
  5
76
330
73
100
AcDbEntity
 67
     1
  8
0
100
AcDbBlockEnd
  0
BLOCK
  5
261
330
23
100
AcDbEntity
  8
0
100
AcDbBlockBegin
  2
*Paper_Space0
 70
     0
 10
0.0
 20
0.0
 30
0.0
  3
*Paper_Space0
  1

  0
ENDBLK
  5
262
330
23
100
AcDbEntity
  8
0
100
AcDbBlockEnd
  0
BLOCK
  5
263
330
202
100
AcDbEntity
  8
0
100
AcDbBlockBegin
  2
_D
 70
     0
 10
0.0
 20
0.0
 30
0.0
  3
_D
  1

  0
SOLID
  5
205
330
202
100
AcDbEntity
  8
0
  6
Continuous
 62
     7
370
     0
100
AcDbTrace
 10
1505.3430641803
 20
4236.5625464574
 30
0.0
 11
1455.8130641803
 21
4244.1825464574
 31
0.0
 12
1455.8130641803
 22
4228.9425464574
 32
0.0
 13
1455.8130641803
 23
4228.9425464574
 33
0.0
  0
SOLID
  5
206
330
202
100
AcDbEntity
  8
0
  6
Continuous
 62
     7
370
     0
100
AcDbTrace
 10
1855.3430641803
 20
4236.5625464574
 30
0.0
 11
1904.8730641803
 21
4228.9425464574
 31
0.0
 12
1904.8730641803
 22
4244.1825464574
 32
0.0
 13
1904.8730641803
 23
4244.1825464574
 33
0.0
  0
LINE
  5
207
330
202
100
AcDbEntity
  8
0
  6
Continuous
 62
     7
370
     0
100
AcDbLine
 10
1505.3430641803
 20
3722.2539672929
 30
0.0
 11
1505.3430641803
 21
4251.5625464574
 31
0.0
  0
LINE
  5
208
330
202
100
AcDbEntity
  8
0
  6
Continuous
 62
     7
370
     0
100
AcDbLine
 10
1855.3430641803
 20
3722.2539672929
 30
0.0
 11
1855.3430641803
 21
4251.5625464574
 31
0.0
  0
LINE
  5
209
330
202
100
AcDbEntity
  8
0
  6
Continuous
 62
     7
370
     0
100
AcDbLine
 10
1505.3430641803
 20
4236.5625464574
 30
0.0
 11
1410.0930641803
 21
4236.5625464574
 31
0.0
  0
LINE
  5
20A
330
202
100
AcDbEntity
  8
0
  6
Continuous
 62
     7
370
     0
100
AcDbLine
 10
1505.3430641803
 20
4236.5625464574
 30
0.0
 11
1855.3430641803
 21
4236.5625464574
 31
0.0
  0
LINE
  5
20B
330
202
100
AcDbEntity
  8
0
  6
Continuous
 62
     7
370
     0
100
AcDbLine
 10
1855.3430641803
 20
4236.5625464574
 30
0.0
 11
1950.5930641803
 21
4236.5625464574
 31
0.0
  0
MTEXT
  5
20C
330
202
100
AcDbEntity
  8
0
  6
Continuous
 62
     7
370
     0
100
AcDbMText
 10
1567.7081397948
 20
4304.2386027954
 30
0.1264036807
 40
52.5
 41
0.0
 46
0.0
 71
     1
 72
     1
  1
%%c
  7
SLDTEXTSTYLE0
 73
     1
 44
1.0
  0
MTEXT
  5
20D
330
202
100
AcDbEntity
  8
0
  6
Continuous
 62
     7
370
     0
100
AcDbMText
 10
1646.8847007704
 20
4305.0406854453
 30
0.1264036807
 40
52.5
 41
0.0
 46
0.0
 71
     1
 72
     1
  1
350
  7
SLDTEXTSTYLE0
 73
     1
 44
1.0
  0
ENDBLK
  5
264
330
202
100
AcDbEntity
  8
0
100
AcDbBlockEnd
  0
BLOCK
  5
265
330
210
100
AcDbEntity
  8
0
100
AcDbBlockBegin
  2
_D_1
 70
     0
 10
0.0
 20
0.0
 30
0.0
  3
_D_1
  1

  0
SOLID
  5
213
330
210
100
AcDbEntity
  8
0
  6
Continuous
 62
     7
370
     0
100
AcDbTrace
 10
1585.3430641803
 20
4096.193852044
 30
0.0
 11
1535.8130641803
 21
4103.813852044
 31
0.0
 12
1535.8130641803
 22
4088.573852044
 32
0.0
 13
1535.8130641803
 23
4088.573852044
 33
0.0
  0
SOLID
  5
214
330
210
100
AcDbEntity
  8
0
  6
Continuous
 62
     7
370
     0
100
AcDbTrace
 10
1775.3394468714
 20
4096.193852044
 30
0.0
 11
1824.8694468714
 21
4088.573852044
 31
0.0
 12
1824.8694468714
 22
4103.813852044
 32
0.0
 13
1824.8694468714
 23
4103.813852044
 33
0.0
  0
LINE
  5
215
330
210
100
AcDbEntity
  8
0
  6
Continuous
 62
     7
370
     0
100
AcDbLine
 10
1585.3430641803
 20
3987.2539672928
 30
0.0
 11
1585.3430641803
 21
4111.193852044
 31
0.0
  0
LINE
  5
216
330
210
100
AcDbEntity
  8
0
  6
Continuous
 62
     7
370
     0
100
AcDbLine
 10
1775.3394468714
 20
3987.2539672928
 30
0.0
 11
1775.3394468714
 21
4111.193852044
 31
0.0
  0
LINE
  5
217
330
210
100
AcDbEntity
  8
0
  6
Continuous
 62
     7
370
     0
100
AcDbLine
 10
1585.3430641803
 20
4096.193852044
 30
0.0
 11
1490.0930641803
 21
4096.193852044
 31
0.0
  0
LINE
  5
218
330
210
100
AcDbEntity
  8
0
  6
Continuous
 62
     7
370
     0
100
AcDbLine
 10
1585.3430641803
 20
4096.193852044
 30
0.0
 11
1775.3394468714
 21
4096.193852044
 31
0.0
  0
LINE
  5
219
330
210
100
AcDbEntity
  8
0
  6
Continuous
 62
     7
370
     0
100
AcDbLine
 10
1775.3394468714
 20
4096.193852044
 30
0.0
 11
1870.5894468714
 21
4096.193852044
 31
0.0
  0
MTEXT
  5
21A
330
210
100
AcDbEntity
  8
0
  6
Continuous
 62
     7
370
     0
100
AcDbMText
 10
1567.7081397948
 20
4163.869908382
 30
0.1264036807
 40
52.5
 41
0.0
 46
0.0
 71
     1
 72
     1
  1
%%c
  7
SLDTEXTSTYLE0
 73
     1
 44
1.0
  0
MTEXT
  5
21B
330
210
100
AcDbEntity
  8
0
  6
Continuous
 62
     7
370
     0
100
AcDbMText
 10
1646.8847007704
 20
4164.6719910319
 30
0.1264036807
 40
52.5
 41
0.0
 46
0.0
 71
     1
 72
     1
  1
190
  7
SLDTEXTSTYLE0
 73
     1
 44
1.0
  0
ENDBLK
  5
266
330
210
100
AcDbEntity
  8
0
100
AcDbBlockEnd
  0
BLOCK
  5
267
330
21D
100
AcDbEntity
  8
0
100
AcDbBlockBegin
  2
_D_2
 70
     0
 10
0.0
 20
0.0
 30
0.0
  3
_D_2
  1

  0
SOLID
  5
220
330
21D
100
AcDbEntity
  8
0
  6
Continuous
 62
     7
370
     0
100
AcDbTrace
 10
2006.0087987777
 20
3972.2539672928
 30
0.0
 11
2013.6287987777
 21
4021.7839672928
 31
0.0
 12
1998.3887987777
 22
4021.7839672928
 32
0.0
 13
1998.3887987777
 23
4021.7839672928
 33
0.0
  0
SOLID
  5
221
330
21D
100
AcDbEntity
  8
0
  6
Continuous
 62
     7
370
     0
100
AcDbTrace
 10
2006.0087987777
 20
3705.2539672929
 30
0.0
 11
1998.3887987777
 21
3655.7239672928
 31
0.0
 12
2013.6287987777
 22
3655.7239672928
 32
0.0
 13
2013.6287987777
 23
3655.7239672928
 33
0.0
  0
LINE
  5
222
330
21D
100
AcDbEntity
  8
0
  6
Continuous
 62
     7
370
     0
100
AcDbLine
 10
1790.3394468714
 20
3972.2539672928
 30
0.0
 11
2021.0087987777
 21
3972.2539672928
 31
0.0
  0
LINE
  5
223
330
21D
100
AcDbEntity
  8
0
  6
Continuous
 62
     7
370
     0
100
AcDbLine
 10
1870.3430641803
 20
3705.2539672929
 30
0.0
 11
2021.0087987777
 21
3705.2539672929
 31
0.0
  0
LINE
  5
224
330
21D
100
AcDbEntity
  8
0
  6
Continuous
 62
     7
370
     0
100
AcDbLine
 10
2006.0087987777
 20
3972.2539672928
 30
0.0
 11
2006.0087987777
 21
4067.5039672929
 31
0.0
  0
LINE
  5
225
330
21D
100
AcDbEntity
  8
0
  6
Continuous
 62
     7
370
     0
100
AcDbLine
 10
2006.0087987777
 20
3972.2539672928
 30
0.0
 11
2006.0087987777
 21
3705.2539672929
 31
0.0
  0
LINE
  5
226
330
21D
100
AcDbEntity
  8
0
  6
Continuous
 62
     7
370
     0
100
AcDbLine
 10
2006.0087987777
 20
3705.2539672929
 30
0.0
 11
2006.0087987777
 21
3610.0039672929
 31
0.0
  0
MTEXT
  5
227
330
21D
100
AcDbEntity
  8
0
  6
Continuous
 62
     7
370
     0
100
AcDbMText
 10
1938.332745059
 20
3806.3415099457
 30
0.1264036807
 40
52.5
 41
0.0
 46
0.0
 71
     1
 72
     1
  1
270
  7
SLDTEXTSTYLE0
 11
-7.044195017643634E-15
 21
1.0
 31
0.0
 73
     1
 44
1.0
  0
ENDBLK
  5
268
330
21D
100
AcDbEntity
  8
0
100
AcDbBlockEnd
  0
BLOCK
  5
269
330
22A
100
AcDbEntity
  8
0
100
AcDbBlockBegin
  2
_D_3
 70
     0
 10
0.0
 20
0.0
 30
0.0
  3
_D_3
  1

  0
SOLID
  5
22D
330
22A
100
AcDbEntity
  8
0
  6
Continuous
 62
     7
370
     0
100
AcDbTrace
 10
2006.0087987777
 20
3705.2539672929
 30
0.0
 11
1998.3887987777
 21
3655.7239672928
 31
0.0
 12
2013.6287987777
 22
3655.7239672928
 32
0.0
 13
2013.6287987777
 23
3655.7239672928
 33
0.0
  0
SOLID
  5
22E
330
22A
100
AcDbEntity
  8
0
  6
Continuous
 62
     7
370
     0
100
AcDbTrace
 10
2006.0087987777
 20
1255.2539672928
 30
0.0
 11
2013.6287987777
 21
1304.7839672928
 31
0.0
 12
1998.3887987777
 22
1304.7839672928
 32
0.0
 13
1998.3887987777
 23
1304.7839672928
 33
0.0
  0
LINE
  5
22F
330
22A
100
AcDbEntity
  8
0
  6
Continuous
 62
     7
370
     0
100
AcDbLine
 10
1870.3430641803
 20
3705.2539672929
 30
0.0
 11
2021.0087987777
 21
3705.2539672929
 31
0.0
  0
LINE
  5
230
330
22A
100
AcDbEntity
  8
0
  6
Continuous
 62
     7
370
     0
100
AcDbLine
 10
1749.1291131761
 20
1255.2539672928
 30
0.0
 11
2021.0087987777
 21
1255.2539672928
 31
0.0
  0
LINE
  5
231
330
22A
100
AcDbEntity
  8
0
  6
Continuous
 62
     7
370
     0
100
AcDbLine
 10
2006.0087987777
 20
3705.2539672929
 30
0.0
 11
2006.0087987777
 21
1255.2539672928
 31
0.0
  0
MTEXT
  5
232
330
22A
100
AcDbEntity
  8
0
  6
Continuous
 62
     7
370
     0
100
AcDbMText
 10
1938.332745059
 20
2358.3928938169
 30
0.1264036807
 40
52.5
 41
0.0
 46
0.0
 71
     1
 72
     1
  1
2450
  7
SLDTEXTSTYLE0
 11
-7.044195017643634E-15
 21
1.0
 31
0.0
 73
     1
 44
1.0
  0
ENDBLK
  5
26A
330
22A
100
AcDbEntity
  8
0
100
AcDbBlockEnd
  0
ENDSEC
  0
SECTION
  2
ENTITIES
  0
LINE
  5
80
330
1F
100
AcDbEntity
  8
0
  6
Continuous
 62
     7
370
    15
100
AcDbLine
 10
1843.1607211741
 20
2532.1386221811
 30
0.0
 11
1822.9647452744
 21
2545.1873902246
 31
0.0
  0
LINE
  5
81
330
1F
100
AcDbEntity
  8
0
  6
Continuous
 62
     7
370
    15
100
AcDbLine
 10
1534.2934901627
 20
2545.1873902246
 30
0.0
 11
1514.0974993619
 21
2532.1386221811
 31
0.0
  0
LINE
  5
82
330
1F
100
AcDbEntity
  8
0
  6
Continuous
 62
     7
370
    15
100
AcDbLine
 10
1514.0974993619
 20
2532.1386221811
 30
0.0
 11
1641.6291135164
 21
2334.7540263101
 31
0.0
  0
LINE
  5
83
330
1F
100
AcDbEntity
  8
0
  6
Continuous
 62
     7
370
    15
100
AcDbLine
 10
1715.6291144701
 20
2334.7540263101
 30
0.0
 11
1843.1607211741
 21
2532.1386221811
 31
0.0
  0
LINE
  5
84
330
1F
100
AcDbEntity
  8
0
  6
Continuous
 62
     7
370
    15
100
AcDbLine
 10
1519.4238896283
 20
1747.028029339
 30
0.0
 11
1539.0694017323
 21
1735.0675228998
 31
0.0
  0
LINE
  5
85
330
1F
100
AcDbEntity
  8
0
  6
Continuous
 62
     7
370
    15
100
AcDbLine
 10
1818.1888188037
 20
1735.0675228998
 30
0.0
 11
1837.8343309077
 21
1747.028029339
 31
0.0
  0
LINE
  5
86
330
1F
100
AcDbEntity
  8
0
  6
Continuous
 62
     7
370
    15
100
AcDbLine
 10
1837.8343309077
 20
1747.028029339
 30
0.0
 11
1716.293482742
 21
1946.6627005502
 31
0.0
  0
LINE
  5
87
330
1F
100
AcDbEntity
  8
0
  6
Continuous
 62
     7
370
    15
100
AcDbLine
 10
1641.6291135164
 20
1947.7539423868
 30
0.0
 11
1519.4238896283
 21
1747.028029339
 31
0.0
  0
LINE
  5
88
330
1F
100
AcDbEntity
  8
0
  6
Continuous
 62
     7
370
    15
100
AcDbLine
 10
1521.8999410781
 20
3097.5413683816
 30
0.0
 11
1541.69094812
 21
3085.8232144281
 31
0.0
  0
LINE
  5
89
330
1F
100
AcDbEntity
  8
0
  6
Continuous
 62
     7
370
    15
100
AcDbLine
 10
1815.567272416
 20
3085.8232144281
 30
0.0
 11
1835.3582943591
 21
3097.5413683816
 31
0.0
  0
LINE
  5
8A
330
1F
100
AcDbEntity
  8
0
  6
Continuous
 62
     7
370
    15
100
AcDbLine
 10
1835.3582943591
 20
3097.5413683816
 30
0.0
 11
1715.6291144701
 21
3299.7539702817
 31
0.0
  0
LINE
  5
8B
330
1F
100
AcDbEntity
  8
0
  6
Continuous
 62
     7
370
    15
100
AcDbLine
 10
1641.6291135164
 20
3299.7539702817
 30
0.0
 11
1521.8999410781
 21
3097.5413683816
 31
0.0
  0
LINE
  5
8C
330
1F
100
AcDbEntity
  8
0
  6
Continuous
 62
     7
370
    15
100
AcDbLine
 10
1524.4380260619
 20
3068.9052704736
 30
0.0
 11
1641.6291135164
 21
2945.753968136
 31
0.0
  0
LINE
  5
8D
330
1F
100
AcDbEntity
  8
0
  6
Continuous
 62
     7
370
    15
100
AcDbLine
 10
1715.6291144701
 20
2945.753968136
 30
0.0
 11
1832.8202093753
 21
3068.9052704736
 31
0.0
  0
LINE
  5
8E
330
1F
100
AcDbEntity
  8
0
  6
Continuous
 62
     7
370
    15
100
AcDbLine
 10
1832.8202093753
 20
3068.9052704736
 30
0.0
 11
1815.567272416
 21
3085.3231910631
 31
0.0
  0
LINE
  5
8F
330
1F
100
AcDbEntity
  8
0
  6
Continuous
 62
     7
370
    15
100
AcDbLine
 10
1541.69094812
 20
3085.3231910631
 30
0.0
 11
1524.4380260619
 21
3068.9052704736
 31
0.0
  0
LINE
  5
90
330
1F
100
AcDbEntity
  8
0
  6
Continuous
 62
     7
370
    15
100
AcDbLine
 10
1831.5639073762
 20
2567.0193795129
 30
0.0
 11
1715.6291144701
 21
2613.7539509698
 31
0.0
  0
LINE
  5
91
330
1F
100
AcDbEntity
  8
0
  6
Continuous
 62
     7
370
    15
100
AcDbLine
 10
1641.6291135164
 20
2613.7539509698
 30
0.0
 11
1525.6943131598
 21
2567.0193795129
 31
0.0
  0
LINE
  5
26B
330
1F
100
AcDbEntity
  8
0
  6
Continuous
 62
     7
370
    15
100
AcDbLine
 10
1525.6943131598
 20
2567.0193795129
 30
0.0
 11
1534.2934901627
 21
2545.687353985
 31
0.0
  0
LINE
  5
26C
330
1F
100
AcDbEntity
  8
0
  6
Continuous
 62
     7
370
    15
100
AcDbLine
 10
1822.9647452744
 20
2545.687353985
 30
0.0
 11
1831.5639073762
 21
2567.0193795129
 31
0.0
  0
LINE
  5
94
330
1F
100
AcDbEntity
  8
0
  6
Continuous
 62
     7
370
    15
100
AcDbLine
 10
1528.3596689614
 20
1711.6220358774
 30
0.0
 11
1641.6291135164
 21
1658.7539080545
 31
0.0
  0
LINE
  5
95
330
1F
100
AcDbEntity
  8
0
  6
Continuous
 62
     7
370
    15
100
AcDbLine
 10
1715.6291144701
 20
1658.7539080545
 30
0.0
 11
1828.8985515746
 21
1711.6220358774
 31
0.0
  0
LINE
  5
96
330
1F
100
AcDbEntity
  8
0
  6
Continuous
 62
     7
370
    15
100
AcDbLine
 10
1828.8985515746
 20
1711.6220358774
 30
0.0
 11
1818.1888188037
 21
1734.5675591394
 31
0.0
  0
LINE
  5
26D
330
1F
100
AcDbEntity
  8
0
  6
Continuous
 62
     7
370
    15
100
AcDbLine
 10
1539.0694017323
 20
1734.5675591394
 30
0.0
 11
1528.3596689614
 21
1711.6220358774
 31
0.0
  0
LINE
  5
26E
330
1F
100
AcDbEntity
  8
0
  6
Continuous
 62
     7
370
    15
100
AcDbLine
 10
1534.2934901627
 20
2545.687353985
 30
0.0
 11
1534.2934901627
 21
2545.1873902246
 31
0.0
  0
LINE
  5
26F
330
1F
100
AcDbEntity
  8
0
  6
Continuous
 62
     7
370
    15
100
AcDbLine
 10
1822.9647452744
 20
2545.1873902246
 30
0.0
 11
1822.9647452744
 21
2545.687353985
 31
0.0
  0
LINE
  5
270
330
1F
100
AcDbEntity
  8
0
  6
Continuous
 62
     7
370
    15
100
AcDbLine
 10
1539.0694017323
 20
1735.0675228998
 30
0.0
 11
1539.0694017323
 21
1734.5675591394
 31
0.0
  0
LINE
  5
271
330
1F
100
AcDbEntity
  8
0
  6
Continuous
 62
     7
370
    15
100
AcDbLine
 10
1818.1888188037
 20
1734.5675591394
 30
0.0
 11
1818.1888188037
 21
1735.0675228998
 31
0.0
  0
LINE
  5
272
330
1F
100
AcDbEntity
  8
0
  6
Continuous
 62
     7
370
    15
100
AcDbLine
 10
1541.69094812
 20
3085.8232144281
 30
0.0
 11
1541.69094812
 21
3085.3231910631
 31
0.0
  0
LINE
  5
273
330
1F
100
AcDbEntity
  8
0
  6
Continuous
 62
     7
370
    15
100
AcDbLine
 10
1815.567272416
 20
3085.3231910631
 30
0.0
 11
1815.567272416
 21
3085.8232144281
 31
0.0
  0
LINE
  5
274
330
1F
100
AcDbEntity
  8
0
  6
Continuous
 62
     7
370
    15
100
AcDbLine
 10
1812.9611636313
 20
2792.1328309938
 30
0.0
 11
1793.4448445948
 21
2805.7616118356
 31
0.0
  0
LINE
  5
275
330
1F
100
AcDbEntity
  8
0
  6
Continuous
 62
     7
370
    15
100
AcDbLine
 10
1563.8133833917
 20
2805.7616118356
 30
0.0
 11
1544.2970718058
 21
2792.1328309938
 31
0.0
  0
LINE
  5
276
330
1F
100
AcDbEntity
  8
0
  6
Continuous
 62
     7
370
    15
100
AcDbLine
 10
1544.2970718058
 20
2792.1328309938
 30
0.0
 11
1641.6291135164
 21
2652.7539853021
 31
0.0
  0
LINE
  5
277
330
1F
100
AcDbEntity
  8
0
  6
Continuous
 62
     7
370
    15
100
AcDbLine
 10
1715.6291144701
 20
2652.7539853021
 30
0.0
 11
1812.9611636313
 21
2792.1328309938
 31
0.0
  0
LINE
  5
278
330
1F
100
AcDbEntity
  8
0
  6
Continuous
 62
     7
370
    15
100
AcDbLine
 10
1545.1882655534
 20
1507.0531729623
 30
0.0
 11
1641.6291135164
 21
1292.753970997
 31
0.0
  0
LINE
  5
279
330
1F
100
AcDbEntity
  8
0
  6
Continuous
 62
     7
370
    15
100
AcDbLine
 10
1715.842622033
 20
1293.2284239694
 30
0.0
 11
1812.0699549826
 21
1507.0531729623
 31
0.0
  0
LINE
  5
27A
330
1F
100
AcDbEntity
  8
0
  6
Continuous
 62
     7
370
    15
100
AcDbLine
 10
1812.0699549826
 20
1507.0531729623
 30
0.0
 11
1790.6791890773
 21
1516.6795615121
 31
0.0
  0
LINE
  5
27B
330
1F
100
AcDbEntity
  8
0
  6
Continuous
 62
     7
370
    15
100
AcDbLine
 10
1566.5790389093
 20
1516.6795615121
 30
0.0
 11
1545.1882655534
 21
1507.0531729623
 31
0.0
  0
LINE
  5
27C
330
1F
100
AcDbEntity
  8
0
  6
Continuous
 62
     7
370
    15
100
AcDbLine
 10
1546.8991274747
 20
2127.9142264291
 30
0.0
 11
1641.6291135164
 21
1986.753976719
 31
0.0
  0
LINE
  5
27D
330
1F
100
AcDbEntity
  8
0
  6
Continuous
 62
     7
370
    15
100
AcDbLine
 10
1715.6291144701
 20
1986.753976719
 30
0.0
 11
1810.3591079625
 21
2127.9142264291
 31
0.0
  0
LINE
  5
27E
330
1F
100
AcDbEntity
  8
0
  6
Continuous
 62
     7
370
    15
100
AcDbLine
 10
1810.3591079625
 20
2127.9142264291
 30
0.0
 11
1790.7899047049
 21
2141.0467986032
 31
0.0
  0
LINE
  5
27F
330
1F
100
AcDbEntity
  8
0
  6
Continuous
 62
     7
370
    15
100
AcDbLine
 10
1566.4683232816
 20
2141.0467986032
 30
0.0
 11
1546.8991274747
 21
2127.9142264291
 31
0.0
  0
LINE
  5
280
330
1F
100
AcDbEntity
  8
0
  6
Continuous
 62
     7
370
    15
100
AcDbLine
 10
1546.8991274747
 20
3479.9142543241
 30
0.0
 11
1641.6291135164
 21
3338.7539748117
 31
0.0
  0
LINE
  5
281
330
1F
100
AcDbEntity
  8
0
  6
Continuous
 62
     7
370
    15
100
AcDbLine
 10
1715.6291144701
 20
3338.7539748117
 30
0.0
 11
1810.3591079625
 21
3479.9142543241
 31
0.0
  0
LINE
  5
282
330
1F
100
AcDbEntity
  8
0
  6
Continuous
 62
     7
370
    15
100
AcDbLine
 10
1810.3591079625
 20
3479.9142543241
 30
0.0
 11
1790.7899047049
 21
3493.0467817947
 31
0.0
  0
LINE
  5
283
330
1F
100
AcDbEntity
  8
0
  6
Continuous
 62
     7
370
    15
100
AcDbLine
 10
1566.4683232816
 20
3493.0467817947
 30
0.0
 11
1546.8991274747
 21
3479.9142543241
 31
0.0
  0
LINE
  5
284
330
1F
100
AcDbEntity
  8
0
  6
Continuous
 62
     7
370
    15
100
AcDbLine
 10
1809.9271531018
 20
2154.3047789499
 30
0.0
 11
1715.6291144701
 21
2295.7539919778
 31
0.0
  0
LINE
  5
285
330
1F
100
AcDbEntity
  8
0
  6
Continuous
 62
     7
370
    15
100
AcDbLine
 10
1641.6291135164
 20
2295.7539919778
 30
0.0
 11
1547.3310823354
 21
2154.3047789499
 31
0.0
  0
LINE
  5
286
330
1F
100
AcDbEntity
  8
0
  6
Continuous
 62
     7
370
    15
100
AcDbLine
 10
1547.3310823354
 20
2154.3047789499
 30
0.0
 11
1566.4683232816
 21
2141.5467623636
 31
0.0
  0
LINE
  5
287
330
1F
100
AcDbEntity
  8
0
  6
Continuous
 62
     7
370
    15
100
AcDbLine
 10
1790.7899047049
 20
2141.5467623636
 30
0.0
 11
1809.9271531018
 21
2154.3047789499
 31
0.0
  0
LINE
  5
288
330
1F
100
AcDbEntity
  8
0
  6
Continuous
 62
     7
370
    15
100
AcDbLine
 10
1547.3310823354
 20
3506.3047472402
 30
0.0
 11
1566.4683232816
 21
3493.5467753574
 31
0.0
  0
LINE
  5
289
330
1F
100
AcDbEntity
  8
0
  6
Continuous
 62
     7
370
    15
100
AcDbLine
 10
1790.7899047049
 20
3493.5467753574
 30
0.0
 11
1809.9271531018
 21
3506.3047472402
 31
0.0
  0
LINE
  5
28A
330
1F
100
AcDbEntity
  8
0
  6
Continuous
 62
     7
370
    15
100
AcDbLine
 10
1809.9271531018
 20
3506.3047472402
 30
0.0
 11
1715.6291144701
 21
3647.7539677187
 31
0.0
  0
LINE
  5
28B
330
1F
100
AcDbEntity
  8
0
  6
Continuous
 62
     7
370
    15
100
AcDbLine
 10
1641.6291135164
 20
3647.7539677187
 30
0.0
 11
1547.3310823354
 21
3506.3047472402
 31
0.0
  0
LINE
  5
28C
330
1F
100
AcDbEntity
  8
0
  6
Continuous
 62
     7
370
    15
100
AcDbLine
 10
1808.7816710385
 20
2823.4016660615
 30
0.0
 11
1715.6291144701
 21
2906.7539934083
 31
0.0
  0
LINE
  5
28D
330
1F
100
AcDbEntity
  8
0
  6
Continuous
 62
     7
370
    15
100
AcDbLine
 10
1641.6291135164
 20
2906.7539934083
 30
0.0
 11
1548.4765643986
 21
2823.4016660615
 31
0.0
  0
LINE
  5
28E
330
1F
100
AcDbEntity
  8
0
  6
Continuous
 62
     7
370
    15
100
AcDbLine
 10
1548.4765643986
 20
2823.4016660615
 30
0.0
 11
1563.8133833917
 21
2806.2616352006
 31
0.0
  0
LINE
  5
28F
330
1F
100
AcDbEntity
  8
0
  6
Continuous
 62
     7
370
    15
100
AcDbLine
 10
1793.4448445948
 20
2806.2616352006
 30
0.0
 11
1808.7816710385
 21
2823.4016660615
 31
0.0
  0
LINE
  5
290
330
1F
100
AcDbEntity
  8
0
  6
Continuous
 62
     7
370
    15
100
AcDbLine
 10
1550.7811183842
 20
1533.895767109
 30
0.0
 11
1566.5790389093
 21
1517.1797636911
 31
0.0
  0
LINE
  5
BB
330
1F
100
AcDbEntity
  8
0
  6
Continuous
 62
     7
370
    15
100
AcDbLine
 10
1790.6791890773
 20
1517.1797636911
 30
0.0
 11
1806.4771021518
 21
1533.895767109
 31
0.0
  0
LINE
  5
BC
330
1F
100
AcDbEntity
  8
0
  6
Continuous
 62
     7
370
    15
100
AcDbLine
 10
1806.4771021518
 20
1533.895767109
 30
0.0
 11
1715.6291144701
 21
1619.7538737222
 31
0.0
  0
LINE
  5
BD
330
1F
100
AcDbEntity
  8
0
  6
Continuous
 62
     7
370
    15
100
AcDbLine
 10
1641.6291135164
 20
1619.7538737222
 30
0.0
 11
1550.7811183842
 21
1533.895767109
 31
0.0
  0
LINE
  5
BE
330
1F
100
AcDbEntity
  8
0
  6
Continuous
 62
     7
370
    15
100
AcDbLine
 10
1563.8133833917
 20
2806.2616352006
 30
0.0
 11
1563.8133833917
 21
2805.7616118356
 31
0.0
  0
LINE
  5
BF
330
1F
100
AcDbEntity
  8
0
  6
Continuous
 62
     7
370
    15
100
AcDbLine
 10
1793.4448445948
 20
2805.7616118356
 30
0.0
 11
1793.4448445948
 21
2806.2616352006
 31
0.0
  0
LINE
  5
C0
330
1F
100
AcDbEntity
  8
0
  6
Continuous
 62
     7
370
    15
100
AcDbLine
 10
1566.4683232816
 20
2141.5467623636
 30
0.0
 11
1566.4683232816
 21
2141.0467986032
 31
0.0
  0
LINE
  5
C1
330
1F
100
AcDbEntity
  8
0
  6
Continuous
 62
     7
370
    15
100
AcDbLine
 10
1790.7899047049
 20
2141.0467986032
 30
0.0
 11
1790.7899047049
 21
2141.5467623636
 31
0.0
  0
LINE
  5
C2
330
1F
100
AcDbEntity
  8
0
  6
Continuous
 62
     7
370
    15
100
AcDbLine
 10
1566.4683232816
 20
3493.5467753574
 30
0.0
 11
1566.4683232816
 21
3493.0467817947
 31
0.0
  0
LINE
  5
C3
330
1F
100
AcDbEntity
  8
0
  6
Continuous
 62
     7
370
    15
100
AcDbLine
 10
1790.7899047049
 20
3493.0467817947
 30
0.0
 11
1790.7899047049
 21
3493.5467753574
 31
0.0
  0
LINE
  5
C4
330
1F
100
AcDbEntity
  8
0
  6
Continuous
 62
     7
370
    15
100
AcDbLine
 10
1566.5790389093
 20
1517.1797636911
 30
0.0
 11
1566.5790389093
 21
1516.6795615121
 31
0.0
  0
LINE
  5
C5
330
1F
100
AcDbEntity
  8
0
  6
Continuous
 62
     7
370
    15
100
AcDbLine
 10
1790.6791890773
 20
1516.6795615121
 30
0.0
 11
1790.6791890773
 21
1517.1797636911
 31
0.0
  0
LINE
  5
C6
330
1F
100
AcDbEntity
  8
0
  6
Continuous
 62
     7
370
    15
100
AcDbLine
 10
1618.5998233768
 20
2306.7539099618
 30
0.0
 11
1641.6291135164
 21
2300.7539872094
 31
0.0
  0
LINE
  5
C7
330
1F
100
AcDbEntity
  8
0
  6
Continuous
 62
     7
370
    15
100
AcDbLine
 10
1715.6291144701
 20
2300.7539872094
 30
0.0
 11
1738.6584008845
 21
2306.7539099618
 31
0.0
  0
LINE
  5
C8
330
1F
100
AcDbEntity
  8
0
  6
Continuous
 62
     7
370
    15
100
AcDbLine
 10
1618.5998233768
 20
2323.7539891168
 30
0.0
 11
1618.5998233768
 21
2306.7539099618
 31
0.0
  0
LINE
  5
C9
330
1F
100
AcDbEntity
  8
0
  6
Continuous
 62
     7
370
    15
100
AcDbLine
 10
1738.6584008845
 20
2306.7539099618
 30
0.0
 11
1738.6584008845
 21
2323.7539891168
 31
0.0
  0
LINE
  5
CA
330
1F
100
AcDbEntity
  8
0
  6
Continuous
 62
     7
370
    15
100
AcDbLine
 10
1738.6584008845
 20
2323.7539891168
 30
0.0
 11
1715.6291144701
 21
2329.7539118692
 31
0.0
  0
LINE
  5
CB
330
1F
100
AcDbEntity
  8
0
  6
Continuous
 62
     7
370
    15
100
AcDbLine
 10
1641.6291135164
 20
2329.7539118692
 30
0.0
 11
1618.5998233768
 21
2323.7539891168
 31
0.0
  0
LINE
  5
CC
330
1F
100
AcDbEntity
  8
0
  6
Continuous
 62
     7
370
    15
100
AcDbLine
 10
1623.129113278
 20
1281.754053013
 30
0.0
 11
1623.129113278
 21
1255.2540663644
 31
0.0
  0
LINE
  5
CD
330
1F
100
AcDbEntity
  8
0
  6
Continuous
 62
     7
370
    15
100
AcDbLine
 10
1734.1291147085
 20
1255.2540663644
 30
0.0
 11
1734.1291147085
 21
1281.754053013
 31
0.0
  0
LINE
  5
CE
330
1F
100
AcDbEntity
  8
0
  6
Continuous
 62
     7
370
    15
100
AcDbLine
 10
1734.1291147085
 20
1281.754053013
 30
0.0
 11
1715.6291144701
 21
1287.7538565561
 31
0.0
  0
LINE
  5
CF
330
1F
100
AcDbEntity
  8
0
  6
Continuous
 62
     7
370
    15
100
AcDbLine
 10
1641.6291135164
 20
1287.7538565561
 30
0.0
 11
1623.129113278
 21
1281.754053013
 31
0.0
  0
LINE
  5
D0
330
1F
100
AcDbEntity
  8
0
  6
Continuous
 62
     7
370
    15
100
AcDbLine
 10
1623.129113278
 20
1630.7540301248
 30
0.0
 11
1641.6291135164
 21
1624.7539881631
 31
0.0
  0
LINE
  5
D1
330
1F
100
AcDbEntity
  8
0
  6
Continuous
 62
     7
370
    15
100
AcDbLine
 10
1715.6291144701
 20
1624.7539881631
 30
0.0
 11
1734.1291147085
 21
1630.7540301248
 31
0.0
  0
LINE
  5
D2
330
1F
100
AcDbEntity
  8
0
  6
Continuous
 62
     7
370
    15
100
AcDbLine
 10
1734.1291147085
 20
1647.7539900705
 30
0.0
 11
1715.6291144701
 21
1653.7540320321
 31
0.0
  0
LINE
  5
D3
330
1F
100
AcDbEntity
  8
0
  6
Continuous
 62
     7
370
    15
100
AcDbLine
 10
1641.6291135164
 20
1653.7540320321
 30
0.0
 11
1623.129113278
 21
1647.7539900705
 31
0.0
  0
LINE
  5
D4
330
1F
100
AcDbEntity
  8
0
  6
Continuous
 62
     7
370
    15
100
AcDbLine
 10
1623.129113278
 20
1647.7539900705
 30
0.0
 11
1623.129113278
 21
1630.7540301248
 31
0.0
  0
LINE
  5
D5
330
1F
100
AcDbEntity
  8
0
  6
Continuous
 62
     7
370
    15
100
AcDbLine
 10
1734.1291147085
 20
1630.7540301248
 30
0.0
 11
1734.1291147085
 21
1647.7539900705
 31
0.0
  0
LINE
  5
D6
330
1F
100
AcDbEntity
  8
0
  6
Continuous
 62
     7
370
    15
100
AcDbLine
 10
1734.1291147085
 20
1975.7539395257
 30
0.0
 11
1715.6291144701
 21
1981.7539814874
 31
0.0
  0
LINE
  5
D7
330
1F
100
AcDbEntity
  8
0
  6
Continuous
 62
     7
370
    15
100
AcDbLine
 10
1641.6291135164
 20
1981.7539814874
 30
0.0
 11
1623.129113278
 21
1975.7539395257
 31
0.0
  0
LINE
  5
D8
330
1F
100
AcDbEntity
  8
0
  6
Continuous
 62
     7
370
    15
100
AcDbLine
 10
1623.129113278
 20
3327.7539674207
 30
0.0
 11
1623.129113278
 21
3310.7539776727
 31
0.0
  0
LINE
  5
D9
330
1F
100
AcDbEntity
  8
0
  6
Continuous
 62
     7
370
    15
100
AcDbLine
 10
1734.1291147085
 20
3310.7539776727
 30
0.0
 11
1734.1291147085
 21
3327.7539674207
 31
0.0
  0
LINE
  5
DA
330
1F
100
AcDbEntity
  8
0
  6
Continuous
 62
     7
370
    15
100
AcDbLine
 10
1623.129113278
 20
1958.7539795801
 30
0.0
 11
1641.6291135164
 21
1952.7539376184
 31
0.0
  0
LINE
  5
DB
330
1F
100
AcDbEntity
  8
0
  6
Continuous
 62
     7
370
    15
100
AcDbLine
 10
1715.6291144701
 20
1952.7539376184
 30
0.0
 11
1734.1291147085
 21
1958.7539795801
 31
0.0
  0
LINE
  5
DC
330
1F
100
AcDbEntity
  8
0
  6
Continuous
 62
     7
370
    15
100
AcDbLine
 10
1623.129113278
 20
1975.7539395257
 30
0.0
 11
1623.129113278
 21
1958.7539795801
 31
0.0
  0
LINE
  5
DD
330
1F
100
AcDbEntity
  8
0
  6
Continuous
 62
     7
370
    15
100
AcDbLine
 10
1734.1291147085
 20
1958.7539795801
 30
0.0
 11
1734.1291147085
 21
1975.7539395257
 31
0.0
  0
LINE
  5
DE
330
1F
100
AcDbEntity
  8
0
  6
Continuous
 62
     7
370
    15
100
AcDbLine
 10
1734.1291147085
 20
3327.7539674207
 30
0.0
 11
1715.6291144701
 21
3333.7539795801
 31
0.0
  0
LINE
  5
DF
330
1F
100
AcDbEntity
  8
0
  6
Continuous
 62
     7
370
    15
100
AcDbLine
 10
1641.6291135164
 20
3333.7539795801
 30
0.0
 11
1623.129113278
 21
3327.7539674207
 31
0.0
  0
LINE
  5
E0
330
1F
100
AcDbEntity
  8
0
  6
Continuous
 62
     7
370
    15
100
AcDbLine
 10
1623.129113278
 20
3310.7539776727
 30
0.0
 11
1641.6291135164
 21
3304.7539655134
 31
0.0
  0
LINE
  5
E1
330
1F
100
AcDbEntity
  8
0
  6
Continuous
 62
     7
370
    15
100
AcDbLine
 10
1715.6291144701
 20
3304.7539655134
 30
0.0
 11
1734.1291147085
 21
3310.7539776727
 31
0.0
  0
LINE
  5
E2
330
1F
100
AcDbEntity
  8
0
  6
Continuous
 62
     7
370
    15
100
AcDbLine
 10
1623.129113278
 20
3694.2539669588
 30
0.0
 11
1623.129113278
 21
3658.7539676591
 31
0.0
  0
LINE
  5
E3
330
1F
100
AcDbEntity
  8
0
  6
Continuous
 62
     7
370
    15
100
AcDbLine
 10
1734.1291147085
 20
3658.7539676591
 30
0.0
 11
1734.1291147085
 21
3694.2539669588
 31
0.0
  0
LINE
  5
E4
330
1F
100
AcDbEntity
  8
0
  6
Continuous
 62
     7
370
    15
100
AcDbLine
 10
1623.129113278
 20
3658.7539676591
 30
0.0
 11
1641.6291135164
 21
3652.7539666756
 31
0.0
  0
LINE
  5
E5
330
1F
100
AcDbEntity
  8
0
  6
Continuous
 62
     7
370
    15
100
AcDbLine
 10
1715.6291144701
 20
3652.7539666756
 30
0.0
 11
1734.1291147085
 21
3658.7539676591
 31
0.0
  0
LINE
  5
E6
330
1F
100
AcDbEntity
  8
0
  6
Continuous
 62
     7
370
    15
100
AcDbLine
 10
1623.129113278
 20
2641.7539481088
 30
0.0
 11
1623.129113278
 21
2624.7539881631
 31
0.0
  0
LINE
  5
E7
330
1F
100
AcDbEntity
  8
0
  6
Continuous
 62
     7
370
    15
100
AcDbLine
 10
1734.1291147085
 20
2624.7539881631
 30
0.0
 11
1734.1291147085
 21
2641.7539481088
 31
0.0
  0
LINE
  5
E8
330
1F
100
AcDbEntity
  8
0
  6
Continuous
 62
     7
370
    15
100
AcDbLine
 10
1623.129113278
 20
2624.7539881631
 30
0.0
 11
1641.6291135164
 21
2618.7539462015
 31
0.0
  0
LINE
  5
E9
330
1F
100
AcDbEntity
  8
0
  6
Continuous
 62
     7
370
    15
100
AcDbLine
 10
1715.6291144701
 20
2618.7539462015
 30
0.0
 11
1734.1291147085
 21
2624.7539881631
 31
0.0
  0
LINE
  5
EA
330
1F
100
AcDbEntity
  8
0
  6
Continuous
 62
     7
370
    15
100
AcDbLine
 10
1734.1291147085
 20
2641.7539481088
 30
0.0
 11
1715.6291144701
 21
2647.7539900705
 31
0.0
  0
LINE
  5
EB
330
1F
100
AcDbEntity
  8
0
  6
Continuous
 62
     7
370
    15
100
AcDbLine
 10
1641.6291135164
 20
2647.7539900705
 30
0.0
 11
1623.129113278
 21
2641.7539481088
 31
0.0
  0
LINE
  5
EC
330
1F
100
AcDbEntity
  8
0
  6
Continuous
 62
     7
370
    15
100
AcDbLine
 10
1623.129113278
 20
2917.753970997
 30
0.0
 11
1641.6291135164
 21
2911.75398864
 31
0.0
  0
LINE
  5
ED
330
1F
100
AcDbEntity
  8
0
  6
Continuous
 62
     7
370
    15
100
AcDbLine
 10
1715.6291144701
 20
2911.75398864
 30
0.0
 11
1734.1291147085
 21
2917.753970997
 31
0.0
  0
LINE
  5
EE
330
1F
100
AcDbEntity
  8
0
  6
Continuous
 62
     7
370
    15
100
AcDbLine
 10
1623.129113278
 20
2934.7539905473
 30
0.0
 11
1623.129113278
 21
2917.753970997
 31
0.0
  0
LINE
  5
EF
330
1F
100
AcDbEntity
  8
0
  6
Continuous
 62
     7
370
    15
100
AcDbLine
 10
1734.1291147085
 20
2917.753970997
 30
0.0
 11
1734.1291147085
 21
2934.7539905473
 31
0.0
  0
LINE
  5
F0
330
1F
100
AcDbEntity
  8
0
  6
Continuous
 62
     7
370
    15
100
AcDbLine
 10
1734.1291147085
 20
2934.7539905473
 30
0.0
 11
1715.6291144701
 21
2940.7539729043
 31
0.0
  0
LINE
  5
F1
330
1F
100
AcDbEntity
  8
0
  6
Continuous
 62
     7
370
    15
100
AcDbLine
 10
1641.6291135164
 20
2940.7539729043
 30
0.0
 11
1623.129113278
 21
2934.7539905473
 31
0.0
  0
LINE
  5
F2
330
1F
100
AcDbEntity
  8
0
  6
Continuous
 62
     7
370
    15
100
AcDbLine
 10
1641.6291135164
 20
1292.753970997
 30
0.0
 11
1641.6291135164
 21
1287.7538565561
 31
0.0
  0
LINE
  5
F3
330
1F
100
AcDbEntity
  8
0
  6
Continuous
 62
     7
370
    15
100
AcDbLine
 10
1715.6291144701
 20
1287.7538565561
 30
0.0
 11
1715.6291144701
 21
1291.0297278329
 31
0.0
  0
LINE
  5
F4
330
1F
100
AcDbEntity
  8
0
  6
Continuous
 62
     7
370
    15
100
AcDbLine
 10
1641.6291135164
 20
1624.7539881631
 30
0.0
 11
1641.6291135164
 21
1619.7538737222
 31
0.0
  0
LINE
  5
F5
330
1F
100
AcDbEntity
  8
0
  6
Continuous
 62
     7
370
    15
100
AcDbLine
 10
1715.6291144701
 20
1619.7538737222
 30
0.0
 11
1715.6291144701
 21
1624.7539881631
 31
0.0
  0
LINE
  5
F6
330
1F
100
AcDbEntity
  8
0
  6
Continuous
 62
     7
370
    15
100
AcDbLine
 10
1641.6291135164
 20
1658.7539080545
 30
0.0
 11
1641.6291135164
 21
1653.7540320321
 31
0.0
  0
LINE
  5
F7
330
1F
100
AcDbEntity
  8
0
  6
Continuous
 62
     7
370
    15
100
AcDbLine
 10
1715.6291144701
 20
1653.7540320321
 30
0.0
 11
1715.6291144701
 21
1658.7539080545
 31
0.0
  0
LINE
  5
F8
330
1F
100
AcDbEntity
  8
0
  6
Continuous
 62
     7
370
    15
100
AcDbLine
 10
1641.6291135164
 20
1952.7539376184
 30
0.0
 11
1641.6291135164
 21
1947.7539423868
 31
0.0
  0
LINE
  5
F9
330
1F
100
AcDbEntity
  8
0
  6
Continuous
 62
     7
370
    15
100
AcDbLine
 10
1715.6291144701
 20
1948.6773375436
 30
0.0
 11
1715.6291144701
 21
1952.7539376184
 31
0.0
  0
LINE
  5
FA
330
1F
100
AcDbEntity
  8
0
  6
Continuous
 62
     7
370
    15
100
AcDbLine
 10
1641.6291135164
 20
1986.753976719
 30
0.0
 11
1641.6291135164
 21
1981.7539814874
 31
0.0
  0
LINE
  5
FB
330
1F
100
AcDbEntity
  8
0
  6
Continuous
 62
     7
370
    15
100
AcDbLine
 10
1715.6291144701
 20
1981.7539814874
 30
0.0
 11
1715.6291144701
 21
1986.753976719
 31
0.0
  0
LINE
  5
FC
330
1F
100
AcDbEntity
  8
0
  6
Continuous
 62
     7
370
    15
100
AcDbLine
 10
1641.6291135164
 20
2334.7540263101
 30
0.0
 11
1641.6291135164
 21
2329.7539118692
 31
0.0
  0
LINE
  5
FD
330
1F
100
AcDbEntity
  8
0
  6
Continuous
 62
     7
370
    15
100
AcDbLine
 10
1715.6291144701
 20
2329.7539118692
 30
0.0
 11
1715.6291144701
 21
2334.7540263101
 31
0.0
  0
LINE
  5
FE
330
1F
100
AcDbEntity
  8
0
  6
Continuous
 62
     7
370
    15
100
AcDbLine
 10
1641.6291135164
 20
2300.7539872094
 30
0.0
 11
1641.6291135164
 21
2295.7539919778
 31
0.0
  0
LINE
  5
FF
330
1F
100
AcDbEntity
  8
0
  6
Continuous
 62
     7
370
    15
100
AcDbLine
 10
1715.6291144701
 20
2295.7539919778
 30
0.0
 11
1715.6291144701
 21
2300.7539872094
 31
0.0
  0
LINE
  5
100
330
1F
100
AcDbEntity
  8
0
  6
Continuous
 62
     7
370
    15
100
AcDbLine
 10
1641.6291135164
 20
2618.7539462015
 30
0.0
 11
1641.6291135164
 21
2613.7539509698
 31
0.0
  0
LINE
  5
101
330
1F
100
AcDbEntity
  8
0
  6
Continuous
 62
     7
370
    15
100
AcDbLine
 10
1715.6291144701
 20
2613.7539509698
 30
0.0
 11
1715.6291144701
 21
2618.7539462015
 31
0.0
  0
LINE
  5
102
330
1F
100
AcDbEntity
  8
0
  6
Continuous
 62
     7
370
    15
100
AcDbLine
 10
1641.6291135164
 20
2652.7539853021
 30
0.0
 11
1641.6291135164
 21
2647.7539900705
 31
0.0
  0
LINE
  5
103
330
1F
100
AcDbEntity
  8
0
  6
Continuous
 62
     7
370
    15
100
AcDbLine
 10
1715.6291144701
 20
2647.7539900705
 30
0.0
 11
1715.6291144701
 21
2652.7539853021
 31
0.0
  0
LINE
  5
104
330
1F
100
AcDbEntity
  8
0
  6
Continuous
 62
     7
370
    15
100
AcDbLine
 10
1641.6291135164
 20
2911.75398864
 30
0.0
 11
1641.6291135164
 21
2906.7539934083
 31
0.0
  0
LINE
  5
105
330
1F
100
AcDbEntity
  8
0
  6
Continuous
 62
     7
370
    15
100
AcDbLine
 10
1715.6291144701
 20
2906.7539934083
 30
0.0
 11
1715.6291144701
 21
2911.75398864
 31
0.0
  0
LINE
  5
106
330
1F
100
AcDbEntity
  8
0
  6
Continuous
 62
     7
370
    15
100
AcDbLine
 10
1641.6291135164
 20
2945.753968136
 30
0.0
 11
1641.6291135164
 21
2940.7539729043
 31
0.0
  0
LINE
  5
107
330
1F
100
AcDbEntity
  8
0
  6
Continuous
 62
     7
370
    15
100
AcDbLine
 10
1715.6291144701
 20
2940.7539729043
 30
0.0
 11
1715.6291144701
 21
2945.753968136
 31
0.0
  0
LINE
  5
108
330
1F
100
AcDbEntity
  8
0
  6
Continuous
 62
     7
370
    15
100
AcDbLine
 10
1641.6291135164
 20
3304.7539655134
 30
0.0
 11
1641.6291135164
 21
3299.7539702817
 31
0.0
  0
LINE
  5
109
330
1F
100
AcDbEntity
  8
0
  6
Continuous
 62
     7
370
    15
100
AcDbLine
 10
1715.6291144701
 20
3299.7539702817
 30
0.0
 11
1715.6291144701
 21
3304.7539655134
 31
0.0
  0
LINE
  5
10A
330
1F
100
AcDbEntity
  8
0
  6
Continuous
 62
     7
370
    15
100
AcDbLine
 10
1641.6291135164
 20
3338.7539748117
 30
0.0
 11
1641.6291135164
 21
3333.7539795801
 31
0.0
  0
LINE
  5
10B
330
1F
100
AcDbEntity
  8
0
  6
Continuous
 62
     7
370
    15
100
AcDbLine
 10
1715.6291144701
 20
3333.7539795801
 30
0.0
 11
1715.6291144701
 21
3338.7539748117
 31
0.0
  0
LINE
  5
10C
330
1F
100
AcDbEntity
  8
0
  6
Continuous
 62
     7
370
    15
100
AcDbLine
 10
1641.6291135164
 20
3652.7539666756
 30
0.0
 11
1641.6291135164
 21
3647.7539677187
 31
0.0
  0
LINE
  5
10D
330
1F
100
AcDbEntity
  8
0
  6
Continuous
 62
     7
370
    15
100
AcDbLine
 10
1715.6291144701
 20
3647.7539677187
 30
0.0
 11
1715.6291144701
 21
3652.7539666756
 31
0.0
  0
ARC
  5
10E
330
1F
100
AcDbEntity
  8
0
  6
Continuous
 62
     7
370
    15
100
AcDbCircle
 10
1714.6996101655
 20
1947.2539672928
 30
0.0
 40
1.7000000000002
100
AcDbArc
 50
339.6476703458
 51
56.8545386698
  0
ARC
  5
10F
330
1F
100
AcDbEntity
  8
0
  6
Continuous
 62
     7
370
    15
100
AcDbCircle
 10
1714.4496101655
 20
1292.2539672929
 30
0.0
 40
1.700000000000204
100
AcDbArc
 50
354.4201512318
 51
34.97337527860001
  0
ARC
  5
110
330
1F
100
AcDbEntity
  8
0
  6
Continuous
 62
     7
370
    15
100
AcDbCircle
 10
1714.4496101655
 20
1292.2539672929
 30
0.0
 40
1.700000000000032
100
AcDbArc
 50
313.9336825958
 51
347.591517089
  0
LINE
  5
111
330
1F
100
AcDbEntity
  8
0
  6
Continuous
 62
     7
370
    15
100
AcDbLine
 10
1669.7876618045
 20
3697.4039644017
 30
0.0
 11
1669.7876618045
 21
3697.3039645716
 31
0.0
  0
LINE
  5
112
330
1F
100
AcDbEntity
  8
0
  6
Continuous
 62
     7
370
    15
100
AcDbLine
 10
1690.0755638989
 20
3704.9039628371
 30
0.0
 11
1690.0755638989
 21
3705.2539687618
 31
0.0
  0
ARC
  5
113
330
1F
100
AcDbEntity
  8
0
  6
Continuous
 62
     7
370
    15
100
AcDbCircle
 10
1687.5930641803
 20
3695.3039636689
 30
0.0
 40
0.5
100
AcDbArc
 50
0.0
 51
90.0
  0
ARC
  5
114
330
1F
100
AcDbEntity
  8
0
  6
Continuous
 62
     7
370
    15
100
AcDbCircle
 10
1673.5930641803
 20
3695.3039636689
 30
0.0
 40
0.5
100
AcDbArc
 50
90.0
 51
180.0
  0
LINE
  5
115
330
1F
100
AcDbEntity
  8
0
  6
Continuous
 62
     7
370
    15
100
AcDbLine
 10
1673.0930643889
 20
3695.3039642438
 30
0.0
 11
1673.0930643889
 21
3694.2539669588
 31
0.0
  0
LINE
  5
116
330
1F
100
AcDbEntity
  8
0
  6
Continuous
 62
     7
370
    15
100
AcDbLine
 10
1688.0930640536
 20
3694.2539669588
 30
0.0
 11
1688.0930640536
 21
3695.3039642438
 31
0.0
  0
LINE
  5
117
330
1F
100
AcDbEntity
  8
0
  6
Continuous
 62
     7
370
    15
100
AcDbLine
 10
1674.3430641281
 20
3696.3039644077
 30
0.0
 11
1674.3430641281
 21
3695.8039633944
 31
0.0
  0
LINE
  5
118
330
1F
100
AcDbEntity
  8
0
  6
Continuous
 62
     7
370
    15
100
AcDbLine
 10
1686.8430643144
 20
3695.8039633944
 30
0.0
 11
1686.8430643144
 21
3696.3039644077
 31
0.0
  0
ARC
  5
119
330
1F
100
AcDbEntity
  8
0
  6
Continuous
 62
     7
370
    15
100
AcDbCircle
 10
1674.8430641803
 20
3696.3039636689
 30
0.0
 40
0.4999999999997726
100
AcDbArc
 50
90.0
 51
180.0
  0
ARC
  5
11A
330
1F
100
AcDbEntity
  8
0
  6
Continuous
 62
     7
370
    15
100
AcDbCircle
 10
1686.3430641803
 20
3696.3039636689
 30
0.0
 40
0.5
100
AcDbArc
 50
0.0
 51
90.0
  0
LINE
  5
11B
330
1F
100
AcDbEntity
  8
0
  6
Continuous
 62
     7
370
    15
100
AcDbLine
 10
1681.9680642138
 20
3696.8980792924
 30
0.0
 11
1681.9680642138
 21
3696.8039635583
 31
0.0
  0
LINE
  5
11C
330
1F
100
AcDbEntity
  8
0
  6
Continuous
 62
     7
370
    15
100
AcDbLine
 10
1684.2180641169
 20
3696.8039635583
 30
0.0
 11
1684.2180641169
 21
3697.0324579641
 31
0.0
  0
LINE
  5
11D
330
1F
100
AcDbEntity
  8
0
  6
Continuous
 62
     7
370
    15
100
AcDbLine
 10
1676.9680640927
 20
3697.0339182779
 30
0.0
 11
1676.9680640927
 21
3696.8039635583
 31
0.0
  0
LINE
  5
11E
330
1F
100
AcDbEntity
  8
0
  6
Continuous
 62
     7
370
    15
100
AcDbLine
 10
1679.2180642287
 20
3696.8039635583
 30
0.0
 11
1679.2180642287
 21
3696.8995526447
 31
0.0
  0
LINE
  5
11F
330
1F
100
AcDbEntity
  8
0
  6
Continuous
 62
     7
370
    15
100
AcDbLine
 10
1692.1316466095
 20
3705.2539687618
 30
0.0
 11
1692.1316466095
 21
3694.2539669588
 31
0.0
  0
LINE
  5
120
330
1F
100
AcDbEntity
  8
0
  6
Continuous
 62
     7
370
    15
100
AcDbLine
 10
1696.1316472652
 20
3694.2539669588
 30
0.0
 11
1696.1316472652
 21
3705.2539687618
 31
0.0
  0
LINE
  5
121
330
1F
100
AcDbEntity
  8
0
  6
Continuous
 62
     7
370
    15
100
AcDbLine
 10
1664.5544810953
 20
3705.2539687618
 30
0.0
 11
1664.5544810953
 21
3694.2539669588
 31
0.0
  0
LINE
  5
122
330
1F
100
AcDbEntity
  8
0
  6
Continuous
 62
     7
370
    15
100
AcDbLine
 10
1668.554481751
 20
3694.2539669588
 30
0.0
 11
1668.554481751
 21
3705.2539687618
 31
0.0
  0
LINE
  5
123
330
1F
100
AcDbEntity
  8
0
  6
Continuous
 62
     7
370
    15
100
AcDbLine
 10
1634.3430640908
 20
3702.4985987707
 30
0.0
 11
1634.8430651041
 21
3701.9985977575
 31
0.0
  0
LINE
  5
124
330
1F
100
AcDbEntity
  8
0
  6
Continuous
 62
     7
370
    15
100
AcDbLine
 10
1640.8430623623
 20
3701.9985977575
 30
0.0
 11
1641.3430633756
 21
3702.4985987707
 31
0.0
  0
LINE
  5
125
330
1F
100
AcDbEntity
  8
0
  6
Continuous
 62
     7
370
    15
100
AcDbLine
 10
1634.3430640908
 20
3705.2539687618
 30
0.0
 11
1634.3430640908
 21
3702.4985987707
 31
0.0
  0
LINE
  5
126
330
1F
100
AcDbEntity
  8
0
  6
Continuous
 62
     7
370
    15
100
AcDbLine
 10
1641.3430633756
 20
3702.4985987707
 30
0.0
 11
1641.3430633756
 21
3705.2539687618
 31
0.0
  0
LINE
  5
127
330
1F
100
AcDbEntity
  8
0
  6
Continuous
 62
     7
370
    15
100
AcDbLine
 10
1719.3430649849
 20
3702.4985987707
 30
0.0
 11
1719.8430659982
 21
3701.9985977575
 31
0.0
  0
LINE
  5
128
330
1F
100
AcDbEntity
  8
0
  6
Continuous
 62
     7
370
    15
100
AcDbLine
 10
1725.8430632564
 20
3701.9985977575
 30
0.0
 11
1726.3430642697
 21
3702.4985987707
 31
0.0
  0
LINE
  5
129
330
1F
100
AcDbEntity
  8
0
  6
Continuous
 62
     7
370
    15
100
AcDbLine
 10
1719.3430649849
 20
3705.2539687618
 30
0.0
 11
1719.3430649849
 21
3702.4985987707
 31
0.0
  0
LINE
  5
12A
330
1F
100
AcDbEntity
  8
0
  6
Continuous
 62
     7
370
    15
100
AcDbLine
 10
1726.3430642697
 20
3702.4985987707
 30
0.0
 11
1726.3430642697
 21
3705.2539687618
 31
0.0
  0
LINE
  5
12B
330
1F
100
AcDbEntity
  8
0
  6
Continuous
 62
     7
370
    15
100
AcDbLine
 10
1505.3430671605
 20
3707.2539690896
 30
0.0
 11
1505.3430671605
 21
3705.2539687618
 31
0.0
  0
LINE
  5
12C
330
1F
100
AcDbEntity
  8
0
  6
Continuous
 62
     7
370
    15
100
AcDbLine
 10
1855.3430612
 20
3705.2539687618
 30
0.0
 11
1855.3430612
 21
3707.2539690896
 31
0.0
  0
LINE
  5
12D
330
1F
100
AcDbEntity
  8
0
  6
Continuous
 62
     7
370
    15
100
AcDbLine
 10
1655.6298608693
 20
3704.7819893822
 30
0.0
 11
1655.6298608693
 21
3701.2819897398
 31
0.0
  0
LINE
  5
12E
330
1F
100
AcDbEntity
  8
0
  6
Continuous
 62
     7
370
    15
100
AcDbLine
 10
1662.629860154
 20
3701.2819897398
 30
0.0
 11
1662.629860154
 21
3704.7819893822
 31
0.0
  0
LINE
  5
12F
330
1F
100
AcDbEntity
  8
0
  6
Continuous
 62
     7
370
    15
100
AcDbLine
 10
1655.6298608693
 20
3701.2819897398
 30
0.0
 11
1656.1298600199
 21
3700.7819887265
 31
0.0
  0
LINE
  5
130
330
1F
100
AcDbEntity
  8
0
  6
Continuous
 62
     7
370
    15
100
AcDbLine
 10
1662.1298610034
 20
3700.7819887265
 30
0.0
 11
1662.629860154
 21
3701.2819897398
 31
0.0
  0
LINE
  5
131
330
1F
100
AcDbEntity
  8
0
  6
Continuous
 62
     7
370
    15
100
AcDbLine
 10
1655.6298608693
 20
3705.2539687618
 30
0.0
 11
1655.6298608693
 21
3702.7539674207
 31
0.0
  0
LINE
  5
132
330
1F
100
AcDbEntity
  8
0
  6
Continuous
 62
     7
370
    15
100
AcDbLine
 10
1662.629860154
 20
3702.7539674207
 30
0.0
 11
1662.629860154
 21
3705.2539687618
 31
0.0
  0
LINE
  5
133
330
1F
100
AcDbEntity
  8
0
  6
Continuous
 62
     7
370
    15
100
AcDbLine
 10
1698.0562682065
 20
3705.2539687618
 30
0.0
 11
1698.0562682065
 21
3702.7539674207
 31
0.0
  0
LINE
  5
134
330
1F
100
AcDbEntity
  8
0
  6
Continuous
 62
     7
370
    15
100
AcDbLine
 10
1705.0562674912
 20
3702.7539674207
 30
0.0
 11
1705.0562674912
 21
3705.2539687618
 31
0.0
  0
LINE
  5
135
330
1F
100
AcDbEntity
  8
0
  6
Continuous
 62
     7
370
    15
100
AcDbLine
 10
1698.0562682065
 20
3704.7819893822
 30
0.0
 11
1698.0562682065
 21
3701.2819897398
 31
0.0
  0
LINE
  5
136
330
1F
100
AcDbEntity
  8
0
  6
Continuous
 62
     7
370
    15
100
AcDbLine
 10
1705.0562674912
 20
3701.2819897398
 30
0.0
 11
1705.0562674912
 21
3704.7819893822
 31
0.0
  0
LINE
  5
137
330
1F
100
AcDbEntity
  8
0
  6
Continuous
 62
     7
370
    15
100
AcDbLine
 10
1698.0562682065
 20
3701.2819897398
 30
0.0
 11
1698.5562673571
 21
3700.7819887265
 31
0.0
  0
LINE
  5
138
330
1F
100
AcDbEntity
  8
0
  6
Continuous
 62
     7
370
    15
100
AcDbLine
 10
1704.5562683406
 20
3700.7819887265
 30
0.0
 11
1705.0562674912
 21
3701.2819897398
 31
0.0
  0
LINE
  5
139
330
1F
100
AcDbEntity
  8
0
  6
Continuous
 62
     7
370
    15
100
AcDbLine
 10
1585.3430653723
 20
3972.2539547845
 30
0.0
 11
1585.3430653723
 21
3707.2539690896
 31
0.0
  0
LINE
  5
13A
330
1F
100
AcDbEntity
  8
0
  6
Continuous
 62
     7
370
    15
100
AcDbLine
 10
1534.7725624951
 20
2545.1873902246
 30
0.0
 11
1822.9647452744
 21
2545.1873902246
 31
0.0
  0
LINE
  5
13B
330
1F
100
AcDbEntity
  8
0
  6
Continuous
 62
     7
370
    15
100
AcDbLine
 10
1534.2934901627
 20
2545.1873902246
 30
0.0
 11
1534.7725624951
 21
2545.1873902246
 31
0.0
  0
LINE
  5
13C
330
1F
100
AcDbEntity
  8
0
  6
Continuous
 62
     7
370
    15
100
AcDbLine
 10
1514.6435971173
 20
2532.1386221811
 30
0.0
 11
1843.1607211741
 21
2532.1386221811
 31
0.0
  0
LINE
  5
13D
330
1F
100
AcDbEntity
  8
0
  6
Continuous
 62
     7
370
    15
100
AcDbLine
 10
1514.0974993619
 20
2532.1386221811
 30
0.0
 11
1514.6435971173
 21
2532.1386221811
 31
0.0
  0
LINE
  5
13E
330
1F
100
AcDbEntity
  8
0
  6
Continuous
 62
     7
370
    15
100
AcDbLine
 10
1641.6291135164
 20
2334.7540263101
 30
0.0
 11
1715.6291144701
 21
2334.7540263101
 31
0.0
  0
LINE
  5
13F
330
1F
100
AcDbEntity
  8
0
  6
Continuous
 62
     7
370
    15
100
AcDbLine
 10
1519.9523146065
 20
1747.028029339
 30
0.0
 11
1837.8343309077
 21
1747.028029339
 31
0.0
  0
LINE
  5
140
330
1F
100
AcDbEntity
  8
0
  6
Continuous
 62
     7
370
    15
100
AcDbLine
 10
1519.4238896283
 20
1747.028029339
 30
0.0
 11
1519.9523146065
 21
1747.028029339
 31
0.0
  0
LINE
  5
141
330
1F
100
AcDbEntity
  8
0
  6
Continuous
 62
     7
370
    15
100
AcDbLine
 10
1539.5326192292
 20
1735.0675228998
 30
0.0
 11
1818.1888188037
 21
1735.0675228998
 31
0.0
  0
LINE
  5
142
330
1F
100
AcDbEntity
  8
0
  6
Continuous
 62
     7
370
    15
100
AcDbLine
 10
1539.0694017323
 20
1735.0675228998
 30
0.0
 11
1539.5326192292
 21
1735.0675228998
 31
0.0
  0
LINE
  5
143
330
1F
100
AcDbEntity
  8
0
  6
Continuous
 62
     7
370
    15
100
AcDbLine
 10
1641.6291135164
 20
1947.7539423868
 30
0.0
 11
1709.1874989482
 21
1947.7539423868
 31
0.0
  0
LINE
  5
144
330
1F
100
AcDbEntity
  8
0
  6
Continuous
 62
     7
370
    15
100
AcDbLine
 10
1522.4201406153
 20
3097.5413683816
 30
0.0
 11
1835.3582943591
 21
3097.5413683816
 31
0.0
  0
LINE
  5
145
330
1F
100
AcDbEntity
  8
0
  6
Continuous
 62
     7
370
    15
100
AcDbLine
 10
1521.8999410781
 20
3097.5413683816
 30
0.0
 11
1522.4201406153
 21
3097.5413683816
 31
0.0
  0
LINE
  5
146
330
1F
100
AcDbEntity
  8
0
  6
Continuous
 62
     7
370
    15
100
AcDbLine
 10
1542.1454633387
 20
3085.8232144281
 30
0.0
 11
1815.567272416
 21
3085.8232144281
 31
0.0
  0
LINE
  5
147
330
1F
100
AcDbEntity
  8
0
  6
Continuous
 62
     7
370
    15
100
AcDbLine
 10
1541.69094812
 20
3085.8232144281
 30
0.0
 11
1542.1454633387
 21
3085.8232144281
 31
0.0
  0
LINE
  5
148
330
1F
100
AcDbEntity
  8
0
  6
Continuous
 62
     7
370
    15
100
AcDbLine
 10
1641.6291135164
 20
3299.7539702817
 30
0.0
 11
1715.6291144701
 21
3299.7539702817
 31
0.0
  0
LINE
  5
149
330
1F
100
AcDbEntity
  8
0
  6
Continuous
 62
     7
370
    15
100
AcDbLine
 10
1524.9498064431
 20
3068.9052704736
 30
0.0
 11
1832.8202093753
 21
3068.9052704736
 31
0.0
  0
LINE
  5
14A
330
1F
100
AcDbEntity
  8
0
  6
Continuous
 62
     7
370
    15
100
AcDbLine
 10
1524.4380260619
 20
3068.9052704736
 30
0.0
 11
1524.9498064431
 21
3068.9052704736
 31
0.0
  0
LINE
  5
14B
330
1F
100
AcDbEntity
  8
0
  6
Continuous
 62
     7
370
    15
100
AcDbLine
 10
1641.6291135164
 20
2945.753968136
 30
0.0
 11
1715.6291144701
 21
2945.753968136
 31
0.0
  0
LINE
  5
14C
330
1F
100
AcDbEntity
  8
0
  6
Continuous
 62
     7
370
    15
100
AcDbLine
 10
1542.1454633387
 20
3085.3231910631
 30
0.0
 11
1815.567272416
 21
3085.3231910631
 31
0.0
  0
LINE
  5
14D
330
1F
100
AcDbEntity
  8
0
  6
Continuous
 62
     7
370
    15
100
AcDbLine
 10
1541.69094812
 20
3085.3231910631
 30
0.0
 11
1542.1454633387
 21
3085.3231910631
 31
0.0
  0
LINE
  5
14E
330
1F
100
AcDbEntity
  8
0
  6
Continuous
 62
     7
370
    15
100
AcDbLine
 10
1641.6291135164
 20
2613.7539509698
 30
0.0
 11
1715.6291144701
 21
2613.7539509698
 31
0.0
  0
LINE
  5
14F
330
1F
100
AcDbEntity
  8
0
  6
Continuous
 62
     7
370
    15
100
AcDbLine
 10
1526.2019361171
 20
2567.0193795129
 30
0.0
 11
1831.5639073762
 21
2567.0193795129
 31
0.0
  0
LINE
  5
150
330
1F
100
AcDbEntity
  8
0
  6
Continuous
 62
     7
370
    15
100
AcDbLine
 10
1525.6943131598
 20
2567.0193795129
 30
0.0
 11
1526.2019361171
 21
2567.0193795129
 31
0.0
  0
LINE
  5
151
330
1F
100
AcDbEntity
  8
0
  6
Continuous
 62
     7
370
    15
100
AcDbLine
 10
1534.7725624951
 20
2545.687353985
 30
0.0
 11
1822.9647452744
 21
2545.687353985
 31
0.0
  0
LINE
  5
152
330
1F
100
AcDbEntity
  8
0
  6
Continuous
 62
     7
370
    15
100
AcDbLine
 10
1534.2934901627
 20
2545.687353985
 30
0.0
 11
1534.7725624951
 21
2545.687353985
 31
0.0
  0
LINE
  5
153
330
1F
100
AcDbEntity
  8
0
  6
Continuous
 62
     7
370
    15
100
AcDbLine
 10
1528.8584406289
 20
1711.6220358774
 30
0.0
 11
1828.8985515746
 21
1711.6220358774
 31
0.0
  0
LINE
  5
154
330
1F
100
AcDbEntity
  8
0
  6
Continuous
 62
     7
370
    15
100
AcDbLine
 10
1528.3596689614
 20
1711.6220358774
 30
0.0
 11
1528.8584406289
 21
1711.6220358774
 31
0.0
  0
LINE
  5
155
330
1F
100
AcDbEntity
  8
0
  6
Continuous
 62
     7
370
    15
100
AcDbLine
 10
1641.6291135164
 20
1658.7539080545
 30
0.0
 11
1715.6291144701
 21
1658.7539080545
 31
0.0
  0
LINE
  5
156
330
1F
100
AcDbEntity
  8
0
  6
Continuous
 62
     7
370
    15
100
AcDbLine
 10
1539.5326192292
 20
1734.5675591394
 30
0.0
 11
1818.1888188037
 21
1734.5675591394
 31
0.0
  0
LINE
  5
157
330
1F
100
AcDbEntity
  8
0
  6
Continuous
 62
     7
370
    15
100
AcDbLine
 10
1539.0694017323
 20
1734.5675591394
 30
0.0
 11
1539.5326192292
 21
1734.5675591394
 31
0.0
  0
LINE
  5
158
330
1F
100
AcDbEntity
  8
0
  6
Continuous
 62
     7
370
    15
100
AcDbLine
 10
1564.1944731387
 20
2805.7616118356
 30
0.0
 11
1793.4448445948
 21
2805.7616118356
 31
0.0
  0
LINE
  5
159
330
1F
100
AcDbEntity
  8
0
  6
Continuous
 62
     7
370
    15
100
AcDbLine
 10
1563.8133833917
 20
2805.7616118356
 30
0.0
 11
1564.1944731387
 21
2805.7616118356
 31
0.0
  0
LINE
  5
15A
330
1F
100
AcDbEntity
  8
0
  6
Continuous
 62
     7
370
    15
100
AcDbLine
 10
1544.7429294499
 20
2792.1328309938
 30
0.0
 11
1812.9611636313
 21
2792.1328309938
 31
0.0
  0
LINE
  5
15B
330
1F
100
AcDbEntity
  8
0
  6
Continuous
 62
     7
370
    15
100
AcDbLine
 10
1544.2970718058
 20
2792.1328309938
 30
0.0
 11
1544.7429294499
 21
2792.1328309938
 31
0.0
  0
LINE
  5
15C
330
1F
100
AcDbEntity
  8
0
  6
Continuous
 62
     7
370
    15
100
AcDbLine
 10
1641.6291135164
 20
2652.7539853021
 30
0.0
 11
1715.6291144701
 21
2652.7539853021
 31
0.0
  0
LINE
  5
15D
330
1F
100
AcDbEntity
  8
0
  6
Continuous
 62
     7
370
    15
100
AcDbLine
 10
1545.6311727675
 20
1507.0531729623
 30
0.0
 11
1812.0699549826
 21
1507.0531729623
 31
0.0
  0
LINE
  5
15E
330
1F
100
AcDbEntity
  8
0
  6
Continuous
 62
     7
370
    15
100
AcDbLine
 10
1545.1882655534
 20
1507.0531729623
 30
0.0
 11
1545.6311727675
 21
1507.0531729623
 31
0.0
  0
LINE
  5
15F
330
1F
100
AcDbEntity
  8
0
  6
Continuous
 62
     7
370
    15
100
AcDbLine
 10
1641.6291135164
 20
1292.753970997
 30
0.0
 11
1706.0205514344
 21
1292.753970997
 31
0.0
  0
LINE
  5
160
330
1F
100
AcDbEntity
  8
0
  6
Continuous
 62
     7
370
    15
100
AcDbLine
 10
1566.950949541
 20
1516.6795615121
 30
0.0
 11
1790.6791890773
 21
1516.6795615121
 31
0.0
  0
LINE
  5
161
330
1F
100
AcDbEntity
  8
0
  6
Continuous
 62
     7
370
    15
100
AcDbLine
 10
1566.5790389093
 20
1516.6795615121
 30
0.0
 11
1566.950949541
 21
1516.6795615121
 31
0.0
  0
LINE
  5
162
330
1F
100
AcDbEntity
  8
0
  6
Continuous
 62
     7
370
    15
100
AcDbLine
 10
1547.3363573464
 20
2127.9142264291
 30
0.0
 11
1810.3591079625
 21
2127.9142264291
 31
0.0
  0
LINE
  5
163
330
1F
100
AcDbEntity
  8
0
  6
Continuous
 62
     7
370
    15
100
AcDbLine
 10
1546.8991274747
 20
2127.9142264291
 30
0.0
 11
1547.3363573464
 21
2127.9142264291
 31
0.0
  0
LINE
  5
164
330
1F
100
AcDbEntity
  8
0
  6
Continuous
 62
     7
370
    15
100
AcDbLine
 10
1641.6291135164
 20
1986.753976719
 30
0.0
 11
1715.6291144701
 21
1986.753976719
 31
0.0
  0
LINE
  5
165
330
1F
100
AcDbEntity
  8
0
  6
Continuous
 62
     7
370
    15
100
AcDbLine
 10
1566.8405989918
 20
2141.0467986032
 30
0.0
 11
1790.7899047049
 21
2141.0467986032
 31
0.0
  0
LINE
  5
166
330
1F
100
AcDbEntity
  8
0
  6
Continuous
 62
     7
370
    15
100
AcDbLine
 10
1566.4683232816
 20
2141.0467986032
 30
0.0
 11
1566.8405989918
 21
2141.0467986032
 31
0.0
  0
LINE
  5
167
330
1F
100
AcDbEntity
  8
0
  6
Continuous
 62
     7
370
    15
100
AcDbLine
 10
1547.3363573464
 20
3479.9142543241
 30
0.0
 11
1810.3591079625
 21
3479.9142543241
 31
0.0
  0
LINE
  5
168
330
1F
100
AcDbEntity
  8
0
  6
Continuous
 62
     7
370
    15
100
AcDbLine
 10
1546.8991274747
 20
3479.9142543241
 30
0.0
 11
1547.3363573464
 21
3479.9142543241
 31
0.0
  0
LINE
  5
169
330
1F
100
AcDbEntity
  8
0
  6
Continuous
 62
     7
370
    15
100
AcDbLine
 10
1641.6291135164
 20
3338.7539748117
 30
0.0
 11
1715.6291144701
 21
3338.7539748117
 31
0.0
  0
LINE
  5
16A
330
1F
100
AcDbEntity
  8
0
  6
Continuous
 62
     7
370
    15
100
AcDbLine
 10
1566.8405989918
 20
3493.0467817947
 30
0.0
 11
1790.7899047049
 21
3493.0467817947
 31
0.0
  0
LINE
  5
16B
330
1F
100
AcDbEntity
  8
0
  6
Continuous
 62
     7
370
    15
100
AcDbLine
 10
1566.4683232816
 20
3493.0467817947
 30
0.0
 11
1566.8405989918
 21
3493.0467817947
 31
0.0
  0
LINE
  5
16C
330
1F
100
AcDbEntity
  8
0
  6
Continuous
 62
     7
370
    15
100
AcDbLine
 10
1641.6291135164
 20
2295.7539919778
 30
0.0
 11
1715.6291144701
 21
2295.7539919778
 31
0.0
  0
LINE
  5
16D
330
1F
100
AcDbEntity
  8
0
  6
Continuous
 62
     7
370
    15
100
AcDbLine
 10
1547.7668667945
 20
2154.3047789499
 30
0.0
 11
1809.9271531018
 21
2154.3047789499
 31
0.0
  0
LINE
  5
16E
330
1F
100
AcDbEntity
  8
0
  6
Continuous
 62
     7
370
    15
100
AcDbLine
 10
1547.3310823354
 20
2154.3047789499
 30
0.0
 11
1547.7668667945
 21
2154.3047789499
 31
0.0
  0
LINE
  5
16F
330
1F
100
AcDbEntity
  8
0
  6
Continuous
 62
     7
370
    15
100
AcDbLine
 10
1566.8405989918
 20
2141.5467623636
 30
0.0
 11
1790.7899047049
 21
2141.5467623636
 31
0.0
  0
LINE
  5
170
330
1F
100
AcDbEntity
  8
0
  6
Continuous
 62
     7
370
    15
100
AcDbLine
 10
1566.4683232816
 20
2141.5467623636
 30
0.0
 11
1566.8405989918
 21
2141.5467623636
 31
0.0
  0
LINE
  5
171
330
1F
100
AcDbEntity
  8
0
  6
Continuous
 62
     7
370
    15
100
AcDbLine
 10
1547.7668667945
 20
3506.3047472402
 30
0.0
 11
1809.9271531018
 21
3506.3047472402
 31
0.0
  0
LINE
  5
172
330
1F
100
AcDbEntity
  8
0
  6
Continuous
 62
     7
370
    15
100
AcDbLine
 10
1547.3310823354
 20
3506.3047472402
 30
0.0
 11
1547.7668667945
 21
3506.3047472402
 31
0.0
  0
LINE
  5
173
330
1F
100
AcDbEntity
  8
0
  6
Continuous
 62
     7
370
    15
100
AcDbLine
 10
1566.8405989918
 20
3493.5467753574
 30
0.0
 11
1790.7899047049
 21
3493.5467753574
 31
0.0
  0
LINE
  5
174
330
1F
100
AcDbEntity
  8
0
  6
Continuous
 62
     7
370
    15
100
AcDbLine
 10
1566.4683232816
 20
3493.5467753574
 30
0.0
 11
1566.8405989918
 21
3493.5467753574
 31
0.0
  0
LINE
  5
175
330
1F
100
AcDbEntity
  8
0
  6
Continuous
 62
     7
370
    15
100
AcDbLine
 10
1641.6291135164
 20
3647.7539677187
 30
0.0
 11
1715.6291144701
 21
3647.7539677187
 31
0.0
  0
LINE
  5
176
330
1F
100
AcDbEntity
  8
0
  6
Continuous
 62
     7
370
    15
100
AcDbLine
 10
1641.6291135164
 20
2906.7539934083
 30
0.0
 11
1715.6291144701
 21
2906.7539934083
 31
0.0
  0
LINE
  5
177
330
1F
100
AcDbEntity
  8
0
  6
Continuous
 62
     7
370
    15
100
AcDbLine
 10
1548.9085490617
 20
2823.4016660615
 30
0.0
 11
1808.7816710385
 21
2823.4016660615
 31
0.0
  0
LINE
  5
178
330
1F
100
AcDbEntity
  8
0
  6
Continuous
 62
     7
370
    15
100
AcDbLine
 10
1548.4765643986
 20
2823.4016660615
 30
0.0
 11
1548.9085490617
 21
2823.4016660615
 31
0.0
  0
LINE
  5
179
330
1F
100
AcDbEntity
  8
0
  6
Continuous
 62
     7
370
    15
100
AcDbLine
 10
1564.1944731387
 20
2806.2616352006
 30
0.0
 11
1793.4448445948
 21
2806.2616352006
 31
0.0
  0
LINE
  5
17A
330
1F
100
AcDbEntity
  8
0
  6
Continuous
 62
     7
370
    15
100
AcDbLine
 10
1563.8133833917
 20
2806.2616352006
 30
0.0
 11
1564.1944731387
 21
2806.2616352006
 31
0.0
  0
LINE
  5
17B
330
1F
100
AcDbEntity
  8
0
  6
Continuous
 62
     7
370
    15
100
AcDbLine
 10
1551.2054587516
 20
1533.895767109
 30
0.0
 11
1806.4771021518
 21
1533.895767109
 31
0.0
  0
LINE
  5
17C
330
1F
100
AcDbEntity
  8
0
  6
Continuous
 62
     7
370
    15
100
AcDbLine
 10
1550.7811183842
 20
1533.895767109
 30
0.0
 11
1551.2054587516
 21
1533.895767109
 31
0.0
  0
LINE
  5
17D
330
1F
100
AcDbEntity
  8
0
  6
Continuous
 62
     7
370
    15
100
AcDbLine
 10
1566.950949541
 20
1517.1797636911
 30
0.0
 11
1790.6791890773
 21
1517.1797636911
 31
0.0
  0
LINE
  5
17E
330
1F
100
AcDbEntity
  8
0
  6
Continuous
 62
     7
370
    15
100
AcDbLine
 10
1566.5790389093
 20
1517.1797636911
 30
0.0
 11
1566.950949541
 21
1517.1797636911
 31
0.0
  0
LINE
  5
17F
330
1F
100
AcDbEntity
  8
0
  6
Continuous
 62
     7
370
    15
100
AcDbLine
 10
1641.6291135164
 20
1619.7538737222
 30
0.0
 11
1715.6291144701
 21
1619.7538737222
 31
0.0
  0
LINE
  5
180
330
1F
100
AcDbEntity
  8
0
  6
Continuous
 62
     7
370
    15
100
AcDbLine
 10
1618.7990705284
 20
2306.7539099618
 30
0.0
 11
1738.6584008845
 21
2306.7539099618
 31
0.0
  0
LINE
  5
181
330
1F
100
AcDbEntity
  8
0
  6
Continuous
 62
     7
370
    15
100
AcDbLine
 10
1618.5998233768
 20
2306.7539099618
 30
0.0
 11
1618.7990705284
 21
2306.7539099618
 31
0.0
  0
LINE
  5
182
330
1F
100
AcDbEntity
  8
0
  6
Continuous
 62
     7
370
    15
100
AcDbLine
 10
1641.6291135164
 20
2300.7539872094
 30
0.0
 11
1715.6291144701
 21
2300.7539872094
 31
0.0
  0
LINE
  5
183
330
1F
100
AcDbEntity
  8
0
  6
Continuous
 62
     7
370
    15
100
AcDbLine
 10
1618.7990705284
 20
2323.7539891168
 30
0.0
 11
1738.6584008845
 21
2323.7539891168
 31
0.0
  0
LINE
  5
184
330
1F
100
AcDbEntity
  8
0
  6
Continuous
 62
     7
370
    15
100
AcDbLine
 10
1618.5998233768
 20
2323.7539891168
 30
0.0
 11
1618.7990705284
 21
2323.7539891168
 31
0.0
  0
LINE
  5
185
330
1F
100
AcDbEntity
  8
0
  6
Continuous
 62
     7
370
    15
100
AcDbLine
 10
1641.6291135164
 20
2329.7539118692
 30
0.0
 11
1715.6291144701
 21
2329.7539118692
 31
0.0
  0
LINE
  5
186
330
1F
100
AcDbEntity
  8
0
  6
Continuous
 62
     7
370
    15
100
AcDbLine
 10
1623.313325158
 20
1281.754053013
 30
0.0
 11
1734.1291147085
 21
1281.754053013
 31
0.0
  0
LINE
  5
187
330
1F
100
AcDbEntity
  8
0
  6
Continuous
 62
     7
370
    15
100
AcDbLine
 10
1623.129113278
 20
1281.754053013
 30
0.0
 11
1623.313325158
 21
1281.754053013
 31
0.0
  0
LINE
  5
188
330
1F
100
AcDbEntity
  8
0
  6
Continuous
 62
     7
370
    15
100
AcDbLine
 10
1623.313325158
 20
1255.2540663644
 30
0.0
 11
1734.1291147085
 21
1255.2540663644
 31
0.0
  0
LINE
  5
189
330
1F
100
AcDbEntity
  8
0
  6
Continuous
 62
     7
370
    15
100
AcDbLine
 10
1623.129113278
 20
1255.2540663644
 30
0.0
 11
1623.313325158
 21
1255.2540663644
 31
0.0
  0
LINE
  5
18A
330
1F
100
AcDbEntity
  8
0
  6
Continuous
 62
     7
370
    15
100
AcDbLine
 10
1641.6291135164
 20
1287.7538565561
 30
0.0
 11
1715.6291144701
 21
1287.7538565561
 31
0.0
  0
LINE
  5
18B
330
1F
100
AcDbEntity
  8
0
  6
Continuous
 62
     7
370
    15
100
AcDbLine
 10
1623.313325158
 20
1630.7540301248
 30
0.0
 11
1734.1291147085
 21
1630.7540301248
 31
0.0
  0
LINE
  5
18C
330
1F
100
AcDbEntity
  8
0
  6
Continuous
 62
     7
370
    15
100
AcDbLine
 10
1623.129113278
 20
1630.7540301248
 30
0.0
 11
1623.313325158
 21
1630.7540301248
 31
0.0
  0
LINE
  5
18D
330
1F
100
AcDbEntity
  8
0
  6
Continuous
 62
     7
370
    15
100
AcDbLine
 10
1641.6291135164
 20
1624.7539881631
 30
0.0
 11
1715.6291144701
 21
1624.7539881631
 31
0.0
  0
LINE
  5
18E
330
1F
100
AcDbEntity
  8
0
  6
Continuous
 62
     7
370
    15
100
AcDbLine
 10
1641.6291135164
 20
1653.7540320321
 30
0.0
 11
1715.6291144701
 21
1653.7540320321
 31
0.0
  0
LINE
  5
18F
330
1F
100
AcDbEntity
  8
0
  6
Continuous
 62
     7
370
    15
100
AcDbLine
 10
1623.313325158
 20
1647.7539900705
 30
0.0
 11
1734.1291147085
 21
1647.7539900705
 31
0.0
  0
LINE
  5
190
330
1F
100
AcDbEntity
  8
0
  6
Continuous
 62
     7
370
    15
100
AcDbLine
 10
1623.129113278
 20
1647.7539900705
 30
0.0
 11
1623.313325158
 21
1647.7539900705
 31
0.0
  0
LINE
  5
191
330
1F
100
AcDbEntity
  8
0
  6
Continuous
 62
     7
370
    15
100
AcDbLine
 10
1641.6291135164
 20
1981.7539814874
 30
0.0
 11
1715.6291144701
 21
1981.7539814874
 31
0.0
  0
LINE
  5
192
330
1F
100
AcDbEntity
  8
0
  6
Continuous
 62
     7
370
    15
100
AcDbLine
 10
1623.313325158
 20
1975.7539395257
 30
0.0
 11
1734.1291147085
 21
1975.7539395257
 31
0.0
  0
LINE
  5
193
330
1F
100
AcDbEntity
  8
0
  6
Continuous
 62
     7
370
    15
100
AcDbLine
 10
1623.129113278
 20
1975.7539395257
 30
0.0
 11
1623.313325158
 21
1975.7539395257
 31
0.0
  0
LINE
  5
194
330
1F
100
AcDbEntity
  8
0
  6
Continuous
 62
     7
370
    15
100
AcDbLine
 10
1623.313325158
 20
3327.7539674207
 30
0.0
 11
1734.1291147085
 21
3327.7539674207
 31
0.0
  0
LINE
  5
195
330
1F
100
AcDbEntity
  8
0
  6
Continuous
 62
     7
370
    15
100
AcDbLine
 10
1623.129113278
 20
3327.7539674207
 30
0.0
 11
1623.313325158
 21
3327.7539674207
 31
0.0
  0
LINE
  5
196
330
1F
100
AcDbEntity
  8
0
  6
Continuous
 62
     7
370
    15
100
AcDbLine
 10
1623.313325158
 20
3310.7539776727
 30
0.0
 11
1734.1291147085
 21
3310.7539776727
 31
0.0
  0
LINE
  5
197
330
1F
100
AcDbEntity
  8
0
  6
Continuous
 62
     7
370
    15
100
AcDbLine
 10
1623.129113278
 20
3310.7539776727
 30
0.0
 11
1623.313325158
 21
3310.7539776727
 31
0.0
  0
LINE
  5
198
330
1F
100
AcDbEntity
  8
0
  6
Continuous
 62
     7
370
    15
100
AcDbLine
 10
1623.313325158
 20
1958.7539795801
 30
0.0
 11
1734.1291147085
 21
1958.7539795801
 31
0.0
  0
LINE
  5
199
330
1F
100
AcDbEntity
  8
0
  6
Continuous
 62
     7
370
    15
100
AcDbLine
 10
1623.129113278
 20
1958.7539795801
 30
0.0
 11
1623.313325158
 21
1958.7539795801
 31
0.0
  0
LINE
  5
19A
330
1F
100
AcDbEntity
  8
0
  6
Continuous
 62
     7
370
    15
100
AcDbLine
 10
1641.6291135164
 20
1952.7539376184
 30
0.0
 11
1715.6291144701
 21
1952.7539376184
 31
0.0
  0
LINE
  5
19B
330
1F
100
AcDbEntity
  8
0
  6
Continuous
 62
     7
370
    15
100
AcDbLine
 10
1641.6291135164
 20
3333.7539795801
 30
0.0
 11
1715.6291144701
 21
3333.7539795801
 31
0.0
  0
LINE
  5
19C
330
1F
100
AcDbEntity
  8
0
  6
Continuous
 62
     7
370
    15
100
AcDbLine
 10
1641.6291135164
 20
3304.7539655134
 30
0.0
 11
1715.6291144701
 21
3304.7539655134
 31
0.0
  0
LINE
  5
19D
330
1F
100
AcDbEntity
  8
0
  6
Continuous
 62
     7
370
    15
100
AcDbLine
 10
1623.313325158
 20
3694.2539669588
 30
0.0
 11
1734.1291147085
 21
3694.2539669588
 31
0.0
  0
LINE
  5
19E
330
1F
100
AcDbEntity
  8
0
  6
Continuous
 62
     7
370
    15
100
AcDbLine
 10
1623.129113278
 20
3694.2539669588
 30
0.0
 11
1623.313325158
 21
3694.2539669588
 31
0.0
  0
LINE
  5
19F
330
1F
100
AcDbEntity
  8
0
  6
Continuous
 62
     7
370
    15
100
AcDbLine
 10
1623.313325158
 20
3658.7539676591
 30
0.0
 11
1734.1291147085
 21
3658.7539676591
 31
0.0
  0
LINE
  5
1A0
330
1F
100
AcDbEntity
  8
0
  6
Continuous
 62
     7
370
    15
100
AcDbLine
 10
1623.129113278
 20
3658.7539676591
 30
0.0
 11
1623.313325158
 21
3658.7539676591
 31
0.0
  0
LINE
  5
1A1
330
1F
100
AcDbEntity
  8
0
  6
Continuous
 62
     7
370
    15
100
AcDbLine
 10
1641.6291135164
 20
3652.7539666756
 30
0.0
 11
1715.6291144701
 21
3652.7539666756
 31
0.0
  0
LINE
  5
1A2
330
1F
100
AcDbEntity
  8
0
  6
Continuous
 62
     7
370
    15
100
AcDbLine
 10
1623.313325158
 20
2641.7539481088
 30
0.0
 11
1734.1291147085
 21
2641.7539481088
 31
0.0
  0
LINE
  5
1A3
330
1F
100
AcDbEntity
  8
0
  6
Continuous
 62
     7
370
    15
100
AcDbLine
 10
1623.129113278
 20
2641.7539481088
 30
0.0
 11
1623.313325158
 21
2641.7539481088
 31
0.0
  0
LINE
  5
1A4
330
1F
100
AcDbEntity
  8
0
  6
Continuous
 62
     7
370
    15
100
AcDbLine
 10
1623.313325158
 20
2624.7539881631
 30
0.0
 11
1734.1291147085
 21
2624.7539881631
 31
0.0
  0
LINE
  5
1A5
330
1F
100
AcDbEntity
  8
0
  6
Continuous
 62
     7
370
    15
100
AcDbLine
 10
1623.129113278
 20
2624.7539881631
 30
0.0
 11
1623.313325158
 21
2624.7539881631
 31
0.0
  0
LINE
  5
1A6
330
1F
100
AcDbEntity
  8
0
  6
Continuous
 62
     7
370
    15
100
AcDbLine
 10
1641.6291135164
 20
2618.7539462015
 30
0.0
 11
1715.6291144701
 21
2618.7539462015
 31
0.0
  0
LINE
  5
1A7
330
1F
100
AcDbEntity
  8
0
  6
Continuous
 62
     7
370
    15
100
AcDbLine
 10
1641.6291135164
 20
2647.7539900705
 30
0.0
 11
1715.6291144701
 21
2647.7539900705
 31
0.0
  0
LINE
  5
1A8
330
1F
100
AcDbEntity
  8
0
  6
Continuous
 62
     7
370
    15
100
AcDbLine
 10
1623.313325158
 20
2917.753970997
 30
0.0
 11
1734.1291147085
 21
2917.753970997
 31
0.0
  0
LINE
  5
1A9
330
1F
100
AcDbEntity
  8
0
  6
Continuous
 62
     7
370
    15
100
AcDbLine
 10
1623.129113278
 20
2917.753970997
 30
0.0
 11
1623.313325158
 21
2917.753970997
 31
0.0
  0
LINE
  5
1AA
330
1F
100
AcDbEntity
  8
0
  6
Continuous
 62
     7
370
    15
100
AcDbLine
 10
1641.6291135164
 20
2911.75398864
 30
0.0
 11
1715.6291144701
 21
2911.75398864
 31
0.0
  0
LINE
  5
1AB
330
1F
100
AcDbEntity
  8
0
  6
Continuous
 62
     7
370
    15
100
AcDbLine
 10
1623.313325158
 20
2934.7539905473
 30
0.0
 11
1734.1291147085
 21
2934.7539905473
 31
0.0
  0
LINE
  5
1AC
330
1F
100
AcDbEntity
  8
0
  6
Continuous
 62
     7
370
    15
100
AcDbLine
 10
1623.129113278
 20
2934.7539905473
 30
0.0
 11
1623.313325158
 21
2934.7539905473
 31
0.0
  0
LINE
  5
1AD
330
1F
100
AcDbEntity
  8
0
  6
Continuous
 62
     7
370
    15
100
AcDbLine
 10
1641.6291135164
 20
2940.7539729043
 30
0.0
 11
1715.6291144701
 21
2940.7539729043
 31
0.0
  0
LINE
  5
1AE
330
1F
100
AcDbEntity
  8
0
  6
Continuous
 62
     7
370
    15
100
AcDbLine
 10
1709.0187339845
 20
1947.419321911
 30
0.0
 11
1712.0919438812
 21
1947.419321911
 31
0.0
  0
SPLINE
  5
1AF
330
1F
100
AcDbEntity
  8
0
  6
Continuous
 62
     7
370
    15
100
AcDbSpline
210
0.0
220
0.0
230
1.0
 70
     8
 71
     3
 72
    10
 73
     6
 74
     0
 42
0.00000001
 43
0.00000001
 40
0.0
 40
0.0
 40
0.0
 40
0.0
 40
0.4458563069004629
 40
0.7281017844940701
 40
1.0
 40
1.0
 40
1.0
 40
1.0
 10
1712.091943881154
 20
1947.419321910988
 30
0.0
 10
1712.061148782239
 20
1947.602506448062
 30
0.0
 10
1712.010859112391
 20
1947.901654371442
 30
0.0
 10
1711.835367961138
 20
1948.272349001275
 30
0.0
 10
1711.687609947461
 20
1948.423596627835
 30
0.0
 10
1711.615110448241
 20
1948.497808353554
 30
0.0
  0
LINE
  5
1B0
330
1F
100
AcDbEntity
  8
0
  6
Continuous
 62
     7
370
    15
100
AcDbLine
 10
1709.0003273251
 20
1947.1083048745
 30
0.0
 11
1709.0187339845
 21
1947.419321911
 31
0.0
  0
LINE
  5
1B1
330
1F
100
AcDbEntity
  8
0
  6
Continuous
 62
     7
370
    15
100
AcDbLine
 10
1711.9695233914
 20
1947.6192358896
 30
0.0
 11
1708.8697633507
 21
1947.6192358896
 31
0.0
  0
SPLINE
  5
1B2
330
1F
100
AcDbEntity
  8
0
  6
Continuous
 62
     7
370
    15
100
AcDbSpline
210
0.0
220
0.0
230
1.0
 70
     8
 71
     3
 72
     9
 73
     5
 74
     0
 42
0.00000001
 43
0.00000001
 40
0.0
 40
0.0
 40
0.0
 40
0.0
 40
0.4263610903637334
 40
1.0
 40
1.0
 40
1.0
 40
1.0
 10
1708.869763350725
 20
1947.619235889565
 30
0.0
 10
1708.881127072579
 20
1947.548365784633
 30
0.0
 10
1708.907779884271
 20
1947.382144929743
 30
0.0
 10
1708.898840957983
 20
1947.212976094992
 30
0.0
 10
1708.893713242054
 20
1947.115934269081
 30
0.0
  0
SPLINE
  5
1B3
330
1F
100
AcDbEntity
  8
0
  6
Continuous
 62
     7
370
    15
100
AcDbSpline
210
0.0
220
0.0
230
1.0
 70
     8
 71
     3
 72
    10
 73
     6
 74
     0
 42
0.00000001
 43
0.00000001
 40
0.0
 40
0.0
 40
0.0
 40
0.0
 40
0.2300109331550083
 40
0.7765004673856454
 40
1.0
 40
1.0
 40
1.0
 40
1.0
 10
1711.532185486197
 20
1948.50400723661
 30
0.0
 10
1711.581683257642
 20
1948.450001847016
 30
0.0
 10
1711.748784195557
 20
1948.267683512465
 30
0.0
 10
1711.894767631435
 20
1947.952561746359
 30
0.0
 10
1711.95270600925
 20
1947.694222329512
 30
0.0
 10
1711.969523391366
 20
1947.619235889564
 30
0.0
  0
LINE
  5
1B4
330
1F
100
AcDbEntity
  8
0
  6
Continuous
 62
     7
370
    15
100
AcDbLine
 10
1709.0187339845
 20
1947.419321911
 30
0.0
 11
1708.8956839206
 21
1947.419321911
 31
0.0
  0
LINE
  5
1B5
330
1F
100
AcDbEntity
  8
0
  6
Continuous
 62
     7
370
    15
100
AcDbLine
 10
1716.1415542277
 20
1292.0887831613
 30
0.0
 11
1716.016671321
 21
1292.0887831613
 31
0.0
  0
SPLINE
  5
1B6
330
1F
100
AcDbEntity
  8
0
  6
Continuous
 62
     7
370
    15
100
AcDbSpline
210
0.0
220
0.0
230
1.0
 70
     8
 71
     3
 72
    10
 73
     6
 74
     0
 42
0.00000001
 43
0.00000001
 40
0.0
 40
0.0
 40
0.0
 40
0.0
 40
0.4678903607668952
 40
0.7639630280133752
 40
1.0
 40
1.0
 40
1.0
 40
1.0
 10
1716.016671321034
 20
1292.088783161293
 30
0.0
 10
1715.979653245583
 20
1291.905737357958
 30
0.0
 10
1715.919210792853
 20
1291.606863438112
 30
0.0
 10
1715.721428150967
 20
1291.251631715543
 30
0.0
 10
1715.560680631709
 20
1291.112448532488
 30
0.0
 10
1715.489375105738
 20
1291.050708667885
 30
0.0
  0
LINE
  5
1B7
330
1F
100
AcDbEntity
  8
0
  6
Continuous
 62
     7
370
    15
100
AcDbLine
 10
1715.9945766243
 20
1291.8887499734
 30
0.0
 11
1716.0255412372
 21
1292.0887831613
 31
0.0
  0
SPLINE
  5
1B8
330
1F
100
AcDbEntity
  8
0
  6
Continuous
 62
     7
370
    15
100
AcDbSpline
210
0.0
220
0.0
230
1.0
 70
     8
 71
     3
 72
     9
 73
     5
 74
     0
 42
0.00000001
 43
0.00000001
 40
0.0
 40
0.0
 40
0.0
 40
0.0
 40
0.3454158286796384
 40
1.0
 40
1.0
 40
1.0
 40
1.0
 10
1715.873940548539
 20
1291.558540241371
 30
0.0
 10
1715.895952022038
 20
1291.593406182113
 30
0.0
 10
1715.959676587249
 20
1291.694345218041
 30
0.0
 10
1715.984716395822
 20
1291.811839848266
 30
0.0
 10
1716.001107058167
 20
1291.888749973427
 30
0.0
  0
SPLINE
  5
1B9
330
1F
100
AcDbEntity
  8
0
  6
Continuous
 62
     7
370
    15
100
AcDbSpline
210
0.0
220
0.0
230
1.0
 70
    24
 71
     3
 72
    12
 73
     8
 74
     0
 42
0.00000001
 43
0.00000001
 40
0.0
 40
0.0
 40
0.0
 40
0.0
 40
0.2362412782937459
 40
0.4724575434934007
 40
0.7084978136165333
 40
0.9441006959695659
 40
1.0
 40
1.0
 40
1.0
 40
1.0
 10
1679.697427715786
 20
3701.703971998345
 30
0.0
 10
1679.863329196021
 20
3701.703971998345
 30
0.0
 10
1680.195114590937
 20
3701.703971998345
 30
0.0
 10
1680.764910082516
 20
3701.703971998345
 30
0.0
 10
1681.306115253314
 20
3701.703971998345
 30
0.0
 10
1681.654971919278
 20
3701.703971998345
 30
0.0
 10
1681.808895811124
 20
3701.703971998345
 30
0.0
 10
1681.838412702694
 20
3701.703971998345
 30
0.0
  0
LINE
  5
1BA
330
1F
100
AcDbEntity
  8
0
  6
Continuous
 62
     7
370
    15
100
AcDbLine
 10
1679.3430637835
 20
3701.7039719983
 30
0.0
 11
1679.3430637835
 21
3705.2539687618
 31
0.0
  0
SPLINE
  5
1BB
330
1F
100
AcDbEntity
  8
0
  6
Continuous
 62
     7
370
    15
100
AcDbSpline
210
0.0
220
0.0
230
1.0
 70
    24
 71
     3
 72
    10
 73
     6
 74
     0
 42
0.00000001
 43
0.00000001
 40
0.0
 40
0.0
 40
0.0
 40
0.0
 40
0.2553677511536213
 40
0.5107328667911119
 40
1.0
 40
1.0
 40
1.0
 40
1.0
 10
1679.697427715786
 20
3701.703971998345
 30
0.0
 10
1679.664223475924
 20
3701.703971998345
 30
0.0
 10
1679.597815338886
 20
3701.703971998345
 30
0.0
 10
1679.475588046295
 20
3701.703971998345
 30
0.0
 10
1679.395612308701
 20
3701.703971998345
 30
0.0
 10
1679.343063550681
 20
3701.703971998345
 30
0.0
  0
LINE
  5
1BC
330
1F
100
AcDbEntity
  8
0
  6
Continuous
 62
     7
370
    15
100
AcDbLine
 10
1682.0930629537
 20
3705.2539687618
 30
0.0
 11
1682.0930630701
 21
3701.7039719983
 31
0.0
  0
SPLINE
  5
1BD
330
1F
100
AcDbEntity
  8
0
  6
Continuous
 62
     7
370
    15
100
AcDbSpline
210
0.0
220
0.0
230
1.0
 70
    24
 71
     3
 72
    10
 73
     6
 74
     0
 42
0.00000001
 43
0.00000001
 40
0.0
 40
0.0
 40
0.0
 40
0.0
 40
0.2553667405342428
 40
0.5107314012144764
 40
1.0
 40
1.0
 40
1.0
 40
1.0
 10
1682.093063070118
 20
3701.703971998345
 30
0.0
 10
1682.075528303934
 20
3701.703971998345
 30
0.0
 10
1682.04045891438
 20
3701.703971998345
 30
0.0
 10
1681.959802120626
 20
3701.703971998345
 30
0.0
 10
1681.886546215114
 20
3701.703971998345
 30
0.0
 10
1681.838412702694
 20
3701.703971998345
 30
0.0
  0
LINE
  5
1BE
330
1F
100
AcDbEntity
  8
0
  6
Continuous
 62
     7
370
    15
100
AcDbLine
 10
1682.0930630701
 20
3705.2539687618
 30
0.0
 11
1682.0930631865
 21
3701.7039719983
 31
0.0
  0
LINE
  5
1BF
330
1F
100
AcDbEntity
  8
0
  6
Continuous
 62
     7
370
    15
100
AcDbLine
 10
1689.8493298131
 20
3704.9039628371
 30
0.0
 11
1690.0770717102
 21
3704.9039628371
 31
0.0
  0
LINE
  5
1C0
330
1F
100
AcDbEntity
  8
0
  6
Continuous
 62
     7
370
    15
100
AcDbLine
 10
1689.8493270191
 20
3697.8661891087
 30
0.0
 11
1689.8493288817
 21
3704.9039628371
 31
0.0
  0
SPLINE
  5
1C1
330
1F
100
AcDbEntity
  8
0
  6
Continuous
 62
     7
370
    15
100
AcDbSpline
210
0.0
220
0.0
230
1.0
 70
     8
 71
     3
 72
     9
 73
     5
 74
     0
 42
0.00000001
 43
0.00000001
 40
0.0
 40
0.0
 40
0.0
 40
0.0
 40
0.5870927252140992
 40
1.0
 40
1.0
 40
1.0
 40
1.0
 10
1687.227918001502
 20
3697.403964401733
 30
0.0
 10
1687.927347808002
 20
3697.527291928897
 30
0.0
 10
1689.118692507845
 20
3697.737356748077
 30
0.0
 10
1689.635808753374
 20
3697.828539207791
 30
0.0
 10
1689.849329813063
 20
3697.86618910874
 30
0.0
  0
LINE
  5
1C2
330
1F
100
AcDbEntity
  8
0
  6
Continuous
 62
     7
370
    15
100
AcDbLine
 10
1680.7129984581
 20
3697.4039644017
 30
0.0
 11
1680.7129984581
 21
3701.7039719983
 31
0.0
  0
SPLINE
  5
1C3
330
1F
100
AcDbEntity
  8
0
  6
Continuous
 62
     7
370
    15
100
AcDbSpline
210
0.0
220
0.0
230
1.0
 70
     8
 71
     3
 72
    12
 73
     8
 74
     0
 42
0.00000001
 43
0.00000001
 40
0.0
 40
0.0
 40
0.0
 40
0.0
 40
0.2869984653869875
 40
0.516823571752078
 40
0.7097590630989826
 40
0.903560413411829
 40
1.0
 40
1.0
 40
1.0
 40
1.0
 10
1687.958473971724
 20
3700.003969298254
 30
0.0
 10
1688.052851491721
 20
3700.017135211454
 30
0.0
 10
1688.22280545615
 20
3700.040844238179
 30
0.0
 10
1688.418058590295
 20
3700.221039607636
 30
0.0
 10
1688.544132054782
 20
3700.458997146925
 30
0.0
 10
1688.60123106113
 20
3700.700036517909
 30
0.0
 10
1688.60630462716
 20
3700.853102348877
 30
0.0
 10
1688.607990442455
 20
3700.90396218146
 30
0.0
  0
SPLINE
  5
1C4
330
1F
100
AcDbEntity
  8
0
  6
Continuous
 62
     7
370
    15
100
AcDbSpline
210
0.0
220
0.0
230
1.0
 70
     8
 71
     3
 72
    12
 73
     8
 74
     0
 42
0.00000001
 43
0.00000001
 40
0.0
 40
0.0
 40
0.0
 40
0.0
 40
0.2829902733731054
 40
0.513623858452244
 40
0.7069842809480076
 40
0.901217889118239
 40
0.9999999999999999
 40
0.9999999999999999
 40
0.9999999999999999
 40
0.9999999999999999
 10
1687.958486078918
 20
3701.803958789955
 30
0.0
 10
1688.051547134482
 20
3701.791142888244
 30
0.0
 10
1688.220451803398
 20
3701.767882184589
 30
0.0
 10
1688.415626478472
 20
3701.590135820883
 30
0.0
 10
1688.542788192767
 20
3701.352721140394
 30
0.0
 10
1688.60098135999
 20
3701.110607991352
 30
0.0
 10
1688.606223276053
 20
3700.95606280006
 30
0.0
 10
1688.607990442455
 20
3700.90396218146
 30
0.0
  0
SPLINE
  5
1C5
330
1F
100
AcDbEntity
  8
0
  6
Continuous
 62
     7
370
    15
100
AcDbSpline
210
0.0
220
0.0
230
1.0
 70
     8
 71
     3
 72
    12
 73
     8
 74
     0
 42
0.00000001
 43
0.00000001
 40
0.0
 40
0.0
 40
0.0
 40
0.0
 40
0.1425458056417498
 40
0.2842384391424993
 40
0.4918394293078667
 40
0.7721662371451399
 40
1.0
 40
1.0
 40
1.0
 40
1.0
 10
1687.12298216173
 20
3700.90396218146
 30
0.0
 10
1687.129779269062
 20
3700.983549730643
 30
0.0
 10
1687.143332801347
 20
3701.142248477711
 30
0.0
 10
1687.250750990804
 20
3701.38017050916
 30
0.0
 10
1687.439919159187
 20
3701.611134178564
 30
0.0
 10
1687.696046433982
 20
3701.773272295844
 30
0.0
 10
1687.877245491725
 20
3701.794459505649
 30
0.0
 10
1687.958486078918
 20
3701.803958789955
 30
0.0
  0
SPLINE
  5
1C6
330
1F
100
AcDbEntity
  8
0
  6
Continuous
 62
     7
370
    15
100
AcDbSpline
210
0.0
220
0.0
230
1.0
 70
     8
 71
     3
 72
    12
 73
     8
 74
     0
 42
0.00000001
 43
0.00000001
 40
0.0
 40
0.0
 40
0.0
 40
0.0
 40
0.2678453713205549
 40
0.5747589362609042
 40
0.7549092663799964
 40
0.8994502196131646
 40
1.0
 40
1.0
 40
1.0
 40
1.0
 10
1687.958473971724
 20
3700.003969298254
 30
0.0
 10
1687.862728668965
 20
3700.016920430849
 30
0.0
 10
1687.657272557874
 20
3700.044711761185
 30
0.0
 10
1687.389571879994
 20
3700.240907716686
 30
0.0
 10
1687.213765166265
 20
3700.494446559511
 30
0.0
 10
1687.134616466378
 20
3700.711439719644
 30
0.0
 10
1687.126366680413
 20
3700.847955751453
 30
0.0
 10
1687.12298216173
 20
3700.90396218146
 30
0.0
  0
SPLINE
  5
1C7
330
1F
100
AcDbEntity
  8
0
  6
Continuous
 62
     7
370
    15
100
AcDbSpline
210
0.0
220
0.0
230
1.0
 70
    24
 71
     3
 72
    10
 73
     6
 74
     0
 42
0.00000001
 43
0.00000001
 40
0.0
 40
0.0
 40
0.0
 40
0.0
 40
0.4433550355604044
 40
0.8867101852574908
 40
1.0
 40
1.0
 40
1.0
 40
1.0
 10
1687.227918001502
 20
3697.403964401733
 30
0.0
 10
1686.3909436827
 20
3697.403964401733
 30
0.0
 10
1684.716994829625
 20
3697.403964401733
 30
0.0
 10
1682.316876888196
 20
3697.403964401733
 30
0.0
 10
1680.984223502477
 20
3697.403964401733
 30
0.0
 10
1680.712998458096
 20
3697.403964401733
 30
0.0
  0
LINE
  5
1C8
330
1F
100
AcDbEntity
  8
0
  6
Continuous
 62
     7
370
    15
100
AcDbLine
 10
1670.8386956515
 20
3705.2539687618
 30
0.0
 11
1670.8386956515
 21
3697.4039644017
 31
0.0
  0
SPLINE
  5
1C9
330
1F
100
AcDbEntity
  8
0
  6
Continuous
 62
     7
370
    15
100
AcDbSpline
210
0.0
220
0.0
230
1.0
 70
    24
 71
     3
 72
    11
 73
     7
 74
     0
 42
0.00000001
 43
0.00000001
 40
0.0
 40
0.0
 40
0.0
 40
0.0
 40
0.2850113688025958
 40
0.5700213608604024
 40
0.8547267454783004
 40
1.0
 40
1.0
 40
1.0
 40
1.0
 10
1670.166186689079
 20
3697.403964401733
 30
0.0
 10
1670.198033742045
 20
3697.403964401733
 30
0.0
 10
1670.26172769414
 20
3697.403964401733
 30
0.0
 10
1670.456889780471
 20
3697.403964401733
 30
0.0
 10
1670.660305451562
 20
3697.403964401733
 30
0.0
 10
1670.793645256722
 20
3697.403964401733
 30
0.0
 10
1670.838695651531
 20
3697.403964401733
 30
0.0
  0
LINE
  5
1CA
330
1F
100
AcDbEntity
  8
0
  6
Continuous
 62
     7
370
    15
100
AcDbLine
 10
1680.7129984581
 20
3697.4039644017
 30
0.0
 11
1670.8386956515
 21
3697.4039644017
 31
0.0
  0
LINE
  5
1CB
330
1F
100
AcDbEntity
  8
0
  6
Continuous
 62
     7
370
    15
100
AcDbLine
 10
1670.7491024199
 20
3697.4039644017
 30
0.0
 11
1670.7491024199
 21
3697.3039645716
 31
0.0
  0
SPLINE
  5
1CC
330
1F
100
AcDbEntity
  8
0
  6
Continuous
 62
     7
370
    15
100
AcDbSpline
210
0.0
220
0.0
230
1.0
 70
    24
 71
     3
 72
    18
 73
    14
 74
     0
 42
0.00000001
 43
0.00000001
 40
0.0
 40
0.0
 40
0.0
 40
0.0
 40
0.0332581661198976
 40
0.1271727639182572
 40
0.1848450735933078
 40
0.2427290788781017
 40
0.2975725375700985
 40
0.3865437207102866
 40
0.4627690280326272
 40
0.5780827974520494
 40
0.6931291381662386
 40
0.9023232487710661
 40
1.0
 40
1.0
 40
1.0
 40
1.0
 10
1670.749102419853
 20
3697.303964571605
 30
0.0
 10
1670.792107996064
 20
3697.303964571605
 30
0.0
 10
1670.956552961877
 20
3697.303964571605
 30
0.0
 10
1671.257095581375
 20
3697.303964571605
 30
0.0
 10
1671.666355642394
 20
3697.303964571605
 30
0.0
 10
1672.01542262418
 20
3697.303964571605
 30
0.0
 10
1672.392285681903
 20
3697.303964571605
 30
0.0
 10
1672.728621707665
 20
3697.303964571605
 30
0.0
 10
1673.058529739406
 20
3697.303964571605
 30
0.0
 10
1673.326938989304
 20
3697.303964571605
 30
0.0
 10
1673.593171517464
 20
3697.303964571605
 30
0.0
 10
1673.73304272325
 20
3697.303964571605
 30
0.0
 10
1673.755203590787
 20
3697.303964571605
 30
0.0
 10
1673.762257377296
 20
3697.303964571605
 30
0.0
  0
LINE
  5
1CD
330
1F
100
AcDbEntity
  8
0
  6
Continuous
 62
     7
370
    15
100
AcDbLine
 10
1670.0088900315
 20
3698.2039630427
 30
0.0
 11
1668.554481751
 21
3698.2039630427
 31
0.0
  0
LINE
  5
1CE
330
1F
100
AcDbEntity
  8
0
  6
Continuous
 62
     7
370
    15
100
AcDbLine
 10
1670.0088928255
 20
3705.2539687618
 30
0.0
 11
1670.0088900315
 21
3698.2039630427
 31
0.0
  0
LINE
  5
1CF
330
1F
100
AcDbEntity
  8
0
  6
Continuous
 62
     7
370
    15
100
AcDbLine
 10
1670.1661857578
 20
3697.4039644017
 30
0.0
 11
1668.554481751
 21
3697.4039644017
 31
0.0
  0
SPLINE
  5
1D0
330
1F
100
AcDbEntity
  8
0
  6
Continuous
 62
     7
370
    15
100
AcDbSpline
210
0.0
220
0.0
230
1.0
 70
    24
 71
     3
 72
    14
 73
    10
 74
     0
 42
0.00000001
 43
0.00000001
 40
0.0
 40
0.0
 40
0.0
 40
0.0
 40
0.0519059425450905
 40
0.2176210811287024
 40
0.3833536732813603
 40
0.5491237675167471
 40
0.7149723673079372
 40
0.8560365112015161
 40
1.0
 40
1.0
 40
1.0
 40
1.0
 10
1669.792246705532
 20
3697.303964571605
 30
0.0
 10
1669.790942499302
 20
3697.303964571605
 30
0.0
 10
1669.785474478573
 20
3697.303964571605
 30
0.0
 10
1669.819247641379
 20
3697.303964571605
 30
0.0
 10
1669.89708728286
 20
3697.303964571605
 30
0.0
 10
1670.027857656822
 20
3697.303964571605
 30
0.0
 10
1670.209563473011
 20
3697.303964571605
 30
0.0
 10
1670.43763790044
 20
3697.303964571605
 30
0.0
 10
1670.644579233695
 20
3697.303964571605
 30
0.0
 10
1670.749102419853
 20
3697.303964571605
 30
0.0
  0
SPLINE
  5
1D1
330
1F
100
AcDbEntity
  8
0
  6
Continuous
 62
     7
370
    15
100
AcDbSpline
210
0.0
220
0.0
230
1.0
 70
     8
 71
     3
 72
    11
 73
     7
 74
     0
 42
0.00000001
 43
0.00000001
 40
0.0
 40
0.0
 40
0.0
 40
0.0
 40
0.3057475330421718
 40
0.611201123951733
 40
0.9248755759005024
 40
1.0
 40
1.0
 40
1.0
 40
1.0
 10
1669.96859449768
 20
3703.903878854166
 30
0.0
 10
1669.945338782343
 20
3704.036181241689
 30
0.0
 10
1669.898849709443
 20
3704.300658822753
 30
0.0
 10
1669.790273267991
 20
3704.556720212925
 30
0.0
 10
1669.698592651958
 20
3704.648056471028
 30
0.0
 10
1669.646474253919
 20
3704.653018465969
 30
0.0
 10
1669.636403842509
 20
3704.653977231632
 30
0.0
  0
SPLINE
  5
1D2
330
1F
100
AcDbEntity
  8
0
  6
Continuous
 62
     7
370
    15
100
AcDbSpline
210
0.0
220
0.0
230
1.0
 70
     8
 71
     3
 72
    11
 73
     7
 74
     0
 42
0.00000001
 43
0.00000001
 40
0.0
 40
0.0
 40
0.0
 40
0.0
 40
0.3219060867846944
 40
0.6439949743090477
 40
0.9602182698755191
 40
0.9999999999999999
 40
0.9999999999999999
 40
0.9999999999999999
 40
0.9999999999999999
 10
1669.636403842509
 20
3704.653977231632
 30
0.0
 10
1669.593061876838
 20
3704.637671162626
 30
0.0
 10
1669.506353332905
 20
3704.605049764889
 30
0.0
 10
1669.391719385462
 20
3704.350161700083
 30
0.0
 10
1669.330120454054
 20
3704.082622631872
 30
0.0
 10
1669.306766105016
 20
3703.921915302543
 30
0.0
 10
1669.30415637666
 20
3703.903957085262
 30
0.0
  0
LINE
  5
1D3
330
1F
100
AcDbEntity
  8
0
  6
Continuous
 62
     7
370
    15
100
AcDbLine
 10
1668.554481751
 20
3703.9039682611
 30
0.0
 11
1669.304154514
 21
3703.9039608106
 31
0.0
  0
LINE
  5
1D4
330
1F
100
AcDbEntity
  8
0
  6
Continuous
 62
     7
370
    15
100
AcDbLine
 10
1669.9686056736
 20
3703.9039570853
 30
0.0
 11
1670.0088918942
 21
3703.9039570853
 31
0.0
  0
LINE
  5
1D5
330
1F
100
AcDbEntity
  8
0
  6
Continuous
 62
     7
370
    15
100
AcDbLine
 10
1669.3041554453
 20
3699.6039718404
 30
0.0
 11
1668.554481751
 21
3699.6039681151
 31
0.0
  0
SPLINE
  5
1D6
330
1F
100
AcDbEntity
  8
0
  6
Continuous
 62
     7
370
    15
100
AcDbSpline
210
0.0
220
0.0
230
1.0
 70
     8
 71
     3
 72
    11
 73
     7
 74
     0
 42
0.00000001
 43
0.00000001
 40
0.0
 40
0.0
 40
0.0
 40
0.0
 40
0.3067911897046365
 40
0.613293208738873
 40
0.9270259426922174
 40
1.0
 40
1.0
 40
1.0
 40
1.0
 10
1669.30415637666
 20
3699.603975565683
 30
0.0
 10
1669.327532089511
 20
3699.471331624596
 30
0.0
 10
1669.374261482081
 20
3699.206168767973
 30
0.0
 10
1669.483141952199
 20
3698.949603195493
 30
0.0
 10
1669.574779730921
 20
3698.859587403504
 30
0.0
 10
1669.626621051982
 20
3698.854851060355
 30
0.0
 10
1669.636403842509
 20
3698.853957281958
 30
0.0
  0
SPLINE
  5
1D7
330
1F
100
AcDbEntity
  8
0
  6
Continuous
 62
     7
370
    15
100
AcDbSpline
210
0.0
220
0.0
230
1.0
 70
     8
 71
     3
 72
    11
 73
     7
 74
     0
 42
0.00000001
 43
0.00000001
 40
0.0
 40
0.0
 40
0.0
 40
0.0
 40
0.3223375500089802
 40
0.6447924371456903
 40
0.9616815176787129
 40
1.0
 40
1.0
 40
1.0
 40
1.0
 10
1669.636403842509
 20
3698.853957281958
 30
0.0
 10
1669.679790597229
 20
3698.870449966346
 30
0.0
 10
1669.766579900293
 20
3698.903441338779
 30
0.0
 10
1669.881401794912
 20
3699.158483160177
 30
0.0
 10
1669.942858345888
 20
3699.426312929466
 30
0.0
 10
1669.966092716094
 20
3699.586778728259
 30
0.0
 10
1669.968599154293
 20
3699.604089187037
 30
0.0
  0
LINE
  5
1D8
330
1F
100
AcDbEntity
  8
0
  6
Continuous
 62
     7
370
    15
100
AcDbLine
 10
1670.0088900315
 20
3699.603973703
 30
0.0
 11
1669.9686541023
 21
3699.603973703
 31
0.0
  0
SPLINE
  5
1D9
330
1F
100
AcDbEntity
  8
0
  6
Continuous
 62
     7
370
    15
100
AcDbSpline
210
0.0
220
0.0
230
1.0
 70
     8
 71
     3
 72
    13
 73
     9
 74
     0
 42
0.00000001
 43
0.00000001
 40
0.0
 40
0.0
 40
0.0
 40
0.0
 40
0.0885760627538014
 40
0.2670748765886594
 40
0.4799630533503296
 40
0.6902461169289204
 40
0.9017673368625657
 40
1.0
 40
1.0
 40
1.0
 40
1.0
 10
1685.402282214403
 20
3697.151890771042
 30
0.0
 10
1685.103832374483
 20
3697.117682661709
 30
0.0
 10
1684.203945297925
 20
3697.014538242162
 30
0.0
 10
1682.326820322084
 20
3696.875616890101
 30
0.0
 10
1679.800336913769
 20
3696.839843319763
 30
0.0
 10
1677.23238003417
 20
3696.978647565886
 30
0.0
 10
1675.408920200618
 20
3697.189789739024
 30
0.0
 10
1674.586414040307
 20
3697.315829094214
 30
0.0
 10
1674.325571561843
 20
3697.355800123464
 30
0.0
  0
LINE
  5
1DA
330
1F
100
AcDbEntity
  8
0
  6
Continuous
 62
     7
370
    15
100
AcDbLine
 10
1674.3255710962
 20
3697.4039644017
 30
0.0
 11
1674.3255715618
 21
3697.3558001235
 31
0.0
  0
LINE
  5
1DB
330
1F
100
AcDbEntity
  8
0
  6
Continuous
 62
     7
370
    15
100
AcDbLine
 10
1687.5791714328
 20
3697.4658992156
 30
0.0
 11
1687.2279212611
 21
3697.4039644017
 31
0.0
  0
LINE
  5
1DC
330
1F
100
AcDbEntity
  8
0
  6
Continuous
 62
     7
370
    15
100
AcDbLine
 10
1687.5791714328
 20
3697.4658992156
 30
0.0
 11
1689.8493270191
 21
3697.8661891087
 31
0.0
  0
LINE
  5
1DD
330
1F
100
AcDbEntity
  8
0
  6
Continuous
 62
     7
370
    15
100
AcDbLine
 10
1687.2279212611
 20
3697.4039644017
 30
0.0
 11
1687.2279180015
 21
3697.4039644017
 31
0.0
  0
LINE
  5
1DE
330
1F
100
AcDbEntity
  8
0
  6
Continuous
 62
     7
370
    15
100
AcDbLine
 10
1669.3041554453
 20
3699.6039718404
 30
0.0
 11
1669.9685814592
 21
3699.6039718404
 31
0.0
  0
LINE
  5
1DF
330
1F
100
AcDbEntity
  8
0
  6
Continuous
 62
     7
370
    15
100
AcDbLine
 10
1669.9685777339
 20
3703.9039608106
 30
0.0
 11
1669.304154514
 21
3703.9039608106
 31
0.0
  0
SPLINE
  5
1E0
330
1F
100
AcDbEntity
  8
0
  6
Continuous
 62
     7
370
    15
100
AcDbSpline
210
0.0
220
0.0
230
1.0
 70
     8
 71
     3
 72
    11
 73
     7
 74
     0
 42
0.00000001
 43
0.00000001
 40
0.0
 40
0.0
 40
0.0
 40
0.0
 40
0.1968774970272048
 40
0.5894785688812632
 40
0.9886364190688499
 40
1.0
 40
1.0
 40
1.0
 40
1.0
 10
1687.157010825961
 20
3697.403971852313
 30
0.0
 10
1687.06019170627
 20
3697.38807485221
 30
0.0
 10
1686.770301815459
 20
3697.340477026091
 30
0.0
 10
1686.206677631035
 20
3697.255437431294
 30
0.0
 10
1685.689390402983
 20
3697.186708809291
 30
0.0
 10
1685.41001554705
 20
3697.152828603826
 30
0.0
 10
1685.402282214403
 20
3697.151890771042
 30
0.0
  0
SPLINE
  5
1E1
330
1F
100
AcDbEntity
  8
0
  6
Continuous
 62
     7
370
    15
100
AcDbSpline
210
0.0
220
0.0
230
1.0
 70
     8
 71
     3
 72
    10
 73
     6
 74
     0
 42
0.00000001
 43
0.00000001
 40
0.0
 40
0.0
 40
0.0
 40
0.0
 40
0.1904607328633375
 40
0.5950936313380655
 40
1.0
 40
1.0
 40
1.0
 40
1.0
 10
1674.325571561843
 20
3697.355800123464
 30
0.0
 10
1674.306020234659
 20
3697.358911322407
 30
0.0
 10
1674.244932208187
 20
3697.368632248337
 30
0.0
 10
1674.145063619226
 20
3697.384785965046
 30
0.0
 10
1674.067808200459
 20
3697.397570149963
 30
0.0
 10
1674.029167442262
 20
3697.403964401733
 30
0.0
  0
LINE
  5
1E2
330
1F
100
AcDbEntity
  8
0
  6
Continuous
 62
     7
370
    15
100
AcDbLine
 10
1673.5930640052
 20
3695.8039633944
 30
0.0
 11
1687.5930639716
 21
3695.8039633944
 31
0.0
  0
LINE
  5
1E3
330
1F
100
AcDbEntity
  8
0
  6
Continuous
 62
     7
370
    15
100
AcDbLine
 10
1674.8430646757
 20
3696.8039635583
 30
0.0
 11
1686.3430642324
 21
3696.8039635583
 31
0.0
  0
LINE
  5
1E4
330
1F
100
AcDbEntity
  8
0
  6
Continuous
 62
     7
370
    15
100
AcDbLine
 10
1640.8430623623
 20
3701.9985977575
 30
0.0
 11
1634.8430651041
 21
3701.9985977575
 31
0.0
  0
LINE
  5
1E5
330
1F
100
AcDbEntity
  8
0
  6
Continuous
 62
     7
370
    15
100
AcDbLine
 10
1634.3430640908
 20
3702.4985987707
 30
0.0
 11
1641.3430633756
 21
3702.4985987707
 31
0.0
  0
LINE
  5
1E6
330
1F
100
AcDbEntity
  8
0
  6
Continuous
 62
     7
370
    15
100
AcDbLine
 10
1723.5206763061
 20
3701.9985977575
 30
0.0
 11
1719.8430659982
 21
3701.9985977575
 31
0.0
  0
LINE
  5
1E7
330
1F
100
AcDbEntity
  8
0
  6
Continuous
 62
     7
370
    15
100
AcDbLine
 10
1725.8430632564
 20
3701.9985977575
 30
0.0
 11
1723.5206763061
 21
3701.9985977575
 31
0.0
  0
LINE
  5
1E8
330
1F
100
AcDbEntity
  8
0
  6
Continuous
 62
     7
370
    15
100
AcDbLine
 10
1723.6336122068
 20
3702.4985987707
 30
0.0
 11
1726.3430642697
 21
3702.4985987707
 31
0.0
  0
LINE
  5
1E9
330
1F
100
AcDbEntity
  8
0
  6
Continuous
 62
     7
370
    15
100
AcDbLine
 10
1719.3430649849
 20
3702.4985987707
 30
0.0
 11
1723.6336122068
 21
3702.4985987707
 31
0.0
  0
LINE
  5
1EA
330
1F
100
AcDbEntity
  8
0
  6
Continuous
 62
     7
370
    15
100
AcDbLine
 10
1855.3430612
 20
3707.2539690896
 30
0.0
 11
1505.3430671605
 21
3707.2539690896
 31
0.0
  0
LINE
  5
1EB
330
1F
100
AcDbEntity
  8
0
  6
Continuous
 62
     7
370
    15
100
AcDbLine
 10
1855.3430612
 20
3705.2539687618
 30
0.0
 11
1505.3430671605
 21
3705.2539687618
 31
0.0
  0
LINE
  5
1EC
330
1F
100
AcDbEntity
  8
0
  6
Continuous
 62
     7
370
    15
100
AcDbLine
 10
1662.629860154
 20
3704.7819893822
 30
0.0
 11
1655.6298608693
 21
3704.7819893822
 31
0.0
  0
LINE
  5
1ED
330
1F
100
AcDbEntity
  8
0
  6
Continuous
 62
     7
370
    15
100
AcDbLine
 10
1655.6298608693
 20
3701.2819897398
 30
0.0
 11
1662.629860154
 21
3701.2819897398
 31
0.0
  0
LINE
  5
1EE
330
1F
100
AcDbEntity
  8
0
  6
Continuous
 62
     7
370
    15
100
AcDbLine
 10
1662.1298610034
 20
3700.7819887265
 30
0.0
 11
1656.1298600199
 21
3700.7819887265
 31
0.0
  0
LINE
  5
1EF
330
1F
100
AcDbEntity
  8
0
  6
Continuous
 62
     7
370
    15
100
AcDbLine
 10
1655.6298608693
 20
3702.7539674207
 30
0.0
 11
1662.629860154
 21
3702.7539674207
 31
0.0
  0
LINE
  5
1F0
330
1F
100
AcDbEntity
  8
0
  6
Continuous
 62
     7
370
    15
100
AcDbLine
 10
1698.0562682065
 20
3702.7539674207
 30
0.0
 11
1705.0562674912
 21
3702.7539674207
 31
0.0
  0
LINE
  5
1F1
330
1F
100
AcDbEntity
  8
0
  6
Continuous
 62
     7
370
    15
100
AcDbLine
 10
1701.2356321129
 20
3704.7819893822
 30
0.0
 11
1698.0562682065
 21
3704.7819893822
 31
0.0
  0
LINE
  5
1F2
330
1F
100
AcDbEntity
  8
0
  6
Continuous
 62
     7
370
    15
100
AcDbLine
 10
1705.0562674912
 20
3704.7819893822
 30
0.0
 11
1701.2356321129
 21
3704.7819893822
 31
0.0
  0
LINE
  5
1F3
330
1F
100
AcDbEntity
  8
0
  6
Continuous
 62
     7
370
    15
100
AcDbLine
 10
1701.2356321129
 20
3701.2819897398
 30
0.0
 11
1705.0562674912
 21
3701.2819897398
 31
0.0
  0
LINE
  5
1F4
330
1F
100
AcDbEntity
  8
0
  6
Continuous
 62
     7
370
    15
100
AcDbLine
 10
1698.0562682065
 20
3701.2819897398
 30
0.0
 11
1701.2356321129
 21
3701.2819897398
 31
0.0
  0
LINE
  5
1F5
330
1F
100
AcDbEntity
  8
0
  6
Continuous
 62
     7
370
    15
100
AcDbLine
 10
1701.2814382824
 20
3700.7819887265
 30
0.0
 11
1698.5562673571
 21
3700.7819887265
 31
0.0
  0
LINE
  5
1F6
330
1F
100
AcDbEntity
  8
0
  6
Continuous
 62
     7
370
    15
100
AcDbLine
 10
1704.5562683406
 20
3700.7819887265
 30
0.0
 11
1701.2814382824
 21
3700.7819887265
 31
0.0
  0
LINE
  5
1F7
330
1F
100
AcDbEntity
  8
0
  6
Continuous
 62
     7
370
    15
100
AcDbLine
 10
1775.3394494566
 20
3707.2539690896
 30
0.0
 11
1775.3394494566
 21
3972.2539547845
 31
0.0
  0
LINE
  5
1F8
330
1F
100
AcDbEntity
  8
0
  6
Continuous
 62
     7
370
    15
100
AcDbLine
 10
1775.3394494566
 20
3972.2539547845
 30
0.0
 11
1585.3430653723
 21
3972.2539547845
 31
0.0
  0
LINE
  5
1F9
330
1F
100
AcDbEntity
  8
0
  6
Continuous
 62
     8
370
    15
100
AcDbLine
 10
1679.6974277158
 20
3701.7039719983
 30
0.0
 11
1679.6974277158
 21
3705.2539687618
 31
0.0
  0
LINE
  5
1FA
330
1F
100
AcDbEntity
  8
0
  6
Continuous
 62
     8
370
    15
100
AcDbLine
 10
1681.8384130519
 20
3705.2539687618
 30
0.0
 11
1681.8384127027
 21
3701.7039719983
 31
0.0
  0
LINE
  5
1FB
330
1F
100
AcDbEntity
  8
0
  6
Continuous
 62
     8
370
    15
100
AcDbLine
 10
1690.0770717102
 20
3704.9039628371
 30
0.0
 11
1690.0770717102
 21
3705.2539687618
 31
0.0
  0
LINE
  5
1FC
330
1F
100
AcDbEntity
  8
0
  6
Continuous
 62
     8
370
    15
100
AcDbLine
 10
1670.1661857578
 20
3697.4039644017
 30
0.0
 11
1670.1661885517
 21
3705.2539687618
 31
0.0
  0
LINE
  5
1FD
330
1F
100
AcDbEntity
  8
0
  6
Continuous
 62
     8
370
    15
100
AcDbLine
 10
1687.1229821617
 20
3700.9039621815
 30
0.0
 11
1688.6079923051
 21
3700.9039621815
 31
0.0
  0
LINE
  5
1FE
330
1F
100
AcDbEntity
  8
0
  6
Continuous
 62
     8
370
    15
100
AcDbLine
 10
1688.0930640536
 20
3695.3039642438
 30
0.0
 11
1673.0930643889
 21
3695.3039642438
 31
0.0
  0
LINE
  5
1FF
330
1F
100
AcDbEntity
  8
0
  6
Continuous
 62
     8
370
    15
100
AcDbLine
 10
1686.8430643144
 20
3696.3039644077
 30
0.0
 11
1674.3430641281
 21
3696.3039644077
 31
0.0
  0
DIMENSION
  5
200
330
1F
100
AcDbEntity
  8
0
  6
Continuous
 62
     7
370
     0
100
AcDbDimension
  2
_D
 10
1855.3430641803
 20
4236.5625464574
 30
0.0
 11
1686.8120501963
 21
4236.5625464574
 31
0.0
 70
    32
  1
%%c<>
 71
     2
 42
-1.0
 73
     0
 74
     0
 75
     0
  3
SLDDIMSTYLE0
100
AcDbAlignedDimension
 13
1505.3430641803
 23
3707.2539672929
 33
0.0
 14
1855.3430641803
 24
3707.2539672929
 34
0.0
100
AcDbRotatedDimension
  0
DIMENSION
  5
20E
330
1F
100
AcDbEntity
  8
0
  6
Continuous
 62
     7
370
     0
100
AcDbDimension
  2
_D_1
 10
1775.3394468714
 20
4096.193852044
 30
0.0
 11
1686.8120501963
 21
4096.193852044
 31
0.0
 70
    32
  1
%%c<>
 71
     2
 42
-1.0
 73
     0
 74
     0
 75
     0
  3
SLDDIMSTYLE1
100
AcDbAlignedDimension
 13
1585.3430641803
 23
3972.2539672928
 33
0.0
 14
1775.3394468714
 24
3972.2539672928
 34
0.0
100
AcDbRotatedDimension
  0
DIMENSION
  5
21C
330
1F
100
AcDbEntity
  8
0
  6
Continuous
 62
     7
370
     0
100
AcDbDimension
  2
_D_2
 10
2006.0087987777
 20
3705.2539672929
 30
0.0
 11
2006.0087987777
 21
3864.5290100537
 31
0.0
 70
    32
  1
270
 71
     2
 42
-1.0
 73
     0
 74
     0
 75
     0
  3
SLDDIMSTYLE0
100
AcDbAlignedDimension
 13
1775.3394468714
 23
3972.2539672928
 33
0.0
 14
1855.3430641803
 24
3705.2539672929
 34
0.0
 50
90.0
100
AcDbRotatedDimension
  0
DIMENSION
  5
228
330
1F
100
AcDbEntity
  8
0
  6
Continuous
 62
     7
370
     0
100
AcDbDimension
  2
_D_3
 10
2006.0087987777
 20
1255.2539672928
 30
0.0
 11
2006.0087987777
 21
2457.3043524432
 31
0.0
 70
    32
  1
<>
 71
     2
 42
-1.0
 73
     0
 74
     0
 75
     0
  3
SLDDIMSTYLE2
100
AcDbAlignedDimension
 13
1855.3430641803
 23
3705.2539672929
 33
0.0
 14
1734.1291131761
 24
1255.2539672928
 34
0.0
 50
90.0
100
AcDbRotatedDimension
  0
ENDSEC
  0
SECTION
  2
OBJECTS
  0
DICTIONARY
  5
C
330
0
100
AcDbDictionary
281
     1
  3
ACAD_COLOR
350
6C
  3
ACAD_GROUP
350
D
  3
ACAD_LAYOUT
350
1A
  3
ACAD_MATERIAL
350
6B
  3
ACAD_MLEADERSTYLE
350
292
  3
ACAD_MLINESTYLE
350
17
  3
ACAD_PLOTSETTINGS
350
19
  3
ACAD_PLOTSTYLENAME
350
E
  3
ACAD_SCALELIST
350
99
  3
ACAD_TABLESTYLE
350
92
  3
AcDbVariableDictionary
350
59
  0
DICTIONARY
  5
291
330
1F
100
AcDbDictionary
280
     1
281
     1
  0
DICTIONARY
  5
6C
102
{ACAD_REACTORS
330
C
102
}
330
C
100
AcDbDictionary
281
     1
  0
DICTIONARY
  5
D
102
{ACAD_REACTORS
330
C
102
}
330
C
100
AcDbDictionary
281
     1
  0
DICTIONARY
  5
1A
102
{ACAD_REACTORS
330
C
102
}
330
C
100
AcDbDictionary
281
     1
  3
Layout1
350
74
  3
Layout2
350
26
  3
Model
350
22
  0
DICTIONARY
  5
6B
102
{ACAD_REACTORS
330
C
102
}
330
C
100
AcDbDictionary
281
     1
  0
DICTIONARY
  5
292
102
{ACAD_REACTORS
330
C
102
}
330
C
100
AcDbDictionary
281
     1
  0
DICTIONARY
  5
17
102
{ACAD_REACTORS
330
C
102
}
330
C
100
AcDbDictionary
281
     1
  3
Standard
350
18
  0
DICTIONARY
  5
19
102
{ACAD_REACTORS
330
C
102
}
330
C
100
AcDbDictionary
281
     1
  0
ACDBDICTIONARYWDFLT
  5
E
102
{ACAD_REACTORS
330
C
102
}
330
C
100
AcDbDictionary
281
     1
  3
Normal
350
F
100
AcDbDictionaryWithDefault
340
F
  0
DICTIONARY
  5
99
102
{ACAD_REACTORS
330
C
102
}
330
C
100
AcDbDictionary
281
     1
  3
A0
350
234
  3
A1
350
235
  3
A2
350
236
  3
A3
350
237
  3
A4
350
238
  3
A5
350
239
  3
A6
350
23A
  3
A7
350
23B
  3
A8
350
23C
  3
A9
350
23D
  3
B0
350
23E
  3
B1
350
23F
  3
B2
350
240
  3
B3
350
241
  3
B4
350
242
  3
B5
350
243
  3
B6
350
244
  3
B7
350
245
  3
B8
350
246
  3
B9
350
247
  3
C0
350
248
  3
C1
350
249
  3
C2
350
24A
  3
C3
350
24B
  3
C4
350
24C
  3
C5
350
24D
  3
C6
350
24E
  3
C7
350
24F
  3
C8
350
250
  3
C9
350
251
  3
D0
350
252
  3
D1
350
253
  3
D2
350
254
  0
DICTIONARY
  5
92
102
{ACAD_REACTORS
330
C
102
}
330
C
100
AcDbDictionary
281
     1
  3
Standard
350
93
  0
DICTIONARY
  5
59
102
{ACAD_REACTORS
330
C
102
}
330
C
100
AcDbDictionary
281
     1
  3
CANNOSCALE
350
293
  3
CTABLESTYLE
350
98
  3
DIMASSOC
350
257
  3
HIDETEXT
350
5E
  0
LAYOUT
  5
74
102
{ACAD_REACTORS
330
1A
102
}
330
1A
100
AcDbPlotSettings
  1

  2
none_device
  4
ISO_C5_(229.00_x_162.00_MM)
  6

 40
0.0
 41
0.0
 42
0.0
 43
0.0
 44
229.0
 45
162.0
 46
0.0
 47
0.0
 48
0.0
 49
0.0
140
0.0
141
0.0
142
1.0
143
1.0
 70
   688
 72
     1
 73
     0
 74
     5
  7

 75
    16
 76
     0
 77
     2
 78
   300
147
1.0
148
0.0
149
0.0
100
AcDbLayout
  1
Layout1
 70
     1
 71
     1
 10
0.0
 20
0.0
 11
420.0
 21
297.0
 12
0.0
 22
0.0
 32
0.0
 14
1.000000000000000E+20
 24
1.000000000000000E+20
 34
1.000000000000000E+20
 15
-1.000000000000000E+20
 25
-1.000000000000000E+20
 35
-1.000000000000000E+20
146
0.0
 13
0.0
 23
0.0
 33
0.0
 16
1.0
 26
0.0
 36
0.0
 17
0.0
 27
1.0
 37
0.0
 76
     0
330
73
  0
LAYOUT
  5
26
102
{ACAD_REACTORS
330
1A
102
}
330
1A
100
AcDbPlotSettings
  1

  2
none_device
  4
ISO_C5_(229.00_x_162.00_MM)
  6

 40
0.0
 41
0.0
 42
0.0
 43
0.0
 44
229.0
 45
162.0
 46
0.0
 47
0.0
 48
0.0
 49
0.0
140
0.0
141
0.0
142
1.0
143
1.0
 70
   688
 72
     1
 73
     0
 74
     5
  7

 75
    16
 76
     0
 77
     2
 78
   300
147
1.0
148
0.0
149
0.0
100
AcDbLayout
  1
Layout2
 70
     1
 71
     2
 10
0.0
 20
0.0
 11
0.0
 21
0.0
 12
0.0
 22
0.0
 32
0.0
 14
0.0
 24
0.0
 34
0.0
 15
0.0
 25
0.0
 35
0.0
146
0.0
 13
0.0
 23
0.0
 33
0.0
 16
1.0
 26
0.0
 36
0.0
 17
0.0
 27
1.0
 37
0.0
 76
     0
330
23
  0
LAYOUT
  5
22
102
{ACAD_REACTORS
330
1A
102
}
330
1A
100
AcDbPlotSettings
  1

  2
none_device
  4
ISO_C5_(229.00_x_162.00_MM)
  6

 40
0.0
 41
0.0
 42
0.0
 43
0.0
 44
229.0
 45
162.0
 46
0.0
 47
0.0
 48
0.0
 49
0.0
140
0.0
141
0.0
142
1.0
143
1.0
 70
 11952
 72
     1
 73
     0
 74
     0
  7

 75
    16
 76
     0
 77
     2
 78
   300
147
1.0
148
0.0
149
0.0
100
AcDbLayout
  1
Model
 70
     1
 71
     0
 10
0.0
 20
0.0
 11
3150.0
 21
4455.0
 12
0.0
 22
0.0
 32
0.0
 14
265.2397497845
 24
74.9971091133
 34
0.0
 15
3074.1485614599
 25
4379.9971091133
 35
0.1264036807
146
0.0
 13
0.0
 23
0.0
 33
0.0
 16
1.0
 26
0.0
 36
0.0
 17
0.0
 27
1.0
 37
0.0
 76
     0
330
1F
331
97
  0
MLINESTYLE
  5
18
102
{ACAD_REACTORS
330
17
102
}
330
17
100
AcDbMlineStyle
  2
Standard
 70
     0
  3

 62
   256
 51
90.0
 52
90.0
 71
     2
 49
0.5
 62
   256
  6
BYLAYER
 49
-0.5
 62
   256
  6
BYLAYER
  0
ACDBPLACEHOLDER
  5
F
102
{ACAD_REACTORS
330
E
102
}
330
E
  0
SCALE
  5
234
102
{ACAD_REACTORS
330
99
102
}
330
99
100
AcDbScale
 70
     0
300
1:1
140
1.0
141
1.0
290
     1
  0
SCALE
  5
235
102
{ACAD_REACTORS
330
99
102
}
330
99
100
AcDbScale
 70
     0
300
1:2
140
1.0
141
2.0
290
     0
  0
SCALE
  5
236
102
{ACAD_REACTORS
330
99
102
}
330
99
100
AcDbScale
 70
     0
300
1:4
140
1.0
141
4.0
290
     0
  0
SCALE
  5
237
102
{ACAD_REACTORS
330
99
102
}
330
99
100
AcDbScale
 70
     0
300
1:5
140
1.0
141
5.0
290
     0
  0
SCALE
  5
238
102
{ACAD_REACTORS
330
99
102
}
330
99
100
AcDbScale
 70
     0
300
1:8
140
1.0
141
8.0
290
     0
  0
SCALE
  5
239
102
{ACAD_REACTORS
330
99
102
}
330
99
100
AcDbScale
 70
     0
300
1:10
140
1.0
141
10.0
290
     0
  0
SCALE
  5
23A
102
{ACAD_REACTORS
330
99
102
}
330
99
100
AcDbScale
 70
     0
300
1:16
140
1.0
141
16.0
290
     0
  0
SCALE
  5
23B
102
{ACAD_REACTORS
330
99
102
}
330
99
100
AcDbScale
 70
     0
300
1:20
140
1.0
141
20.0
290
     0
  0
SCALE
  5
23C
102
{ACAD_REACTORS
330
99
102
}
330
99
100
AcDbScale
 70
     0
300
1:30
140
1.0
141
30.0
290
     0
  0
SCALE
  5
23D
102
{ACAD_REACTORS
330
99
102
}
330
99
100
AcDbScale
 70
     0
300
1:40
140
1.0
141
40.0
290
     0
  0
SCALE
  5
23E
102
{ACAD_REACTORS
330
99
102
}
330
99
100
AcDbScale
 70
     0
300
1:50
140
1.0
141
50.0
290
     0
  0
SCALE
  5
23F
102
{ACAD_REACTORS
330
99
102
}
330
99
100
AcDbScale
 70
     0
300
1:100
140
1.0
141
100.0
290
     0
  0
SCALE
  5
240
102
{ACAD_REACTORS
330
99
102
}
330
99
100
AcDbScale
 70
     0
300
2:1
140
2.0
141
1.0
290
     0
  0
SCALE
  5
241
102
{ACAD_REACTORS
330
99
102
}
330
99
100
AcDbScale
 70
     0
300
4:1
140
4.0
141
1.0
290
     0
  0
SCALE
  5
242
102
{ACAD_REACTORS
330
99
102
}
330
99
100
AcDbScale
 70
     0
300
8:1
140
8.0
141
1.0
290
     0
  0
SCALE
  5
243
102
{ACAD_REACTORS
330
99
102
}
330
99
100
AcDbScale
 70
     0
300
10:1
140
10.0
141
1.0
290
     0
  0
SCALE
  5
244
102
{ACAD_REACTORS
330
99
102
}
330
99
100
AcDbScale
 70
     0
300
100:1
140
100.0
141
1.0
290
     0
  0
SCALE
  5
245
102
{ACAD_REACTORS
330
99
102
}
330
99
100
AcDbScale
 70
     0
300
1/128" = 1'-0"
140
0.0078125
141
12.0
290
     0
  0
SCALE
  5
246
102
{ACAD_REACTORS
330
99
102
}
330
99
100
AcDbScale
 70
     0
300
1/64" = 1'-0"
140
0.015625
141
12.0
290
     0
  0
SCALE
  5
247
102
{ACAD_REACTORS
330
99
102
}
330
99
100
AcDbScale
 70
     0
300
1/32" = 1'-0"
140
0.03125
141
12.0
290
     0
  0
SCALE
  5
248
102
{ACAD_REACTORS
330
99
102
}
330
99
100
AcDbScale
 70
     0
300
1/16" = 1'-0"
140
0.0625
141
12.0
290
     0
  0
SCALE
  5
249
102
{ACAD_REACTORS
330
99
102
}
330
99
100
AcDbScale
 70
     0
300
3/32" = 1'-0"
140
0.09375
141
12.0
290
     0
  0
SCALE
  5
24A
102
{ACAD_REACTORS
330
99
102
}
330
99
100
AcDbScale
 70
     0
300
1/8" = 1'-0"
140
0.125
141
12.0
290
     0
  0
SCALE
  5
24B
102
{ACAD_REACTORS
330
99
102
}
330
99
100
AcDbScale
 70
     0
300
3/16" = 1'-0"
140
0.1875
141
12.0
290
     0
  0
SCALE
  5
24C
102
{ACAD_REACTORS
330
99
102
}
330
99
100
AcDbScale
 70
     0
300
1/4" = 1'-0"
140
0.25
141
12.0
290
     0
  0
SCALE
  5
24D
102
{ACAD_REACTORS
330
99
102
}
330
99
100
AcDbScale
 70
     0
300
3/8" = 1'-0"
140
0.375
141
12.0
290
     0
  0
SCALE
  5
24E
102
{ACAD_REACTORS
330
99
102
}
330
99
100
AcDbScale
 70
     0
300
1/2" = 1'-0"
140
0.5
141
12.0
290
     0
  0
SCALE
  5
24F
102
{ACAD_REACTORS
330
99
102
}
330
99
100
AcDbScale
 70
     0
300
3/4" = 1'-0"
140
0.75
141
12.0
290
     0
  0
SCALE
  5
250
102
{ACAD_REACTORS
330
99
102
}
330
99
100
AcDbScale
 70
     0
300
1" = 1'-0"
140
1.0
141
12.0
290
     0
  0
SCALE
  5
251
102
{ACAD_REACTORS
330
99
102
}
330
99
100
AcDbScale
 70
     0
300
1-1/2" = 1'-0"
140
1.5
141
12.0
290
     0
  0
SCALE
  5
252
102
{ACAD_REACTORS
330
99
102
}
330
99
100
AcDbScale
 70
     0
300
3" = 1'-0"
140
3.0
141
12.0
290
     0
  0
SCALE
  5
253
102
{ACAD_REACTORS
330
99
102
}
330
99
100
AcDbScale
 70
     0
300
6" = 1'-0"
140
6.0
141
12.0
290
     0
  0
SCALE
  5
254
102
{ACAD_REACTORS
330
99
102
}
330
99
100
AcDbScale
 70
     0
300
1'-0" = 1'-0"
140
12.0
141
12.0
290
     0
  0
TABLESTYLE
  5
93
102
{ACAD_REACTORS
330
92
102
}
330
92
100
AcDbTableStyle
  3
Standard
 70
     0
 71
     0
 40
0.06
 41
0.06
280
     0
281
     0
  7
Standard
140
0.18
170
     2
 62
     0
 63
     7
283
     0
 90
      512
 91
        0
  1

274
    -2
284
     1
 64
     0
275
    -2
285
     1
 65
     0
276
    -2
286
     1
 66
     0
277
    -2
287
     1
 67
     0
278
    -2
288
     1
 68
     0
279
    -2
289
     1
 69
     0
  7
Standard
140
0.25
170
     5
 62
     0
 63
     7
283
     0
 90
      512
 91
        0
  1

274
    -2
284
     1
 64
     0
275
    -2
285
     1
 65
     0
276
    -2
286
     1
 66
     0
277
    -2
287
     1
 67
     0
278
    -2
288
     1
 68
     0
279
    -2
289
     1
 69
     0
  7
Standard
140
0.18
170
     5
 62
     0
 63
     7
283
     0
 90
      512
 91
        0
  1

274
    -2
284
     1
 64
     0
275
    -2
285
     1
 65
     0
276
    -2
286
     1
 66
     0
277
    -2
287
     1
 67
     0
278
    -2
288
     1
 68
     0
279
    -2
289
     1
 69
     0
  0
DICTIONARYVAR
  5
293
102
{ACAD_REACTORS
330
59
102
}
330
59
100
DictionaryVariables
280
     0
  1
1:1
  0
DICTIONARYVAR
  5
98
102
{ACAD_REACTORS
330
59
102
}
330
59
100
DictionaryVariables
280
     0
  1
Standard
  0
DICTIONARYVAR
  5
257
102
{ACAD_REACTORS
330
59
102
}
330
59
100
DictionaryVariables
280
     0
  1
2
  0
DICTIONARYVAR
  5
5E
102
{ACAD_REACTORS
330
59
102
}
330
59
100
DictionaryVariables
280
     0
  1
1
  0
ENDSEC
  0
EOF
