  0
SECTION
  2
HEADER
  9
$ACADVER
  1
AC1021
  9
$ACADMAINTVER
 70
    25
  9
$DWGCODEPAGE
  3
ANSI_1252
  9
$LASTSAVEDBY
  1
Josep Sancho
  9
$INSBASE
 10
0.0
 20
0.0
 30
0.0
  9
$EXTMIN
 10
176.8264998564
 20
49.9980727422
 30
0.0
  9
$EXTMAX
 10
2049.4323743066
 20
4182.346709532
 30
0.0
  9
$LIMMIN
 10
0.0
 20
0.0
  9
$LIMMAX
 10
2100.0
 20
2970.0
  9
$ORTHOMODE
 70
     0
  9
$REGENMODE
 70
     1
  9
$FILLMODE
 70
     1
  9
$QTEXTMODE
 70
     0
  9
$MIRRTEXT
 70
     1
  9
$LTSCALE
 40
10.0
  9
$ATTMODE
 70
     1
  9
$TEXTSIZE
 40
35.0
  9
$TRACEWID
 40
1.0
  9
$TEXTSTYLE
  7
Standard
  9
$CLAYER
  8
0
  9
$CELTYPE
  6
ByLayer
  9
$CECOLOR
 62
   256
  9
$CELTSCALE
 40
1.0
  9
$DISPSILH
 70
     0
  9
$DIMSCALE
 40
1.0
  9
$DIMASZ
 40
33.02
  9
$DIMEXO
 40
10.0
  9
$DIMDLI
 40
3.75
  9
$DIMRND
 40
0.0
  9
$DIMDLE
 40
0.0
  9
$DIMEXE
 40
10.0
  9
$DIMTP
 40
0.0
  9
$DIMTM
 40
0.0
  9
$DIMTXT
 40
35.0
  9
$DIMCEN
 40
2.5
  9
$DIMTSZ
 40
0.0
  9
$DIMTOL
 70
     0
  9
$DIMLIM
 70
     0
  9
$DIMTIH
 70
     1
  9
$DIMTOH
 70
     1
  9
$DIMSE1
 70
     0
  9
$DIMSE2
 70
     0
  9
$DIMTAD
 70
     1
  9
$DIMZIN
 70
     0
  9
$DIMBLK
  1

  9
$DIMASO
 70
     1
  9
$DIMSHO
 70
     1
  9
$DIMPOST
  1

  9
$DIMAPOST
  1

  9
$DIMALT
 70
     0
  9
$DIMALTD
 70
     3
  9
$DIMALTF
 40
0.0393700787
  9
$DIMLFAC
 40
1.0
  9
$DIMTOFL
 70
     1
  9
$DIMTVP
 40
0.0
  9
$DIMTIX
 70
     0
  9
$DIMSOXD
 70
     0
  9
$DIMSAH
 70
     0
  9
$DIMBLK1
  1

  9
$DIMBLK2
  1

  9
$DIMSTYLE
  2
ISO-25
  9
$DIMCLRD
 70
     0
  9
$DIMCLRE
 70
     0
  9
$DIMCLRT
 70
     0
  9
$DIMTFAC
 40
1.0
  9
$DIMGAP
 40
15.24
  9
$DIMJUST
 70
     0
  9
$DIMSD1
 70
     0
  9
$DIMSD2
 70
     0
  9
$DIMTOLJ
 70
     0
  9
$DIMTZIN
 70
     0
  9
$DIMALTZ
 70
     0
  9
$DIMALTTZ
 70
     0
  9
$DIMUPT
 70
     0
  9
$DIMDEC
 70
     3
  9
$DIMTDEC
 70
     3
  9
$DIMALTU
 70
     2
  9
$DIMALTTD
 70
     3
  9
$DIMTXSTY
  7
Standard
  9
$DIMAUNIT
 70
     0
  9
$DIMADEC
 70
     2
  9
$DIMALTRND
 40
0.0
  9
$DIMAZIN
 70
     0
  9
$DIMDSEP
 70
    44
  9
$DIMATFIT
 70
     3
  9
$DIMFRAC
 70
     0
  9
$DIMLDRBLK
  1

  9
$DIMLUNIT
 70
     2
  9
$DIMLWD
 70
    -2
  9
$DIMLWE
 70
    -2
  9
$DIMTMOVE
 70
     0
  9
$DIMFXL
 40
1.0
  9
$DIMFXLON
 70
     0
  9
$DIMJOGANG
 40
0.7853981633974483
  9
$DIMTFILL
 70
     0
  9
$DIMTFILLCLR
 70
     0
  9
$DIMARCSYM
 70
     0
  9
$DIMLTYPE
  6

  9
$DIMLTEX1
  6

  9
$DIMLTEX2
  6

  9
$LUNITS
 70
     2
  9
$LUPREC
 70
     2
  9
$SKETCHINC
 40
1.0
  9
$FILLETRAD
 40
10.0
  9
$AUNITS
 70
     0
  9
$AUPREC
 70
     2
  9
$MENU
  1
.
  9
$ELEVATION
 40
0.0
  9
$PELEVATION
 40
0.0
  9
$THICKNESS
 40
0.0
  9
$LIMCHECK
 70
     0
  9
$CHAMFERA
 40
10.0
  9
$CHAMFERB
 40
10.0
  9
$CHAMFERC
 40
20.0
  9
$CHAMFERD
 40
0.0
  9
$SKPOLY
 70
     0
  9
$TDCREATE
 40
2453353.800459155
  9
$TDUCREATE
 40
2453353.717125822
  9
$TDUPDATE
 40
2457122.933205683
  9
$TDUUPDATE
 40
2457122.84987235
  9
$TDINDWG
 40
0.043506956
  9
$TDUSRTIMER
 40
0.043506956
  9
$USRTIMER
 70
     1
  9
$ANGBASE
 50
0.0
  9
$ANGDIR
 70
     0
  9
$PDMODE
 70
     0
  9
$PDSIZE
 40
-1.0
  9
$PLINEWID
 40
0.0
  9
$SPLFRAME
 70
     0
  9
$SPLINETYPE
 70
     6
  9
$SPLINESEGS
 70
     8
  9
$HANDSEED
  5
1FF
  9
$SURFTAB1
 70
     6
  9
$SURFTAB2
 70
     6
  9
$SURFTYPE
 70
     6
  9
$SURFU
 70
     6
  9
$SURFV
 70
     6
  9
$UCSBASE
  2

  9
$UCSNAME
  2

  9
$UCSORG
 10
0.0
 20
0.0
 30
0.0
  9
$UCSXDIR
 10
1.0
 20
0.0
 30
0.0
  9
$UCSYDIR
 10
0.0
 20
1.0
 30
0.0
  9
$UCSORTHOREF
  2

  9
$UCSORTHOVIEW
 70
     0
  9
$UCSORGTOP
 10
0.0
 20
0.0
 30
0.0
  9
$UCSORGBOTTOM
 10
0.0
 20
0.0
 30
0.0
  9
$UCSORGLEFT
 10
0.0
 20
0.0
 30
0.0
  9
$UCSORGRIGHT
 10
0.0
 20
0.0
 30
0.0
  9
$UCSORGFRONT
 10
0.0
 20
0.0
 30
0.0
  9
$UCSORGBACK
 10
0.0
 20
0.0
 30
0.0
  9
$PUCSBASE
  2

  9
$PUCSNAME
  2

  9
$PUCSORG
 10
0.0
 20
0.0
 30
0.0
  9
$PUCSXDIR
 10
1.0
 20
0.0
 30
0.0
  9
$PUCSYDIR
 10
0.0
 20
1.0
 30
0.0
  9
$PUCSORTHOREF
  2

  9
$PUCSORTHOVIEW
 70
     0
  9
$PUCSORGTOP
 10
0.0
 20
0.0
 30
0.0
  9
$PUCSORGBOTTOM
 10
0.0
 20
0.0
 30
0.0
  9
$PUCSORGLEFT
 10
0.0
 20
0.0
 30
0.0
  9
$PUCSORGRIGHT
 10
0.0
 20
0.0
 30
0.0
  9
$PUCSORGFRONT
 10
0.0
 20
0.0
 30
0.0
  9
$PUCSORGBACK
 10
0.0
 20
0.0
 30
0.0
  9
$USERI1
 70
     0
  9
$USERI2
 70
     0
  9
$USERI3
 70
     0
  9
$USERI4
 70
     0
  9
$USERI5
 70
     0
  9
$USERR1
 40
0.0
  9
$USERR2
 40
0.0
  9
$USERR3
 40
0.0
  9
$USERR4
 40
0.0
  9
$USERR5
 40
0.0
  9
$WORLDVIEW
 70
     1
  9
$SHADEDGE
 70
     3
  9
$SHADEDIF
 70
    70
  9
$TILEMODE
 70
     1
  9
$MAXACTVP
 70
    64
  9
$PINSBASE
 10
0.0
 20
0.0
 30
0.0
  9
$PLIMCHECK
 70
     0
  9
$PEXTMIN
 10
1.000000000000000E+20
 20
1.000000000000000E+20
 30
1.000000000000000E+20
  9
$PEXTMAX
 10
-1.000000000000000E+20
 20
-1.000000000000000E+20
 30
-1.000000000000000E+20
  9
$PLIMMIN
 10
0.0
 20
0.0
  9
$PLIMMAX
 10
420.0
 20
297.0
  9
$UNITMODE
 70
     0
  9
$VISRETAIN
 70
     1
  9
$PLINEGEN
 70
     0
  9
$PSLTSCALE
 70
     1
  9
$TREEDEPTH
 70
  3020
  9
$CMLSTYLE
  2
Standard
  9
$CMLJUST
 70
     0
  9
$CMLSCALE
 40
20.0
  9
$PROXYGRAPHICS
 70
     1
  9
$MEASUREMENT
 70
     1
  9
$CELWEIGHT
370
    -1
  9
$ENDCAPS
280
     0
  9
$JOINSTYLE
280
     0
  9
$LWDISPLAY
290
     1
  9
$INSUNITS
 70
     4
  9
$HYPERLINKBASE
  1

  9
$STYLESHEET
  1

  9
$XEDIT
290
     0
  9
$CEPSNTYPE
380
     0
  9
$PSTYLEMODE
290
     1
  9
$FINGERPRINTGUID
  2
{510101A9-B251-4B9C-9E9D-80FC7F108983}
  9
$VERSIONGUID
  2
{FAEB1C32-E019-11D5-929B-00C0DF256EC4}
  9
$EXTNAMES
290
     1
  9
$PSVPSCALE
 40
0.0
  9
$OLESTARTUP
290
     0
  9
$SORTENTS
280
   127
  9
$INDEXCTL
280
     0
  9
$HIDETEXT
280
     1
  9
$XCLIPFRAME
290
     0
  9
$HALOGAP
280
     0
  9
$OBSCOLOR
 70
   257
  9
$OBSLTYPE
280
     0
  9
$INTERSECTIONDISPLAY
280
     0
  9
$INTERSECTIONCOLOR
 70
   257
  9
$DIMASSOC
280
     2
  9
$PROJECTNAME
  1

  9
$CAMERADISPLAY
290
     0
  9
$LENSLENGTH
 40
50.0
  9
$CAMERAHEIGHT
 40
0.0
  9
$STEPSPERSEC
 40
2.0
  9
$STEPSIZE
 40
6.0
  9
$3DDWFPREC
 40
2.0
  9
$PSOLWIDTH
 40
0.25
  9
$PSOLHEIGHT
 40
4.0
  9
$LOFTANG1
 40
1.570796326794897
  9
$LOFTANG2
 40
1.570796326794897
  9
$LOFTMAG1
 40
0.0
  9
$LOFTMAG2
 40
0.0
  9
$LOFTPARAM
 70
     7
  9
$LOFTNORMALS
280
     1
  9
$LATITUDE
 40
37.795
  9
$LONGITUDE
 40
-122.394
  9
$NORTHDIRECTION
 40
0.0
  9
$TIMEZONE
 70
 -8000
  9
$LIGHTGLYPHDISPLAY
280
     1
  9
$TILEMODELIGHTSYNCH
280
     1
  9
$SOLIDHIST
280
     1
  9
$SHOWHIST
280
     1
  9
$DWFFRAME
280
     2
  9
$DGNFRAME
280
     2
  9
$REALWORLDSCALE
290
     1
  9
$INTERFERECOLOR
 62
   256
  9
$CSHADOW
280
     0
  9
$SHADOWPLANELOCATION
 40
0.0
  0
ENDSEC
  0
SECTION
  2
CLASSES
  0
CLASS
  1
ACDBDICTIONARYWDFLT
  2
AcDbDictionaryWithDefault
  3
ObjectDBX Classes
 90
        0
 91
        4
280
     0
281
     0
  0
CLASS
  1
ACDBPLACEHOLDER
  2
AcDbPlaceHolder
  3
ObjectDBX Classes
 90
        0
 91
        1
280
     0
281
     0
  0
CLASS
  1
LAYOUT
  2
AcDbLayout
  3
ObjectDBX Classes
 90
        0
 91
        1
280
     0
281
     0
  0
CLASS
  1
DICTIONARYVAR
  2
AcDbDictionaryVar
  3
ObjectDBX Classes
 90
        0
 91
        4
280
     0
281
     0
  0
CLASS
  1
TABLESTYLE
  2
AcDbTableStyle
  3
ObjectDBX Classes
 90
     4095
 91
        4
280
     0
281
     0
  0
CLASS
  1
SCALE
  2
AcDbScale
  3
ObjectDBX Classes
 90
     1153
 91
        4
280
     0
281
     0
  0
CLASS
  1
IMAGEDEF
  2
AcDbRasterImageDef
  3
ISM
 90
        0
 91
        4
280
     0
281
     0
  0
CLASS
  1
VISUALSTYLE
  2
AcDbVisualStyle
  3
ObjectDBX Classes
 90
     4095
 91
        4
280
     0
281
     0
  0
ENDSEC
  0
SECTION
  2
TABLES
  0
TABLE
  2
VPORT
  5
8
330
0
100
AcDbSymbolTable
 70
     2
  0
VPORT
  5
97
330
8
100
AcDbSymbolTableRecord
100
AcDbViewportTableRecord
  2
*Active
 70
     0
 10
0.0
 20
0.0
 11
1.0
 21
1.0
 12
1259.938129074754
 22
1566.916411929255
 13
0.0
 23
0.0
 14
10.0
 24
10.0
 15
10.0
 25
10.0
 16
0.0
 26
0.0
 36
1.0
 17
0.0
 27
0.0
 37
0.0
 40
1885.035917254832
 41
0.7070707071
 42
50.0
 43
0.0
 44
0.0
 50
0.0
 51
0.0
 71
    16
 72
  2000
 73
     1
 74
     3
 75
     0
 76
     0
 77
     0
 78
     0
281
     0
 65
     0
110
0.0
120
0.0
130
0.0
111
1.0
121
0.0
131
0.0
112
0.0
122
1.0
132
0.0
 79
     0
146
0.0
 60
     3
 61
     5
292
     1
282
     1
141
0.0
142
0.0
 63
   256
  0
ENDTAB
  0
TABLE
  2
LTYPE
  5
5
330
0
100
AcDbSymbolTable
 70
     6
  0
LTYPE
  5
14
330
5
100
AcDbSymbolTableRecord
100
AcDbLinetypeTableRecord
  2
ByBlock
 70
     0
  3

 72
    65
 73
     0
 40
0.0
  0
LTYPE
  5
15
330
5
100
AcDbSymbolTableRecord
100
AcDbLinetypeTableRecord
  2
ByLayer
 70
     0
  3

 72
    65
 73
     0
 40
0.0
  0
LTYPE
  5
16
330
5
100
AcDbSymbolTableRecord
100
AcDbLinetypeTableRecord
  2
Continuous
 70
     0
  3
Solid line
 72
    65
 73
     0
 40
0.0
  0
LTYPE
  5
1C7
330
5
100
AcDbSymbolTableRecord
100
AcDbLinetypeTableRecord
  2
HIDDEN
 70
     0
  3
Hidden __ __ __ __ __ __ __ __ __ __ __ __ __ __
 72
    65
 73
     2
 40
1.905
 49
1.27
 74
     4
 75
     0
340
0
 46
1.0
 50
0.0
 44
0.0
 45
0.0
 49
-0.635
 74
     4
 75
     0
340
0
 46
1.0
 50
0.0
 44
0.0
 45
0.0
  0
LTYPE
  5
1C8
330
5
100
AcDbSymbolTableRecord
100
AcDbLinetypeTableRecord
  2
PHANTOM
 70
     0
  3
Phantom ______  __  __  ______  __  __  ______
 72
    65
 73
     6
 40
12.7
 49
6.35
 74
     4
 75
     0
340
0
 46
1.0
 50
0.0
 44
0.0
 45
0.0
 49
-1.27
 74
     4
 75
     0
340
0
 46
1.0
 50
0.0
 44
0.0
 45
0.0
 49
1.27
 74
     4
 75
     0
340
0
 46
1.0
 50
0.0
 44
0.0
 45
0.0
 49
-1.27
 74
     4
 75
     0
340
0
 46
1.0
 50
0.0
 44
0.0
 45
0.0
 49
1.27
 74
     4
 75
     0
340
0
 46
1.0
 50
0.0
 44
0.0
 45
0.0
 49
-1.27
 74
     4
 75
     0
340
0
 46
1.0
 50
0.0
 44
0.0
 45
0.0
  0
LTYPE
  5
1C9
330
5
100
AcDbSymbolTableRecord
100
AcDbLinetypeTableRecord
  2
CENTER
 70
     0
  3
Center ____ _ ____ _ ____ _ ____ _ ____ _ ____
 72
    65
 73
     4
 40
10.16
 49
6.35
 74
     4
 75
     0
340
0
 46
1.0
 50
0.0
 44
0.0
 45
0.0
 49
-1.27
 74
     4
 75
     0
340
0
 46
1.0
 50
0.0
 44
0.0
 45
0.0
 49
1.27
 74
     4
 75
     0
340
0
 46
1.0
 50
0.0
 44
0.0
 45
0.0
 49
-1.27
 74
     4
 75
     0
340
0
 46
1.0
 50
0.0
 44
0.0
 45
0.0
  0
LTYPE
  5
1CA
330
5
100
AcDbSymbolTableRecord
100
AcDbLinetypeTableRecord
  2
CENTERX2
 70
     0
  3
Center (2x) ________  __  ________  __  _____
 72
    65
 73
     4
 40
20.32
 49
12.7
 74
     4
 75
     0
340
0
 46
1.0
 50
0.0
 44
0.0
 45
0.0
 49
-2.54
 74
     4
 75
     0
340
0
 46
1.0
 50
0.0
 44
0.0
 45
0.0
 49
2.54
 74
     4
 75
     0
340
0
 46
1.0
 50
0.0
 44
0.0
 45
0.0
 49
-2.54
 74
     4
 75
     0
340
0
 46
1.0
 50
0.0
 44
0.0
 45
0.0
  0
LTYPE
  5
1CB
330
5
100
AcDbSymbolTableRecord
100
AcDbLinetypeTableRecord
  2
DOT2
 70
     0
  3
Dot (.5x) ........................................
 72
    65
 73
     2
 40
0.635
 49
0.0
 74
     4
 75
     0
340
0
 46
1.0
 50
0.0
 44
0.0
 45
0.0
 49
-0.635
 74
     4
 75
     0
340
0
 46
1.0
 50
0.0
 44
0.0
 45
0.0
  0
ENDTAB
  0
TABLE
  2
LAYER
  5
2
330
0
100
AcDbSymbolTable
 70
     1
  0
LAYER
  5
10
330
2
100
AcDbSymbolTableRecord
100
AcDbLayerTableRecord
  2
0
 70
     0
 62
     7
  6
Continuous
370
    -3
390
F
347
0
  0
ENDTAB
  0
TABLE
  2
STYLE
  5
3
330
0
100
AcDbSymbolTable
 70
     4
  0
STYLE
  5
11
330
3
100
AcDbSymbolTableRecord
100
AcDbTextStyleTableRecord
  2
Standard
 70
     0
 40
0.0
 41
1.0
 50
0.0
 71
     0
 42
2.5
  3
txt
  4

  0
STYLE
  5
64
330
3
100
AcDbSymbolTableRecord
100
AcDbTextStyleTableRecord
  2
SLDTEXTSTYLE0
 70
     0
 40
0.0
 41
0.75
 50
0.0
 71
     0
 42
0.2
  3
TXT
  4

  0
STYLE
  5
8A
330
3
100
AcDbSymbolTableRecord
100
AcDbTextStyleTableRecord
  2
SLDTEXTSTYLE1
 70
     0
 40
0.0
 41
0.6944444444
 50
0.0
 71
     0
 42
0.2
  3
TXT
  4

  0
STYLE
  5
1C6
330
3
100
AcDbSymbolTableRecord
100
AcDbTextStyleTableRecord
  2
SLDTEXTSTYLE2
 70
     0
 40
0.0
 41
0.605
 50
0.0
 71
     0
 42
0.2
  3
TXT
  4

  0
ENDTAB
  0
TABLE
  2
VIEW
  5
6
330
0
100
AcDbSymbolTable
 70
     0
  0
ENDTAB
  0
TABLE
  2
UCS
  5
7
330
0
100
AcDbSymbolTable
 70
     0
  0
ENDTAB
  0
TABLE
  2
APPID
  5
9
330
0
100
AcDbSymbolTable
 70
     1
  0
APPID
  5
12
330
9
100
AcDbSymbolTableRecord
100
AcDbRegAppTableRecord
  2
ACAD
 70
     0
  0
ENDTAB
  0
TABLE
  2
DIMSTYLE
  5
A
330
0
100
AcDbSymbolTable
 70
     5
100
AcDbDimStyleTable
  0
DIMSTYLE
105
27
330
A
100
AcDbSymbolTableRecord
100
AcDbDimStyleTableRecord
  2
Standard
 70
     0
278
     0
340
11
  0
DIMSTYLE
105
1CC
330
A
100
AcDbSymbolTableRecord
100
AcDbDimStyleTableRecord
  2
ISO-25
 70
     0
 41
2.5
 42
0.625
 43
3.75
 44
1.25
 73
     0
 74
     0
 77
     1
 78
     8
140
2.5
141
2.5
143
0.0393700787
147
0.625
171
     3
172
     1
271
     2
272
     2
274
     3
278
    44
283
     0
284
     8
340
11
  0
DIMSTYLE
105
169
102
{ACAD_REACTORS
330
168
330
1B0
102
}
330
A
100
AcDbSymbolTableRecord
100
AcDbDimStyleTableRecord
  2
SLDDIMSTYLE0
 70
     0
 41
33.02
 44
0.0
 45
0.000000001
 73
     0
 77
     1
 78
    12
140
35.0
147
8.75
173
     1
271
     2
272
     2
284
    12
340
64
  0
DIMSTYLE
105
175
102
{ACAD_REACTORS
330
174
330
17F
102
}
330
A
100
AcDbSymbolTableRecord
100
AcDbDimStyleTableRecord
  2
SLDDIMSTYLE1
 70
     0
 41
33.02
 44
0.0
 45
0.000000001
 73
     0
 77
     1
 78
    12
140
35.0
147
8.75
173
     1
271
     0
272
     0
284
    12
340
64
  0
DIMSTYLE
105
18A
102
{ACAD_REACTORS
330
189
330
197
330
1A4
102
}
330
A
100
AcDbSymbolTableRecord
100
AcDbDimStyleTableRecord
  2
SLDDIMSTYLE2
 70
     0
 41
33.02
 44
0.0
 45
0.000000001
 73
     0
 77
     1
 78
    12
140
35.0
147
8.75
173
     1
271
     2
272
     2
284
    12
340
64
  0
ENDTAB
  0
TABLE
  2
BLOCK_RECORD
  5
1
330
0
100
AcDbSymbolTable
 70
     8
  0
BLOCK_RECORD
  5
1F
102
{ACAD_XDICTIONARY
360
1FD
102
}
330
1
100
AcDbSymbolTableRecord
100
AcDbBlockTableRecord
  2
*Model_Space
340
22
 70
     0
280
     1
281
     0
  0
BLOCK_RECORD
  5
73
330
1
100
AcDbSymbolTableRecord
100
AcDbBlockTableRecord
  2
*Paper_Space
340
74
 70
     0
280
     1
281
     0
  0
BLOCK_RECORD
  5
23
330
1
100
AcDbSymbolTableRecord
100
AcDbBlockTableRecord
  2
*Paper_Space0
340
26
 70
     0
280
     1
281
     0
  0
BLOCK_RECORD
  5
16A
330
1
100
AcDbSymbolTableRecord
100
AcDbBlockTableRecord
  2
*D1
340
0
 70
     0
280
     1
281
     0
  0
BLOCK_RECORD
  5
176
330
1
100
AcDbSymbolTableRecord
100
AcDbBlockTableRecord
  2
*D2
340
0
 70
     0
280
     1
281
     0
  0
BLOCK_RECORD
  5
180
330
1
100
AcDbSymbolTableRecord
100
AcDbBlockTableRecord
  2
*D3
340
0
 70
     0
280
     1
281
     0
  0
BLOCK_RECORD
  5
18B
330
1
100
AcDbSymbolTableRecord
100
AcDbBlockTableRecord
  2
*D4
340
0
 70
     0
280
     1
281
     0
  0
BLOCK_RECORD
  5
198
330
1
100
AcDbSymbolTableRecord
100
AcDbBlockTableRecord
  2
*D5
340
0
 70
     0
280
     1
281
     0
  0
BLOCK_RECORD
  5
1A5
330
1
100
AcDbSymbolTableRecord
100
AcDbBlockTableRecord
  2
*D6
340
0
 70
     0
280
     1
281
     0
  0
BLOCK_RECORD
  5
1B1
330
1
100
AcDbSymbolTableRecord
100
AcDbBlockTableRecord
  2
*D7
340
0
 70
     0
280
     1
281
     0
  0
ENDTAB
  0
ENDSEC
  0
SECTION
  2
BLOCKS
  0
BLOCK
  5
20
330
1F
100
AcDbEntity
  8
0
100
AcDbBlockBegin
  2
*Model_Space
 70
     0
 10
0.0
 20
0.0
 30
0.0
  3
*Model_Space
  1

  0
ENDBLK
  5
21
330
1F
100
AcDbEntity
  8
0
100
AcDbBlockEnd
  0
BLOCK
  5
75
330
73
100
AcDbEntity
 67
     1
  8
0
100
AcDbBlockBegin
  2
*Paper_Space
 70
     0
 10
0.0
 20
0.0
 30
0.0
  3
*Paper_Space
  1

  0
ENDBLK
  5
76
330
73
100
AcDbEntity
 67
     1
  8
0
100
AcDbBlockEnd
  0
BLOCK
  5
1D3
330
23
100
AcDbEntity
  8
0
100
AcDbBlockBegin
  2
*Paper_Space0
 70
     0
 10
0.0
 20
0.0
 30
0.0
  3
*Paper_Space0
  1

  0
ENDBLK
  5
1D4
330
23
100
AcDbEntity
  8
0
100
AcDbBlockEnd
  0
BLOCK
  5
1D5
330
16A
100
AcDbEntity
  8
0
100
AcDbBlockBegin
  2
*D1
 70
     1
 10
0.0
 20
0.0
 30
0.0
  3
*D1
  1

  0
SOLID
  5
16D
330
16A
100
AcDbEntity
  8
0
  6
Continuous
 62
     7
 48
10.0
370
     0
100
AcDbTrace
 10
871.7219842165
 20
930.713226659
 30
0.0
 11
904.7419842165
 21
925.633226659
 31
0.0
 12
904.7419842165
 22
935.793226659
 32
0.0
 13
904.7419842165
 23
935.793226659
 33
0.0
  0
SOLID
  5
16E
330
16A
100
AcDbEntity
  8
0
  6
Continuous
 62
     7
 48
10.0
370
     0
100
AcDbTrace
 10
1371.7219842165
 20
930.713226659
 30
0.0
 11
1338.7019842165
 21
935.793226659
 31
0.0
 12
1338.7019842165
 22
925.633226659
 32
0.0
 13
1338.7019842165
 23
925.633226659
 33
0.0
  0
LINE
  5
16F
330
16A
100
AcDbEntity
  8
0
  6
Continuous
 62
     7
 48
10.0
370
     0
100
AcDbLine
 10
871.7219842165
 20
1226.0585487795
 30
0.0
 11
871.7219842165
 21
920.713226659
 31
0.0
  0
LINE
  5
170
330
16A
100
AcDbEntity
  8
0
  6
Continuous
 62
     7
 48
10.0
370
     0
100
AcDbLine
 10
1371.7219842165
 20
1226.0585487795
 30
0.0
 11
1371.7219842165
 21
920.713226659
 31
0.0
  0
LINE
  5
171
330
16A
100
AcDbEntity
  8
0
  6
Continuous
 62
     7
 48
10.0
370
     0
100
AcDbLine
 10
871.7219842165
 20
930.713226659
 30
0.0
 11
1371.7219842165
 21
930.713226659
 31
0.0
  0
MTEXT
  5
172
330
16A
100
AcDbEntity
  8
0
  6
Continuous
 62
     7
 48
10.0
370
     0
100
AcDbMText
 10
1043.6667307593
 20
975.830597551
 30
0.0
 40
35.0
 41
0.0
 46
0.0
 71
     1
 72
     1
  1
%%c
  7
SLDTEXTSTYLE0
 73
     1
 44
1.0
  0
MTEXT
  5
173
330
16A
100
AcDbEntity
  8
0
  6
Continuous
 62
     7
 48
10.0
370
     0
100
AcDbMText
 10
1096.4143096367
 20
975.8305958048
 30
0.0
 40
35.0
 41
0.0
 46
0.0
 71
     1
 72
     1
  1
500
  7
SLDTEXTSTYLE0
 73
     1
 44
1.0
  0
ENDBLK
  5
1D6
330
16A
100
AcDbEntity
  8
0
100
AcDbBlockEnd
  0
BLOCK
  5
1D7
330
176
100
AcDbEntity
  8
0
100
AcDbBlockBegin
  2
*D2
 70
     1
 10
0.0
 20
0.0
 30
0.0
  3
*D2
  1

  0
SOLID
  5
179
330
176
100
AcDbEntity
  8
0
  6
Continuous
 62
     7
 48
10.0
370
     0
100
AcDbTrace
 10
771.7219842165
 20
1688.2711678762
 30
0.0
 11
766.6419842165
 21
1655.2511678762
 31
0.0
 12
776.8019842165
 22
1655.2511678762
 32
0.0
 13
776.8019842165
 23
1655.2511678762
 33
0.0
  0
SOLID
  5
17A
330
176
100
AcDbEntity
  8
0
  6
Continuous
 62
     7
 48
10.0
370
     0
100
AcDbTrace
 10
771.7219842165
 20
1118.7938983922
 30
0.0
 11
776.8019842165
 21
1151.8138983922
 31
0.0
 12
766.6419842165
 22
1151.8138983922
 32
0.0
 13
766.6419842165
 23
1151.8138983922
 33
0.0
  0
LINE
  5
17B
330
176
100
AcDbEntity
  8
0
  6
Continuous
 62
     7
 48
10.0
370
     0
100
AcDbLine
 10
1095.5222604584
 20
1688.2711678762
 30
0.0
 11
761.7219842165
 21
1688.2711678762
 31
0.0
  0
LINE
  5
17C
330
176
100
AcDbEntity
  8
0
  6
Continuous
 62
     7
 48
10.0
370
     0
100
AcDbLine
 10
1054.7219842165
 20
1118.7938983922
 30
0.0
 11
761.7219842165
 21
1118.7938983922
 31
0.0
  0
LINE
  5
17D
330
176
100
AcDbEntity
  8
0
  6
Continuous
 62
     7
 48
10.0
370
     0
100
AcDbLine
 10
771.7219842165
 20
1688.2711678762
 30
0.0
 11
771.7219842165
 21
1118.7938983922
 31
0.0
  0
MTEXT
  5
17E
330
176
100
AcDbEntity
  8
0
  6
Continuous
 62
     7
 48
10.0
370
     0
100
AcDbMText
 10
726.6046150707
 20
1364.7462526908
 30
0.0
 40
35.0
 41
0.0
 46
0.0
 71
     1
 72
     1
  1
570
  7
SLDTEXTSTYLE0
 11
-7.044195017643634E-15
 21
1.0
 31
0.0
 73
     1
 44
1.0
  0
ENDBLK
  5
1D8
330
176
100
AcDbEntity
  8
0
100
AcDbBlockEnd
  0
BLOCK
  5
1D9
330
180
100
AcDbEntity
  8
0
100
AcDbBlockBegin
  2
*D3
 70
     1
 10
0.0
 20
0.0
 30
0.0
  3
*D3
  1

  0
SOLID
  5
183
330
180
100
AcDbEntity
  8
0
  6
Continuous
 62
     7
 48
10.0
370
     0
100
AcDbTrace
 10
1471.7219842165
 20
1522.2711678762
 30
0.0
 11
1466.6419842165
 21
1489.2511678762
 31
0.0
 12
1476.8019842165
 22
1489.2511678762
 32
0.0
 13
1476.8019842165
 23
1489.2511678762
 33
0.0
  0
SOLID
  5
184
330
180
100
AcDbEntity
  8
0
  6
Continuous
 62
     7
 48
10.0
370
     0
100
AcDbTrace
 10
1471.7219842165
 20
1118.7938983922
 30
0.0
 11
1476.8019842165
 21
1151.8138983922
 31
0.0
 12
1466.6419842165
 22
1151.8138983922
 32
0.0
 13
1466.6419842165
 23
1151.8138983922
 33
0.0
  0
LINE
  5
185
330
180
100
AcDbEntity
  8
0
  6
Continuous
 62
     7
 48
10.0
370
     0
100
AcDbLine
 10
1188.7219842165
 20
1522.2711678762
 30
0.0
 11
1481.7219842165
 21
1522.2711678762
 31
0.0
  0
LINE
  5
186
330
180
100
AcDbEntity
  8
0
  6
Continuous
 62
     7
 48
10.0
370
     0
100
AcDbLine
 10
1188.7219842165
 20
1118.7938983922
 30
0.0
 11
1481.7219842165
 21
1118.7938983922
 31
0.0
  0
LINE
  5
187
330
180
100
AcDbEntity
  8
0
  6
Continuous
 62
     7
 48
10.0
370
     0
100
AcDbLine
 10
1471.7219842165
 20
1522.2711678762
 30
0.0
 11
1471.7219842165
 21
1118.7938983922
 31
0.0
  0
MTEXT
  5
188
330
180
100
AcDbEntity
  8
0
  6
Continuous
 62
     7
 48
10.0
370
     0
100
AcDbMText
 10
1426.6046150707
 20
1307.5841135464
 30
0.0
 40
35.0
 41
0.0
 46
0.0
 71
     1
 72
     1
  1
400
  7
SLDTEXTSTYLE0
 11
-7.044195017643634E-15
 21
1.0
 31
0.0
 73
     1
 44
1.0
  0
ENDBLK
  5
1DA
330
180
100
AcDbEntity
  8
0
100
AcDbBlockEnd
  0
BLOCK
  5
1DB
330
18B
100
AcDbEntity
  8
0
100
AcDbBlockBegin
  2
*D4
 70
     1
 10
0.0
 20
0.0
 30
0.0
  3
*D4
  1

  0
SOLID
  5
18E
330
18B
100
AcDbEntity
  8
0
  6
Continuous
 62
     7
 48
10.0
370
     0
100
AcDbTrace
 10
1179.7219842165
 20
1018.7938983922
 30
0.0
 11
1212.7419842165
 21
1013.7138983922
 31
0.0
 12
1212.7419842165
 22
1023.8738983922
 32
0.0
 13
1212.7419842165
 23
1023.8738983922
 33
0.0
  0
SOLID
  5
18F
330
18B
100
AcDbEntity
  8
0
  6
Continuous
 62
     7
 48
10.0
370
     0
100
AcDbTrace
 10
1063.7219842165
 20
1018.7938983922
 30
0.0
 11
1030.7019842165
 21
1023.8738983922
 31
0.0
 12
1030.7019842165
 22
1013.7138983922
 32
0.0
 13
1030.7019842165
 23
1013.7138983922
 33
0.0
  0
LINE
  5
190
330
18B
100
AcDbEntity
  8
0
  6
Continuous
 62
     7
 48
10.0
370
     0
100
AcDbLine
 10
1179.7219842165
 20
1109.7938983922
 30
0.0
 11
1179.7219842165
 21
1008.7938983922
 31
0.0
  0
LINE
  5
191
330
18B
100
AcDbEntity
  8
0
  6
Continuous
 62
     7
 48
10.0
370
     0
100
AcDbLine
 10
1063.7219842165
 20
1109.7938983922
 30
0.0
 11
1063.7219842165
 21
1008.7938983922
 31
0.0
  0
LINE
  5
192
330
18B
100
AcDbEntity
  8
0
  6
Continuous
 62
     7
 48
10.0
370
     0
100
AcDbLine
 10
1179.7219842165
 20
1018.7938983922
 30
0.0
 11
1243.2219842165
 21
1018.7938983922
 31
0.0
  0
LINE
  5
193
330
18B
100
AcDbEntity
  8
0
  6
Continuous
 62
     7
 48
10.0
370
     0
100
AcDbLine
 10
1179.7219842165
 20
1018.7938983922
 30
0.0
 11
1063.7219842165
 21
1018.7938983922
 31
0.0
  0
LINE
  5
194
330
18B
100
AcDbEntity
  8
0
  6
Continuous
 62
     7
 48
10.0
370
     0
100
AcDbLine
 10
1063.7219842165
 20
1018.7938983922
 30
0.0
 11
1000.2219842165
 21
1018.7938983922
 31
0.0
  0
MTEXT
  5
195
330
18B
100
AcDbEntity
  8
0
  6
Continuous
 62
     7
 48
10.0
370
     0
100
AcDbMText
 10
1043.6667307593
 20
1063.9112692842
 30
0.0
 40
35.0
 41
0.0
 46
0.0
 71
     1
 72
     1
  1
%%c
  7
SLDTEXTSTYLE0
 73
     1
 44
1.0
  0
MTEXT
  5
196
330
18B
100
AcDbEntity
  8
0
  6
Continuous
 62
     7
 48
10.0
370
     0
100
AcDbMText
 10
1096.4143096367
 20
1063.911267538
 30
0.0
 40
35.0
 41
0.0
 46
0.0
 71
     1
 72
     1
  1
116
  7
SLDTEXTSTYLE0
 73
     1
 44
1.0
  0
ENDBLK
  5
1DC
330
18B
100
AcDbEntity
  8
0
100
AcDbBlockEnd
  0
BLOCK
  5
1DD
330
198
100
AcDbEntity
  8
0
100
AcDbBlockBegin
  2
*D5
 70
     1
 10
0.0
 20
0.0
 30
0.0
  3
*D5
  1

  0
SOLID
  5
19B
330
198
100
AcDbEntity
  8
0
  6
Continuous
 62
     7
 48
10.0
370
     0
100
AcDbTrace
 10
1051.7219842165
 20
2430.8313342299
 30
0.0
 11
1018.7019842165
 21
2435.9113342299
 31
0.0
 12
1018.7019842165
 22
2425.7513342299
 32
0.0
 13
1018.7019842165
 23
2425.7513342299
 33
0.0
  0
SOLID
  5
19C
330
198
100
AcDbEntity
  8
0
  6
Continuous
 62
     7
 48
10.0
370
     0
100
AcDbTrace
 10
1191.7219842165
 20
2430.8313342299
 30
0.0
 11
1224.7419842165
 21
2425.7513342299
 31
0.0
 12
1224.7419842165
 22
2435.9113342299
 32
0.0
 13
1224.7419842165
 23
2435.9113342299
 33
0.0
  0
LINE
  5
19D
330
198
100
AcDbEntity
  8
0
  6
Continuous
 62
     7
 48
10.0
370
     0
100
AcDbLine
 10
1051.7219842165
 20
2323.8177935579
 30
0.0
 11
1051.7219842165
 21
2440.8313342299
 31
0.0
  0
LINE
  5
19E
330
198
100
AcDbEntity
  8
0
  6
Continuous
 62
     7
 48
10.0
370
     0
100
AcDbLine
 10
1191.7219842165
 20
2323.8177935579
 30
0.0
 11
1191.7219842165
 21
2440.8313342299
 31
0.0
  0
LINE
  5
19F
330
198
100
AcDbEntity
  8
0
  6
Continuous
 62
     7
 48
10.0
370
     0
100
AcDbLine
 10
1051.7219842165
 20
2430.8313342299
 30
0.0
 11
988.2219842165
 21
2430.8313342299
 31
0.0
  0
LINE
  5
1A0
330
198
100
AcDbEntity
  8
0
  6
Continuous
 62
     7
 48
10.0
370
     0
100
AcDbLine
 10
1051.7219842165
 20
2430.8313342299
 30
0.0
 11
1191.7219842165
 21
2430.8313342299
 31
0.0
  0
LINE
  5
1A1
330
198
100
AcDbEntity
  8
0
  6
Continuous
 62
     7
 48
10.0
370
     0
100
AcDbLine
 10
1191.7219842165
 20
2430.8313342299
 30
0.0
 11
1255.2219842165
 21
2430.8313342299
 31
0.0
  0
MTEXT
  5
1A2
330
198
100
AcDbEntity
  8
0
  6
Continuous
 62
     7
 48
10.0
370
     0
100
AcDbMText
 10
1051.2511461157
 20
2475.9487051219
 30
0.0
 40
35.0
 41
0.0
 46
0.0
 71
     1
 72
     1
  1
%%c
  7
SLDTEXTSTYLE0
 73
     1
 44
1.0
  0
MTEXT
  5
1A3
330
198
100
AcDbEntity
  8
0
  6
Continuous
 62
     7
 48
10.0
370
     0
100
AcDbMText
 10
1103.9987249931
 20
2475.9487033757
 30
0.0
 40
35.0
 41
0.0
 46
0.0
 71
     1
 72
     1
  1
140
  7
SLDTEXTSTYLE0
 73
     1
 44
1.0
  0
ENDBLK
  5
1DE
330
198
100
AcDbEntity
  8
0
100
AcDbBlockEnd
  0
BLOCK
  5
1DF
330
1A5
100
AcDbEntity
  8
0
100
AcDbBlockBegin
  2
*D6
 70
     1
 10
0.0
 20
0.0
 30
0.0
  3
*D6
  1

  0
SOLID
  5
1A8
330
1A5
100
AcDbEntity
  8
0
  6
Continuous
 62
     7
 48
10.0
370
     0
100
AcDbTrace
 10
1313.969520992
 20
2313.8177935579
 30
0.0
 11
1319.049520992
 21
2346.8377935579
 31
0.0
 12
1308.889520992
 22
2346.8377935579
 32
0.0
 13
1308.889520992
 23
2346.8377935579
 33
0.0
  0
SOLID
  5
1A9
330
1A5
100
AcDbEntity
  8
0
  6
Continuous
 62
     7
 48
10.0
370
     0
100
AcDbTrace
 10
1313.969520992
 20
2273.8177935579
 30
0.0
 11
1308.889520992
 21
2240.7977935579
 31
0.0
 12
1319.049520992
 22
2240.7977935579
 32
0.0
 13
1319.049520992
 23
2240.7977935579
 33
0.0
  0
LINE
  5
1AA
330
1A5
100
AcDbEntity
  8
0
  6
Continuous
 62
     7
 48
10.0
370
     0
100
AcDbLine
 10
1201.7219842165
 20
2313.8177935579
 30
0.0
 11
1323.969520992
 21
2313.8177935579
 31
0.0
  0
LINE
  5
1AB
330
1A5
100
AcDbEntity
  8
0
  6
Continuous
 62
     7
 48
10.0
370
     0
100
AcDbLine
 10
1198.7219842165
 20
2273.8177935579
 30
0.0
 11
1323.969520992
 21
2273.8177935579
 31
0.0
  0
LINE
  5
1AC
330
1A5
100
AcDbEntity
  8
0
  6
Continuous
 62
     7
 48
10.0
370
     0
100
AcDbLine
 10
1313.969520992
 20
2313.8177935579
 30
0.0
 11
1313.969520992
 21
2377.3177935579
 31
0.0
  0
LINE
  5
1AD
330
1A5
100
AcDbEntity
  8
0
  6
Continuous
 62
     7
 48
10.0
370
     0
100
AcDbLine
 10
1313.969520992
 20
2313.8177935579
 30
0.0
 11
1313.969520992
 21
2273.8177935579
 31
0.0
  0
LINE
  5
1AE
330
1A5
100
AcDbEntity
  8
0
  6
Continuous
 62
     7
 48
10.0
370
     0
100
AcDbLine
 10
1313.969520992
 20
2273.8177935579
 30
0.0
 11
1313.969520992
 21
2179.8386126652
 31
0.0
  0
MTEXT
  5
1AF
330
1A5
100
AcDbEntity
  8
0
  6
Continuous
 62
     7
 48
10.0
370
     0
100
AcDbMText
 10
1268.8521518462
 20
2195.7136126652
 30
0.0
 40
35.0
 41
0.0
 46
0.0
 71
     1
 72
     1
  1
40
  7
SLDTEXTSTYLE0
 11
-7.044195017643634E-15
 21
1.0
 31
0.0
 73
     1
 44
1.0
  0
ENDBLK
  5
1E0
330
1A5
100
AcDbEntity
  8
0
100
AcDbBlockEnd
  0
BLOCK
  5
1E1
330
1B1
100
AcDbEntity
  8
0
100
AcDbBlockBegin
  2
*D7
 70
     1
 10
0.0
 20
0.0
 30
0.0
  3
*D7
  1

  0
SOLID
  5
1B4
330
1B1
100
AcDbEntity
  8
0
  6
Continuous
 62
     7
 48
10.0
370
     0
100
AcDbTrace
 10
1471.7219842165
 20
2273.8177935579
 30
0.0
 11
1466.6419842165
 21
2240.7977935579
 31
0.0
 12
1476.8019842165
 22
2240.7977935579
 32
0.0
 13
1476.8019842165
 23
2240.7977935579
 33
0.0
  0
SOLID
  5
1B5
330
1B1
100
AcDbEntity
  8
0
  6
Continuous
 62
     7
 48
10.0
370
     0
100
AcDbTrace
 10
1471.7219842165
 20
1522.2711678762
 30
0.0
 11
1476.8019842165
 21
1555.2911678762
 31
0.0
 12
1466.6419842165
 22
1555.2911678762
 32
0.0
 13
1466.6419842165
 23
1555.2911678762
 33
0.0
  0
LINE
  5
1B6
330
1B1
100
AcDbEntity
  8
0
  6
Continuous
 62
     7
 48
10.0
370
     0
100
AcDbLine
 10
1198.7219842165
 20
2273.8177935579
 30
0.0
 11
1481.7219842165
 21
2273.8177935579
 31
0.0
  0
LINE
  5
1B7
330
1B1
100
AcDbEntity
  8
0
  6
Continuous
 62
     7
 48
10.0
370
     0
100
AcDbLine
 10
1188.7219842165
 20
1522.2711678762
 30
0.0
 11
1481.7219842165
 21
1522.2711678762
 31
0.0
  0
LINE
  5
1B8
330
1B1
100
AcDbEntity
  8
0
  6
Continuous
 62
     7
 48
10.0
370
     0
100
AcDbLine
 10
1471.7219842165
 20
2273.8177935579
 30
0.0
 11
1471.7219842165
 21
1522.2711678762
 31
0.0
  0
MTEXT
  5
1B9
330
1B1
100
AcDbEntity
  8
0
  6
Continuous
 62
     7
 48
10.0
370
     0
100
AcDbMText
 10
1426.6046150707
 20
1811.6578003925
 30
0.0
 40
35.0
 41
0.0
 46
0.0
 71
     1
 72
     1
  1
max.250
  7
SLDTEXTSTYLE0
 11
-7.044195017643634E-15
 21
1.0
 31
0.0
 73
     1
 44
1.0
  0
ENDBLK
  5
1E2
330
1B1
100
AcDbEntity
  8
0
100
AcDbBlockEnd
  0
ENDSEC
  0
SECTION
  2
ENTITIES
  0
LINE
  5
1E3
330
1F
100
AcDbEntity
  8
0
  6
Continuous
 62
     7
 48
10.0
370
    15
100
AcDbLine
 10
1174.7219835906
 20
1121.7939038698
 30
0.0
 11
1174.7219835906
 21
1123.2938994591
 31
0.0
  0
LINE
  5
1E4
330
1F
100
AcDbEntity
  8
0
  6
Continuous
 62
     7
 48
10.0
370
    15
100
AcDbLine
 10
1068.7219848423
 20
1123.2938994591
 30
0.0
 11
1068.7219848423
 21
1121.7939038698
 31
0.0
  0
LINE
  5
1E5
330
1F
100
AcDbEntity
  8
0
  6
Continuous
 62
     7
 48
10.0
370
    15
100
AcDbLine
 10
1107.0128626688
 20
2272.567816538
 30
0.0
 11
1107.0128626688
 21
2273.8177855436
 31
0.0
  0
LINE
  5
1E6
330
1F
100
AcDbEntity
  8
0
  6
Continuous
 62
     7
 48
10.0
370
    15
100
AcDbLine
 10
1090.0128608136
 20
2273.8177855436
 30
0.0
 11
1090.0128608136
 21
2272.567816538
 31
0.0
  0
ARC
  5
1E7
330
1F
100
AcDbEntity
  8
0
  6
Continuous
 62
     7
 48
100.0
370
    15
100
AcDbCircle
 10
1105.5128624205
 20
2272.5677935579
 30
0.0
 40
1.5
100
AcDbArc
 50
270.0
 51
0.0
  0
ARC
  5
1E8
330
1F
100
AcDbEntity
  8
0
  6
Continuous
 62
     7
 48
100.0
370
    15
100
AcDbCircle
 10
1091.5128624205
 20
2272.5677935579
 30
0.0
 40
1.5
100
AcDbArc
 50
180.0
 51
270.0
  0
LINE
  5
1E9
330
1F
100
AcDbEntity
  8
0
  6
Continuous
 62
     7
 48
10.0
370
    15
100
AcDbLine
 10
1115.7219841643
 20
2273.6178119604
 30
0.0
 11
1115.7219841643
 21
2264.3178184454
 31
0.0
  0
LINE
  5
1EA
330
1F
100
AcDbEntity
  8
0
  6
Continuous
 62
     7
 48
10.0
370
    15
100
AcDbLine
 10
1127.7219842686
 20
2264.3178184454
 30
0.0
 11
1127.7219842686
 21
2273.6178119604
 31
0.0
  0
LINE
  5
1EB
330
1F
100
AcDbEntity
  8
0
  6
Continuous
 62
     7
 48
10.0
370
    15
100
AcDbLine
 10
1115.7219841643
 20
2264.3178184454
 30
0.0
 11
1116.2219842463
 21
2263.8177950804
 31
0.0
  0
LINE
  5
1EC
330
1F
100
AcDbEntity
  8
0
  6
Continuous
 62
     7
 48
10.0
370
    15
100
AcDbLine
 10
1127.2219841867
 20
2263.8177950804
 30
0.0
 11
1127.7219842686
 21
2264.3178184454
 31
0.0
  0
LINE
  5
1ED
330
1F
100
AcDbEntity
  8
0
  6
Continuous
 62
     7
 48
10.0
370
    15
100
AcDbLine
 10
1127.7219842686
 20
2273.6178119604
 30
0.0
 11
1127.5219841427
 21
2273.8177855436
 31
0.0
  0
LINE
  5
1EE
330
1F
100
AcDbEntity
  8
0
  6
Continuous
 62
     7
 48
10.0
370
    15
100
AcDbLine
 10
1115.9219842902
 20
2273.8177855436
 30
0.0
 11
1115.7219841643
 21
2273.6178119604
 31
0.0
  0
LINE
  5
1EF
330
1F
100
AcDbEntity
  8
0
  6
Continuous
 62
     7
 48
10.0
370
    15
100
AcDbLine
 10
1191.7219845145
 20
2276.8178065244
 30
0.0
 11
1191.7219845145
 21
2313.8178070013
 31
0.0
  0
LINE
  5
1F0
330
1F
100
AcDbEntity
  8
0
  6
Continuous
 62
     7
 48
10.0
370
    15
100
AcDbLine
 10
1051.7219839184
 20
2313.8178070013
 30
0.0
 11
1051.7219839184
 21
2276.8178065244
 31
0.0
  0
ARC
  5
1F1
330
1F
100
AcDbEntity
  8
0
  6
Continuous
 62
     7
 48
100.0
370
    15
100
AcDbCircle
 10
1188.7219842165
 20
2276.8177935579
 30
0.0
 40
3.0
100
AcDbArc
 50
270.0
 51
0.0
  0
ARC
  5
1F2
330
1F
100
AcDbEntity
  8
0
  6
Continuous
 62
     7
 48
100.0
370
    15
100
AcDbCircle
 10
1054.7219842165
 20
2276.8177935579
 30
0.0
 40
3.000000000000227
100
AcDbArc
 50
180.0
 51
270.0
  0
SPLINE
  5
1F3
330
1F
100
AcDbEntity
  8
0
  6
Continuous
 62
     7
 48
10.0
370
    15
100
AcDbSpline
210
0.0
220
0.0
230
1.0
 70
     8
 71
     3
 72
    23
 73
    19
 74
     0
 42
0.00000001
 43
0.00000001
 40
0.0
 40
0.0
 40
0.0
 40
0.0
 40
0.0286888992379016
 40
0.0916680989859819
 40
0.1625946465514383
 40
0.2211623596104204
 40
0.2698142807557178
 40
0.3358305616039364
 40
0.3874432490583211
 40
0.4309116762658659
 40
0.4705930097030351
 40
0.5092539510924728
 40
0.5482296107396745
 40
0.6372090935558413
 40
0.7289725852389224
 40
0.847170045563341
 40
0.9727086137485655
 40
1.0
 40
1.0
 40
1.0
 40
1.0
 10
1125.860182897635
 20
1548.771165770702
 30
0.0
 10
1125.864254784416
 20
1549.384526070433
 30
0.0
 10
1125.877265465564
 20
1551.344363295402
 30
0.0
 10
1125.88733184964
 20
1554.820659904826
 30
0.0
 10
1125.887340443244
 20
1558.935784505238
 30
0.0
 10
1125.870088865305
 20
1562.744554680913
 30
0.0
 10
1125.837659568223
 20
1566.448236036241
 30
0.0
 10
1125.788365615868
 20
1570.003027709867
 30
0.0
 10
1125.727455698218
 20
1573.446777131566
 30
0.0
 10
1125.681090588
 20
1576.327655967092
 30
0.0
 10
1125.657457950519
 20
1578.931916395886
 30
0.0
 10
1125.659403101939
 20
1581.440234007584
 30
0.0
 10
1125.694843293032
 20
1585.002378843497
 30
0.0
 10
1125.823768338719
 20
1589.698761629013
 30
0.0
 10
1126.181835623852
 20
1596.081352292416
 30
0.0
 10
1126.866236939504
 20
1603.223226332271
 30
0.0
 10
1127.615516508301
 20
1608.971408668955
 30
0.0
 10
1128.147137251254
 20
1612.195435474542
 30
0.0
 10
1128.242070650198
 20
1612.771161359959
 30
0.0
  0
SPLINE
  5
1F4
330
1F
100
AcDbEntity
  8
0
  6
Continuous
 62
     7
 48
10.0
370
    15
100
AcDbSpline
210
0.0
220
0.0
230
1.0
 70
     8
 71
     3
 72
    11
 73
     7
 74
     0
 42
0.00000001
 43
0.00000001
 40
0.0
 40
0.0
 40
0.0
 40
0.0
 40
0.0406014542351232
 40
0.4361001464058125
 40
0.8377722887419882
 40
1.0
 40
1.0
 40
1.0
 40
1.0
 10
1129.056203042605
 20
1617.771156591587
 30
0.0
 10
1129.141523797274
 20
1618.298796405975
 30
0.0
 10
1130.057953868654
 20
1623.966174696705
 30
0.0
 10
1132.201791339975
 20
1634.787713718607
 30
0.0
 10
1134.737387003486
 20
1647.159439200598
 30
0.0
 10
1136.278595384695
 20
1654.421086953402
 30
0.0
 10
1136.721983881184
 20
1656.510182184391
 30
0.0
  0
SPLINE
  5
1F5
330
1F
100
AcDbEntity
  8
0
  6
Continuous
 62
     7
 48
10.0
370
    15
100
AcDbSpline
210
0.0
220
0.0
230
1.0
 70
     8
 71
     3
 72
    25
 73
    21
 74
     0
 42
0.00000001
 43
0.00000001
 40
0.0
 40
0.0
 40
0.0
 40
0.0
 40
0.0438627568713496
 40
0.1274216221260919
 40
0.2107714914205081
 40
0.2665123902015421
 40
0.321942484120423
 40
0.3774574142599356
 40
0.4329394312564087
 40
0.4882208495314846
 40
0.5436925063045527
 40
0.5994293505852426
 40
0.6552074813369434
 40
0.7079054009849204
 40
0.7609643405158457
 40
0.8137397248652553
 40
0.8660752880981585
 40
0.917910854316765
 40
0.9598361288140556
 40
1.0
 40
1.0
 40
1.0
 40
1.0
 10
1141.339651638158
 20
1678.585656446628
 30
0.0
 10
1142.339402852569
 20
1683.349269474167
 30
0.0
 10
1145.243687274007
 20
1697.187599356857
 30
0.0
 10
1149.602027859561
 20
1720.1694776727
 30
0.0
 10
1153.534032274642
 20
1744.566724740824
 30
0.0
 10
1156.23325938086
 20
1765.986095196522
 30
0.0
 10
1157.95792039004
 20
1784.405972545564
 30
0.0
 10
1158.991015489052
 20
1802.850070382079
 30
0.0
 10
1159.227339997333
 20
1821.306743671297
 30
0.0
 10
1158.555840005621
 20
1839.749317989893
 30
0.0
 10
1156.857709656118
 20
1858.158137426029
 30
0.0
 10
1153.953033017453
 20
1876.471387576429
 30
0.0
 10
1150.126052060299
 20
1894.293988765153
 30
0.0
 10
1145.685798476668
 20
1911.663464866708
 30
0.0
 10
1140.893212584944
 20
1928.591150331979
 30
0.0
 10
1135.911782177648
 20
1945.420906681389
 30
0.0
 10
1131.039028362326
 20
1962.142460014243
 30
0.0
 10
1126.927837288553
 20
1977.826414692903
 30
0.0
 10
1123.897837864242
 20
1992.392781149465
 30
0.0
 10
1122.85648726666
 20
2001.44643696457
 30
0.0
 10
1122.34698420249
 20
2005.876131815128
 30
0.0
  0
SPLINE
  5
1F6
330
1F
100
AcDbEntity
  8
0
  6
Continuous
 62
     7
 48
10.0
370
    15
100
AcDbSpline
210
0.0
220
0.0
230
1.0
 70
     8
 71
     3
 72
    32
 73
    28
 74
     0
 42
0.00000001
 43
0.00000001
 40
0.0
 40
0.0
 40
0.0
 40
0.0
 40
0.036939829744779
 40
0.0925162532355984
 40
0.1489717088780422
 40
0.2053886693218889
 40
0.2620868960508763
 40
0.3176877979356073
 40
0.3695025025977799
 40
0.4168331607838449
 40
0.4359724764476571
 40
0.4573897175350032
 40
0.4817749330529387
 40
0.5093404104659311
 40
0.5403383738883989
 40
0.5750649943221973
 40
0.6138689367149088
 40
0.6474047365797982
 40
0.6839209924527351
 40
0.7236730417733542
 40
0.7669491833464954
 40
0.814072861375443
 40
0.8540322381758838
 40
0.8967839068295499
 40
0.9425385402880538
 40
0.9915254735376675
 40
0.9999999999999999
 40
0.9999999999999999
 40
0.9999999999999999
 40
0.9999999999999999
 10
1122.34698420249
 20
2037.222870153599
 30
0.0
 10
1122.602466281807
 20
2040.173688912833
 30
0.0
 10
1123.242324259241
 20
2047.564050413355
 30
0.0
 10
1125.306574638947
 20
2059.339813003883
 30
0.0
 10
1128.171015324041
 20
2072.534654904335
 30
0.0
 10
1131.52736813735
 20
2085.708187761564
 30
0.0
 10
1135.058806258248
 20
2098.762064261287
 30
0.0
 10
1138.512858621405
 20
2111.455149562738
 30
0.0
 10
1141.667214041314
 20
2123.451289265583
 30
0.0
 10
1143.952691686405
 20
2132.6532325203
 30
0.0
 10
1145.571206480234
 20
2139.509429793502
 30
0.0
 10
1146.729099990509
 20
2144.584482419597
 30
0.0
 10
1147.985841827426
 20
2150.329529522982
 30
0.0
 10
1149.337681191113
 20
2156.839546774841
 30
0.0
 10
1150.767193325504
 20
2164.179523142438
 30
0.0
 10
1152.251712949541
 20
2172.425762958454
 30
0.0
 10
1153.636023679749
 20
2180.89571921828
 30
0.0
 10
1154.907058784204
 20
2189.528296889271
 30
0.0
 10
1156.05698221274
 20
2198.254566636414
 30
0.0
 10
1157.155101578578
 20
2207.773966212025
 30
0.0
 10
1158.173243453125
 20
2218.157011374977
 30
0.0
 10
1159.006770824695
 20
2228.573275788298
 30
0.0
 10
1159.664844777879
 20
2238.959665341105
 30
0.0
 10
1160.165432496753
 20
2249.245191059768
 30
0.0
 10
1160.516724035335
 20
2260.260439662739
 30
0.0
 10
1160.69735111038
 20
2268.532661816497
 30
0.0
 10
1160.701122283804
 20
2273.138506693309
 30
0.0
 10
1160.701678463706
 20
2273.817785543613
 30
0.0
  0
SPLINE
  5
1F7
330
1F
100
AcDbEntity
  8
0
  6
Continuous
 62
     7
 48
10.0
370
    15
100
AcDbSpline
210
0.0
220
0.0
230
1.0
 70
     8
 71
     3
 72
    26
 73
    22
 74
     0
 42
0.00000001
 43
0.00000001
 40
0.0
 40
0.0
 40
0.0
 40
0.0
 40
0.0155450370341522
 40
0.0791820752230234
 40
0.1379153930978973
 40
0.1921338053828131
 40
0.242188745625306
 40
0.3019665684521419
 40
0.3557801961042092
 40
0.4041796651946021
 40
0.4504751863908715
 40
0.4916323911352722
 40
0.528081019614631
 40
0.5602020663919436
 40
0.5909384324295098
 40
0.6222161841089786
 40
0.6977567384145911
 40
0.7753652666469628
 40
0.8688785032475566
 40
0.9622551647056797
 40
1.0
 40
1.0
 40
1.0
 40
1.0
 10
1152.698810541519
 20
2273.817785543613
 30
0.0
 10
1152.697995397682
 20
2272.806423003947
 30
0.0
 10
1152.693843282739
 20
2267.654824811055
 30
0.0
 10
1152.482980544263
 20
2258.683491344727
 30
0.0
 10
1152.081990943305
 20
2247.201561035692
 30
0.0
 10
1151.524100766422
 20
2236.610481906136
 30
0.0
 10
1150.797868221785
 20
2225.961752348358
 30
0.0
 10
1149.888064532823
 20
2215.353207816075
 30
0.0
 10
1148.790642636225
 20
2204.870859591229
 30
0.0
 10
1147.616434843017
 20
2195.280103297453
 30
0.0
 10
1146.396711136283
 20
2186.52577059306
 30
0.0
 10
1145.159678973364
 20
2178.559980420448
 30
0.0
 10
1143.965659070211
 20
2171.521543346895
 30
0.0
 10
1142.806521202323
 20
2165.165418276415
 30
0.0
 10
1141.640277504708
 20
2159.15295635598
 30
0.0
 10
1139.840709229286
 20
2150.386360180954
 30
0.0
 10
1137.214965422047
 20
2138.677034503788
 30
0.0
 10
1133.338139626849
 20
2123.10347235319
 30
0.0
 10
1128.903486934272
 20
2106.476470641189
 30
0.0
 10
1124.964034888596
 20
2092.40072950473
 30
0.0
 10
1122.931944779928
 20
2084.115262187324
 30
0.0
 10
1122.34698420249
 20
2081.730194849186
 30
0.0
  0
SPLINE
  5
1F8
330
1F
100
AcDbEntity
  8
0
  6
Continuous
 62
     7
 48
10.0
370
    15
100
AcDbSpline
210
0.0
220
0.0
230
1.0
 70
     8
 71
     3
 72
    16
 73
    12
 74
     0
 42
0.00000001
 43
0.00000001
 40
0.0
 40
0.0
 40
0.0
 40
0.0
 40
0.0543906850040862
 40
0.1788957588917232
 40
0.3040299695232238
 40
0.4281611342176539
 40
0.5523839382256499
 40
0.6782204472528677
 40
0.8059686170700412
 40
0.9362634249583662
 40
0.9999999999999999
 40
0.9999999999999999
 40
0.9999999999999999
 40
0.9999999999999999
 10
1121.172474851814
 20
2077.004857820682
 30
0.0
 10
1120.682939543272
 20
2075.076094276206
 30
0.0
 10
1119.072814748572
 20
2068.732220909177
 30
0.0
 10
1116.863773634894
 20
2057.824739232711
 30
0.0
 10
1114.758272633045
 20
2044.307344784907
 30
0.0
 10
1113.608224673056
 20
2030.678902631923
 30
0.0
 10
1113.492401730768
 20
2016.977185968614
 30
0.0
 10
1114.431479309279
 20
2003.173630325689
 30
0.0
 10
1116.414530115112
 20
1989.261327993301
 30
0.0
 10
1118.77100343382
 20
1977.717495751545
 30
0.0
 10
1120.574656617878
 20
1970.851628252196
 30
0.0
 10
1121.167131272127
 20
1968.596287531071
 30
0.0
  0
SPLINE
  5
1F9
330
1F
100
AcDbEntity
  8
0
  6
Continuous
 62
     7
 48
10.0
370
    15
100
AcDbSpline
210
0.0
220
0.0
230
1.0
 70
     8
 71
     3
 72
    24
 73
    20
 74
     0
 42
0.00000001
 43
0.00000001
 40
0.0
 40
0.0
 40
0.0
 40
0.0
 40
0.0097884908510533
 40
0.0617966380294526
 40
0.114127023968591
 40
0.1662185075781269
 40
0.2181496056842656
 40
0.2804626861154902
 40
0.3423783056780916
 40
0.403775257339922
 40
0.4651846472548352
 40
0.5266509985735149
 40
0.6035090868780674
 40
0.6808654407993732
 40
0.7584125647567058
 40
0.8360053210924051
 40
0.9141291771964433
 40
0.9918955117370157
 40
1.0
 40
1.0
 40
1.0
 40
1.0
 10
1122.34698420249
 20
1963.991232675724
 30
0.0
 10
1122.57520550194
 20
1963.092816299298
 30
0.0
 10
1124.016010754486
 20
1957.420939759949
 30
0.0
 10
1127.082878834942
 20
1947.054731523385
 30
0.0
 10
1131.253483588355
 20
1932.841909906715
 30
0.0
 10
1135.404851169404
 20
1918.62936649808
 30
0.0
 10
1139.583314642481
 20
1903.441521565855
 30
0.0
 10
1143.570541320872
 20
1887.239851678492
 30
0.0
 10
1147.035187911593
 20
1869.999023424365
 30
0.0
 10
1149.483003965647
 20
1852.667107110171
 30
0.0
 10
1150.832852268149
 20
1835.259377529519
 30
0.0
 10
1151.293601125966
 20
1816.343699008667
 30
0.0
 10
1150.721102006211
 20
1795.917533346626
 30
0.0
 10
1149.045541332208
 20
1774.027777536028
 30
0.0
 10
1146.475960185076
 20
1752.15692462638
 30
0.0
 10
1143.175714137311
 20
1730.31230620655
 30
0.0
 10
1139.274974723
 20
1708.547721471123
 30
0.0
 10
1136.281891843176
 20
1693.308212404956
 30
0.0
 10
1134.609957051489
 20
1685.35035120773
 30
0.0
 10
1134.452159845718
 20
1684.599288267307
 30
0.0
  0
SPLINE
  5
1FA
330
1F
100
AcDbEntity
  8
0
  6
Continuous
 62
     7
 48
10.0
370
    15
100
AcDbSpline
210
0.0
220
0.0
230
1.0
 70
     8
 71
     3
 72
    12
 73
     8
 74
     0
 42
0.00000001
 43
0.00000001
 40
0.0
 40
0.0
 40
0.0
 40
0.0
 40
0.1560955120610286
 40
0.5452185625035517
 40
0.7346819435505929
 40
0.9163241055657634
 40
1.0
 40
1.0
 40
1.0
 40
1.0
 10
1132.183859453984
 20
1673.780568403416
 30
0.0
 10
1131.575515001314
 20
1670.871044283286
 30
0.0
 10
1129.450657703286
 20
1660.70850637684
 30
0.0
 10
1126.507869322159
 20
1647.030796693202
 30
0.0
 10
1123.660418743877
 20
1632.83718942451
 30
0.0
 10
1122.024385740737
 20
1624.331703096362
 30
0.0
 10
1121.217175495153
 20
1619.344133989546
 30
0.0
 10
1120.962597875372
 20
1617.771156591587
 30
0.0
  0
SPLINE
  5
1FB
330
1F
100
AcDbEntity
  8
0
  6
Continuous
 62
     7
 48
10.0
370
    15
100
AcDbSpline
210
0.0
220
0.0
230
1.0
 70
     8
 71
     3
 72
    21
 73
    17
 74
     0
 42
0.00000001
 43
0.00000001
 40
0.0
 40
0.0
 40
0.0
 40
0.0
 40
0.1439889969630486
 40
0.2238485394251276
 40
0.3151408916372845
 40
0.4116265810579646
 40
0.5046109485018988
 40
0.548193241579354
 40
0.5926117198027291
 40
0.6419253844686995
 40
0.7017305160822352
 40
0.7509937612413059
 40
0.8108366438140373
 40
0.8843674230626836
 40
0.9506287538353906
 40
1.0
 40
1.0
 40
1.0
 40
1.0
 10
1120.137464002222
 20
1612.771161359959
 30
0.0
 10
1119.701532883864
 20
1609.723770769049
 30
0.0
 10
1119.023824543695
 20
1604.986228684441
 30
0.0
 10
1118.360216834608
 20
1598.2812195471
 30
0.0
 10
1117.954593692396
 20
1592.573790798055
 30
0.0
 10
1117.711254376189
 20
1586.576136819843
 30
0.0
 10
1117.646160581347
 20
1581.594257487228
 30
0.0
 10
1117.659436739036
 20
1577.725442915071
 30
0.0
 10
1117.699868735566
 20
1574.790417661701
 30
0.0
 10
1117.761206517946
 20
1571.508944443047
 30
0.0
 10
1117.818017049384
 20
1568.123796063732
 30
0.0
 10
1117.860374969583
 20
1564.513342441946
 30
0.0
 10
1117.887203065716
 20
1560.609325015524
 30
0.0
 10
1117.894131688366
 20
1556.341868223758
 30
0.0
 10
1117.885815719759
 20
1552.29826103583
 30
0.0
 10
1117.870225040089
 20
1549.826517612296
 30
0.0
 10
1117.863568340876
 20
1548.771165770702
 30
0.0
  0
LINE
  5
1FC
330
1F
100
AcDbEntity
  8
0
  6
Continuous
 62
     7
 48
10.0
370
    15
100
AcDbLine
 10
1119.7219841215
 20
1678.137250704
 30
0.0
 11
1119.7219841215
 21
1676.3467271749
 31
0.0
  0
LINE
  5
BB
330
1F
100
AcDbEntity
  8
0
  6
Continuous
 62
     7
 48
10.0
370
    15
100
AcDbLine
 10
1123.7219843115
 20
1676.3467271749
 30
0.0
 11
1123.7219843115
 21
1678.137250704
 31
0.0
  0
LINE
  5
BC
330
1F
100
AcDbEntity
  8
0
  6
Continuous
 62
     7
 48
10.0
370
    15
100
AcDbLine
 10
1122.3469842025
 20
1688.2633645956
 30
0.0
 11
1122.3469842025
 21
1963.8480027143
 31
0.0
  0
LINE
  5
BD
330
1F
100
AcDbEntity
  8
0
  6
Continuous
 62
     7
 48
10.0
370
    15
100
AcDbLine
 10
1122.3469842025
 20
2005.8012683813
 30
0.0
 11
1122.3469842025
 21
2038.4019692365
 31
0.0
  0
LINE
  5
BE
330
1F
100
AcDbEntity
  8
0
  6
Continuous
 62
     7
 48
10.0
370
    15
100
AcDbLine
 10
1122.3469842025
 20
2082.0176084463
 30
0.0
 11
1122.3469842025
 21
2263.8177950804
 31
0.0
  0
LINE
  5
C1
330
1F
100
AcDbEntity
  8
0
  6
Continuous
 62
     7
 48
10.0
370
    15
100
AcDbLine
 10
1121.0969842304
 20
2263.8177950804
 30
0.0
 11
1121.0969842304
 21
2076.9896586363
 31
0.0
  0
LINE
  5
C2
330
1F
100
AcDbEntity
  8
0
  6
Continuous
 62
     7
 48
10.0
370
    15
100
AcDbLine
 10
1121.0969842304
 20
1968.6121423666
 30
0.0
 11
1121.0969842304
 21
1688.2633645956
 31
0.0
  0
ARC
  5
C3
330
1F
100
AcDbEntity
  8
0
  6
Continuous
 62
     7
 48
100.0
370
    15
100
AcDbCircle
 10
1113.2219842165
 20
1523.7711678762
 30
0.0
 40
2.000000000000136
100
AcDbArc
 50
311.4096221093
 51
0.0
  0
ARC
  5
C4
330
1F
100
AcDbEntity
  8
0
  6
Continuous
 62
     7
 48
100.0
370
    15
100
AcDbCircle
 10
1130.2219842165
 20
1523.7711678762
 30
0.0
 40
2.000000000000136
100
AcDbArc
 50
180.0
 51
228.5903778907
  0
ARC
  5
C5
330
1F
100
AcDbEntity
  8
0
  6
Continuous
 62
     7
 48
100.0
370
    15
100
AcDbCircle
 10
1115.7219842165
 20
1548.2711678762
 30
0.0
 40
0.5000000000002274
100
AcDbArc
 50
90.0
 51
180.0
  0
ARC
  5
C6
330
1F
100
AcDbEntity
  8
0
  6
Continuous
 62
     7
 48
100.0
370
    15
100
AcDbCircle
 10
1127.7219842165
 20
1548.2711678762
 30
0.0
 40
0.5000000000002274
100
AcDbArc
 50
0.0
 51
90.0
  0
LINE
  5
C7
330
1F
100
AcDbEntity
  8
0
  6
Continuous
 62
     7
 48
10.0
370
    15
100
AcDbLine
 10
1115.2219840823
 20
1534.110643429
 30
0.0
 11
1115.2219840823
 21
1523.7711747114
 31
0.0
  0
LINE
  5
C8
330
1F
100
AcDbEntity
  8
0
  6
Continuous
 62
     7
 48
10.0
370
    15
100
AcDbLine
 10
1115.2219840823
 20
1548.271172208
 30
0.0
 11
1115.2219840823
 21
1544.7526653234
 31
0.0
  0
LINE
  5
C9
330
1F
100
AcDbEntity
  8
0
  6
Continuous
 62
     7
 48
10.0
370
    15
100
AcDbLine
 10
1128.2219843506
 20
1544.7526653234
 30
0.0
 11
1128.2219843506
 21
1548.271172208
 31
0.0
  0
LINE
  5
CA
330
1F
100
AcDbEntity
  8
0
  6
Continuous
 62
     7
 48
10.0
370
    15
100
AcDbLine
 10
1128.2219843506
 20
1523.7711747114
 30
0.0
 11
1128.2219843506
 21
1534.1208507244
 31
0.0
  0
LINE
  5
CB
330
1F
100
AcDbEntity
  8
0
  6
Continuous
 62
     7
 48
10.0
370
    15
100
AcDbLine
 10
1106.7219845517
 20
1612.77116136
 30
0.0
 11
1120.1374640022
 21
1612.77116136
 31
0.0
  0
LINE
  5
CC
330
1F
100
AcDbEntity
  8
0
  6
Continuous
 62
     7
 48
10.0
370
    15
100
AcDbLine
 10
1128.2250325694
 20
1612.77116136
 30
0.0
 11
1136.7219838812
 21
1612.77116136
 31
0.0
  0
LINE
  5
CD
330
1F
100
AcDbEntity
  8
0
  6
Continuous
 62
     7
 48
10.0
370
    15
100
AcDbLine
 10
1136.7219838812
 20
1617.7711565916
 30
0.0
 11
1129.0415188796
 21
1617.7711565916
 31
0.0
  0
LINE
  5
CE
330
1F
100
AcDbEntity
  8
0
  6
Continuous
 62
     7
 48
10.0
370
    15
100
AcDbLine
 10
1120.9310248759
 20
1617.7711565916
 30
0.0
 11
1106.7219845517
 21
1617.7711565916
 31
0.0
  0
LINE
  5
CF
330
1F
100
AcDbEntity
  8
0
  6
Continuous
 62
     7
 48
10.0
370
    15
100
AcDbLine
 10
1063.7219858854
 20
1119.7938998167
 30
0.0
 11
1064.7219841867
 21
1118.7938977901
 31
0.0
  0
LINE
  5
D0
330
1F
100
AcDbEntity
  8
0
  6
Continuous
 62
     7
 48
10.0
370
    15
100
AcDbLine
 10
1178.7219842463
 20
1118.7938977901
 30
0.0
 11
1179.7219825475
 21
1119.7938998167
 31
0.0
  0
LINE
  5
D1
330
1F
100
AcDbEntity
  8
0
  6
Continuous
 62
     7
 48
10.0
370
    15
100
AcDbLine
 10
1179.7219825475
 20
1119.7938998167
 30
0.0
 11
1179.7219825475
 21
1121.7939038698
 31
0.0
  0
LINE
  5
D2
330
1F
100
AcDbEntity
  8
0
  6
Continuous
 62
     7
 48
10.0
370
    15
100
AcDbLine
 10
1063.7219858854
 20
1121.7939038698
 30
0.0
 11
1063.7219858854
 21
1119.7938998167
 31
0.0
  0
LINE
  5
D3
330
1F
100
AcDbEntity
  8
0
  6
Continuous
 62
     7
 48
10.0
370
    15
100
AcDbLine
 10
1077.2219834416
 20
1123.6835648243
 30
0.0
 11
1077.2219834416
 21
1123.2938994591
 31
0.0
  0
LINE
  5
D4
330
1F
100
AcDbEntity
  8
0
  6
Continuous
 62
     7
 48
10.0
370
    15
100
AcDbLine
 10
1166.2219849913
 20
1123.2938994591
 30
0.0
 11
1166.2219849913
 21
1123.6835648243
 31
0.0
  0
LINE
  5
D5
330
1F
100
AcDbEntity
  8
0
  6
Continuous
 62
     7
 48
10.0
370
    15
100
AcDbLine
 10
1179.7219825475
 20
1519.2711730425
 30
0.0
 11
1179.7219825475
 21
1521.2711621944
 31
0.0
  0
LINE
  5
D6
330
1F
100
AcDbEntity
  8
0
  6
Continuous
 62
     7
 48
10.0
370
    15
100
AcDbLine
 10
1063.7219858854
 20
1521.2711621944
 30
0.0
 11
1063.7219858854
 21
1519.2711730425
 31
0.0
  0
LINE
  5
D7
330
1F
100
AcDbEntity
  8
0
  6
Continuous
 62
     7
 48
10.0
370
    15
100
AcDbLine
 10
1179.7219825475
 20
1521.2711621944
 30
0.0
 11
1178.7219842463
 21
1522.271164221
 31
0.0
  0
LINE
  5
D8
330
1F
100
AcDbEntity
  8
0
  6
Continuous
 62
     7
 48
10.0
370
    15
100
AcDbLine
 10
1064.7219841867
 20
1522.271164221
 30
0.0
 11
1063.7219858854
 21
1521.2711621944
 31
0.0
  0
LINE
  5
D9
330
1F
100
AcDbEntity
  8
0
  6
Continuous
 62
     7
 48
10.0
370
    15
100
AcDbLine
 10
1166.7219860046
 20
1518.6835755531
 30
0.0
 11
1166.7219860046
 21
1519.2711730425
 31
0.0
  0
LINE
  5
DA
330
1F
100
AcDbEntity
  8
0
  6
Continuous
 62
     7
 48
10.0
370
    15
100
AcDbLine
 10
1076.7219824283
 20
1519.2711730425
 30
0.0
 11
1076.7219824283
 21
1518.6835755531
 31
0.0
  0
ARC
  5
DB
330
1F
100
AcDbEntity
  8
0
  6
Continuous
 62
     7
 48
100.0
370
    15
100
AcDbCircle
 10
1010.7219842165
 20
1321.1835701887
 30
0.0
 40
139.0000000000003
100
AcDbArc
 50
125.1690037393
 51
234.8309962607
  0
ARC
  5
DC
330
1F
100
AcDbEntity
  8
0
  6
Continuous
 62
     7
 48
100.0
370
    15
100
AcDbCircle
 10
1232.7219842165
 20
1321.1835701887
 30
0.0
 40
139.0000000000001
100
AcDbArc
 50
305.1690037393
 51
54.8309962607
  0
ARC
  5
DD
330
1F
100
AcDbEntity
  8
0
  6
Continuous
 62
     7
 48
100.0
370
    15
100
AcDbCircle
 10
1098.2724896357
 20
1196.9301637934
 30
0.0
 40
291.0000000000003
100
AcDbArc
 50
98.91689080990001
 51
125.1690037393
  0
ARC
  5
DE
330
1F
100
AcDbEntity
  8
0
  6
Continuous
 62
     7
 48
100.0
370
    15
100
AcDbCircle
 10
1145.1714787972
 20
1196.9301637934
 30
0.0
 40
291.0000000000004
100
AcDbArc
 50
54.8309962607
 51
81.0831091901
  0
ARC
  5
DF
330
1F
100
AcDbEntity
  8
0
  6
Continuous
 62
     7
 48
100.0
370
    15
100
AcDbCircle
 10
1098.2724896357
 20
1445.436976584
 30
0.0
 40
291.0000000000003
100
AcDbArc
 50
234.8309962607
 51
261.0831091901
  0
ARC
  5
E0
330
1F
100
AcDbEntity
  8
0
  6
Continuous
 62
     7
 48
100.0
370
    15
100
AcDbCircle
 10
1145.1714787972
 20
1445.436976584
 30
0.0
 40
291.0000000000004
100
AcDbArc
 50
278.9168908099
 51
305.1690037393
  0
ARC
  5
E1
330
1F
100
AcDbEntity
  8
0
  6
Continuous
 62
     7
 48
100.0
370
    15
100
AcDbCircle
 10
1050.2219842165
 20
1503.1835701891
 30
0.0
 40
19.00000000000012
100
AcDbArc
 50
278.9168908099
 51
0.0
  0
ARC
  5
E2
330
1F
100
AcDbEntity
  8
0
  6
Continuous
 62
     7
 48
100.0
370
    15
100
AcDbCircle
 10
1193.2219842165
 20
1503.1835701891
 30
0.0
 40
19.00000000000016
100
AcDbArc
 50
180.0
 51
261.0831091901
  0
ARC
  5
E3
330
1F
100
AcDbEntity
  8
0
  6
Continuous
 62
     7
 48
100.0
370
    15
100
AcDbCircle
 10
1050.2219842165
 20
1139.1835701883
 30
0.0
 40
19.00000000000016
100
AcDbArc
 50
0.0
 51
81.0831091901
  0
ARC
  5
E4
330
1F
100
AcDbEntity
  8
0
  6
Continuous
 62
     7
 48
100.0
370
    15
100
AcDbCircle
 10
1193.2219842165
 20
1139.1835701883
 30
0.0
 40
19.00000000000016
100
AcDbArc
 50
98.91689080990001
 51
180.0
  0
LINE
  5
E5
330
1F
100
AcDbEntity
  8
0
  6
Continuous
 62
     7
 48
10.0
370
    15
100
AcDbLine
 10
1174.2219825773
 20
1517.6835735266
 30
0.0
 11
1173.2219842761
 21
1518.6835755531
 31
0.0
  0
LINE
  5
E6
330
1F
100
AcDbEntity
  8
0
  6
Continuous
 62
     7
 48
10.0
370
    15
100
AcDbLine
 10
1070.2219841569
 20
1518.6835755531
 30
0.0
 11
1069.2219858556
 21
1517.6835735266
 31
0.0
  0
LINE
  5
E7
330
1F
100
AcDbEntity
  8
0
  6
Continuous
 62
     7
 48
10.0
370
    15
100
AcDbLine
 10
1069.2219858556
 20
1517.6835735266
 30
0.0
 11
1069.2219858556
 21
1503.1835664932
 31
0.0
  0
LINE
  5
E8
330
1F
100
AcDbEntity
  8
0
  6
Continuous
 62
     7
 48
10.0
370
    15
100
AcDbLine
 10
1174.2219825773
 20
1503.1835664932
 30
0.0
 11
1174.2219825773
 21
1517.6835735266
 31
0.0
  0
LINE
  5
E9
330
1F
100
AcDbEntity
  8
0
  6
Continuous
 62
     7
 48
10.0
370
    15
100
AcDbLine
 10
1069.2219858556
 20
1139.1835738842
 30
0.0
 11
1069.2219858556
 21
1124.6835668508
 31
0.0
  0
LINE
  5
EA
330
1F
100
AcDbEntity
  8
0
  6
Continuous
 62
     7
 48
10.0
370
    15
100
AcDbLine
 10
1174.2219825773
 20
1124.6835668508
 30
0.0
 11
1174.2219825773
 21
1139.1835738842
 31
0.0
  0
LINE
  5
EB
330
1F
100
AcDbEntity
  8
0
  6
Continuous
 62
     7
 48
10.0
370
    15
100
AcDbLine
 10
1069.2219858556
 20
1124.6835668508
 30
0.0
 11
1070.2219841569
 21
1123.6835648243
 31
0.0
  0
LINE
  5
EC
330
1F
100
AcDbEntity
  8
0
  6
Continuous
 62
     7
 48
10.0
370
    15
100
AcDbLine
 10
1173.2219842761
 20
1123.6835648243
 30
0.0
 11
1174.2219825773
 21
1124.6835668508
 31
0.0
  0
LINE
  5
ED
330
1F
100
AcDbEntity
  8
0
  6
Continuous
 62
     7
 48
10.0
370
    15
100
AcDbLine
 10
1126.3076140112
 20
1123.2938994591
 30
0.0
 11
1174.7219835906
 21
1123.2938994591
 31
0.0
  0
LINE
  5
EE
330
1F
100
AcDbEntity
  8
0
  6
Continuous
 62
     7
 48
10.0
370
    15
100
AcDbLine
 10
1068.7219848423
 20
1123.2938994591
 30
0.0
 11
1126.3076140112
 21
1123.2938994591
 31
0.0
  0
LINE
  5
EF
330
1F
100
AcDbEntity
  8
0
  6
Continuous
 62
     7
 48
10.0
370
    15
100
AcDbLine
 10
1105.512862423
 20
2271.0678060476
 30
0.0
 11
1091.5128619908
 21
2271.0678060476
 31
0.0
  0
LINE
  5
F0
330
1F
100
AcDbEntity
  8
0
  6
Continuous
 62
     7
 48
10.0
370
    15
100
AcDbLine
 10
1127.7219842686
 20
2273.6178119604
 30
0.0
 11
1115.7219841643
 21
2273.6178119604
 31
0.0
  0
LINE
  5
F1
330
1F
100
AcDbEntity
  8
0
  6
Continuous
 62
     7
 48
10.0
370
    15
100
AcDbLine
 10
1116.6534483
 20
2264.3178184454
 30
0.0
 11
1127.7219842686
 21
2264.3178184454
 31
0.0
  0
LINE
  5
F2
330
1F
100
AcDbEntity
  8
0
  6
Continuous
 62
     7
 48
10.0
370
    15
100
AcDbLine
 10
1115.7219841643
 20
2264.3178184454
 30
0.0
 11
1116.6534483
 21
2264.3178184454
 31
0.0
  0
LINE
  5
F3
330
1F
100
AcDbEntity
  8
0
  6
Continuous
 62
     7
 48
10.0
370
    15
100
AcDbLine
 10
1117.0758263706
 20
2263.8177950804
 30
0.0
 11
1116.2219842463
 21
2263.8177950804
 31
0.0
  0
LINE
  5
F4
330
1F
100
AcDbEntity
  8
0
  6
Continuous
 62
     7
 48
10.0
370
    15
100
AcDbLine
 10
1127.2219841867
 20
2263.8177950804
 30
0.0
 11
1117.0758263706
 21
2263.8177950804
 31
0.0
  0
LINE
  5
F5
330
1F
100
AcDbEntity
  8
0
  6
Continuous
 62
     7
 48
10.0
370
    15
100
AcDbLine
 10
1174.1180395274
 20
2313.8178070013
 30
0.0
 11
1051.7219839184
 21
2313.8178070013
 31
0.0
  0
LINE
  5
F6
330
1F
100
AcDbEntity
  8
0
  6
Continuous
 62
     7
 48
10.0
370
    15
100
AcDbLine
 10
1191.7219845145
 20
2313.8178070013
 30
0.0
 11
1174.1180395274
 21
2313.8178070013
 31
0.0
  0
LINE
  5
F7
330
1F
100
AcDbEntity
  8
0
  6
Continuous
 62
     7
 48
10.0
370
    15
100
AcDbLine
 10
1171.8724941402
 20
2273.8177855436
 30
0.0
 11
1054.7219825475
 21
2273.8177855436
 31
0.0
  0
LINE
  5
F8
330
1F
100
AcDbEntity
  8
0
  6
Continuous
 62
     7
 48
10.0
370
    15
100
AcDbLine
 10
1188.7219858854
 20
2273.8177855436
 30
0.0
 11
1171.8724941402
 21
2273.8177855436
 31
0.0
  0
LINE
  5
F9
330
1F
100
AcDbEntity
  8
0
  6
Continuous
 62
     7
 48
10.0
370
    15
100
AcDbLine
 10
1121.9502963158
 20
1676.3467271749
 30
0.0
 11
1123.7219843115
 21
1676.3467271749
 31
0.0
  0
LINE
  5
FA
330
1F
100
AcDbEntity
  8
0
  6
Continuous
 62
     7
 48
10.0
370
    15
100
AcDbLine
 10
1119.7219841215
 20
1676.3467271749
 30
0.0
 11
1121.9502963158
 21
1676.3467271749
 31
0.0
  0
LINE
  5
FB
330
1F
100
AcDbEntity
  8
0
  6
Continuous
 62
     7
 48
10.0
370
    15
100
AcDbLine
 10
1121.7933317475
 20
4182.346709532
 30
0.0
 11
1122.3469842025
 21
4182.346709532
 31
0.0
  0
LINE
  5
FC
330
1F
100
AcDbEntity
  8
0
  6
Continuous
 62
     7
 48
10.0
370
    15
100
AcDbLine
 10
1121.0969842304
 20
4182.346709532
 30
0.0
 11
1121.7933317475
 21
4182.346709532
 31
0.0
  0
LINE
  5
FD
330
1F
100
AcDbEntity
  8
0
  6
Continuous
 62
     7
 48
10.0
370
    15
100
AcDbLine
 10
1121.7219842165
 20
1548.7711657707
 30
0.0
 11
1127.7219842686
 21
1548.7711657707
 31
0.0
  0
LINE
  5
FE
330
1F
100
AcDbEntity
  8
0
  6
Continuous
 62
     7
 48
10.0
370
    15
100
AcDbLine
 10
1115.7219841643
 20
1548.7711657707
 30
0.0
 11
1121.7219842165
 21
1548.7711657707
 31
0.0
  0
LINE
  5
FF
330
1F
100
AcDbEntity
  8
0
  6
Continuous
 62
     7
 48
10.0
370
    15
100
AcDbLine
 10
1116.4484655983
 20
1538.2699747507
 30
0.0
 11
1116.0556803024
 21
1534.7709883873
 31
0.0
  0
LINE
  5
100
330
1F
100
AcDbEntity
  8
0
  6
Continuous
 62
     7
 48
10.0
370
    15
100
AcDbLine
 10
1116.4484655983
 20
1538.2699747507
 30
0.0
 11
1116.4484655983
 21
1539.6897275869
 31
0.0
  0
LINE
  5
101
330
1F
100
AcDbEntity
  8
0
  6
Continuous
 62
     7
 48
10.0
370
    15
100
AcDbLine
 10
1116.0556803024
 20
1543.4939344351
 30
0.0
 11
1116.4484655983
 21
1539.6897275869
 31
0.0
  0
SPLINE
  5
102
330
1F
100
AcDbEntity
  8
0
  6
Continuous
 62
     7
 48
10.0
370
    15
100
AcDbSpline
210
0.0
220
0.0
230
1.0
 70
     8
 71
     3
 72
    11
 73
     7
 74
     0
 42
0.00000001
 43
0.00000001
 40
0.0
 40
0.0
 40
0.0
 40
0.0
 40
0.2432510352720977
 40
0.4851214709685567
 40
0.7737018074007576
 40
1.0
 40
1.0
 40
1.0
 40
1.0
 10
1115.60561261464
 20
1544.57481996458
 30
0.0
 10
1115.651120623563
 20
1544.540410570242
 30
0.0
 10
1115.741878355405
 20
1544.47178707609
 30
0.0
 10
1115.882846131872
 20
1544.209076436498
 30
0.0
 10
1116.002000198078
 20
1543.881189370512
 30
0.0
 10
1116.039290539713
 20
1543.61217221751
 30
0.0
 10
1116.055680302419
 20
1543.493934435062
 30
0.0
  0
SPLINE
  5
103
330
1F
100
AcDbEntity
  8
0
  6
Continuous
 62
     7
 48
10.0
370
    15
100
AcDbSpline
210
0.0
220
0.0
230
1.0
 70
     8
 71
     3
 72
    12
 73
     8
 74
     0
 42
0.00000001
 43
0.00000001
 40
0.0
 40
0.0
 40
0.0
 40
0.0
 40
0.2058403250271663
 40
0.4122812984380461
 40
0.6248242673106779
 40
0.8581430813945612
 40
1.0
 40
1.0
 40
1.0
 40
1.0
 10
1116.055680302419
 20
1534.770988387279
 30
0.0
 10
1116.041425499196
 20
1534.676235102753
 30
0.0
 10
1116.012874296796
 20
1534.486452040709
 30
0.0
 10
1115.917434410623
 20
1534.257387788517
 30
0.0
 10
1115.800883824046
 20
1534.094509134557
 30
0.0
 10
1115.691339025052
 20
1534.022923281238
 30
0.0
 10
1115.629133149356
 20
1534.028716756502
 30
0.0
 10
1115.60561261464
 20
1534.030907315426
 30
0.0
  0
SPLINE
  5
104
330
1F
100
AcDbEntity
  8
0
  6
Continuous
 62
     7
 48
10.0
370
    15
100
AcDbSpline
210
0.0
220
0.0
230
1.0
 70
     8
 71
     3
 72
    11
 73
     7
 74
     0
 42
0.00000001
 43
0.00000001
 40
0.0
 40
0.0
 40
0.0
 40
0.0
 40
0.3155797052715073
 40
0.5818174798910115
 40
0.8882054850753069
 40
1.0
 40
1.0
 40
1.0
 40
1.0
 10
1127.3882881305
 20
1543.493934435062
 30
0.0
 10
1127.413997913752
 20
1543.65789361291
 30
0.0
 10
1127.461397670613
 20
1543.960176408877
 30
0.0
 10
1127.611152667378
 20
1544.317850446417
 30
0.0
 10
1127.741248637579
 20
1544.516588696532
 30
0.0
 10
1127.817871817192
 20
1544.562536533536
 30
0.0
 10
1127.83835581828
 20
1544.57481996458
 30
0.0
  0
LINE
  5
105
330
1F
100
AcDbEntity
  8
0
  6
Continuous
 62
     7
 48
10.0
370
    15
100
AcDbLine
 10
1126.9955028347
 20
1539.6897275869
 30
0.0
 11
1127.3882881305
 21
1543.4939344351
 31
0.0
  0
LINE
  5
106
330
1F
100
AcDbEntity
  8
0
  6
Continuous
 62
     7
 48
10.0
370
    15
100
AcDbLine
 10
1126.9955028347
 20
1539.6897275869
 30
0.0
 11
1126.9955028347
 21
1538.2699747507
 31
0.0
  0
LINE
  5
107
330
1F
100
AcDbEntity
  8
0
  6
Continuous
 62
     7
 48
10.0
370
    15
100
AcDbLine
 10
1127.3882881305
 20
1534.7709883873
 30
0.0
 11
1126.9955028347
 21
1538.2699747507
 31
0.0
  0
SPLINE
  5
108
330
1F
100
AcDbEntity
  8
0
  6
Continuous
 62
     7
 48
10.0
370
    15
100
AcDbSpline
210
0.0
220
0.0
230
1.0
 70
     8
 71
     3
 72
    11
 73
     7
 74
     0
 42
0.00000001
 43
0.00000001
 40
0.0
 40
0.0
 40
0.0
 40
0.0
 40
0.2578378418486973
 40
0.5163012022997483
 40
0.7605319650753285
 40
1.0
 40
1.0
 40
1.0
 40
1.0
 10
1127.83835581828
 20
1534.030907315426
 30
0.0
 10
1127.794402809488
 20
1534.031870849477
 30
0.0
 10
1127.706390161224
 20
1534.033800255128
 30
0.0
 10
1127.56426849462
 20
1534.188730331106
 30
0.0
 10
1127.441369553733
 20
1534.438958008104
 30
0.0
 10
1127.405865408023
 20
1534.661040504095
 30
0.0
 10
1127.3882881305
 20
1534.770988387279
 30
0.0
  0
LINE
  5
10B
330
1F
100
AcDbEntity
  8
0
  6
Continuous
 62
     7
 48
10.0
370
    15
100
AcDbLine
 10
1105.8956322758
 20
1558.2711626713
 30
0.0
 11
1105.8956322758
 21
1663.2711668436
 31
0.0
  0
ARC
  5
10F
330
1F
100
AcDbEntity
  8
0
  6
Continuous
 62
     7
 48
100.0
370
    15
100
AcDbCircle
 10
1121.7219842165
 20
1558.2711678762
 30
0.0
 40
15.82635182233305
100
AcDbArc
 50
290.9792418874
 51
0.0
  0
ARC
  5
112
330
1F
100
AcDbEntity
  8
0
  6
Continuous
 62
     7
 48
100.0
370
    15
100
AcDbCircle
 10
1121.7219842165
 20
1558.2711678762
 30
0.0
 40
24.17364817766702
100
AcDbArc
 50
180.0
 51
256.4437407196
  0
ARC
  5
116
330
1F
100
AcDbEntity
  8
0
  6
Continuous
 62
     7
 48
100.0
370
    15
100
AcDbCircle
 10
1121.7219842165
 20
1558.2711678762
 30
0.0
 40
15.82635182233321
100
AcDbArc
 50
180.0
 51
249.0207581126
  0
LINE
  5
117
330
1F
100
AcDbEntity
  8
0
  6
Continuous
 62
     7
 48
10.0
370
    15
100
AcDbLine
 10
1097.5483351885
 20
1558.2711626713
 30
0.0
 11
1097.5483351885
 21
1663.2711668436
 31
0.0
  0
ARC
  5
11C
330
1F
100
AcDbEntity
  8
0
  6
Continuous
 62
     7
 48
100.0
370
    15
100
AcDbCircle
 10
1121.7219842165
 20
1558.2711678762
 30
0.0
 40
24.17364817766686
100
AcDbArc
 50
283.5562592804
 51
0.0
  0
LINE
  5
121
330
1F
100
AcDbEntity
  8
0
  6
Continuous
 62
     7
 48
10.0
370
    15
100
AcDbLine
 10
1137.5483361571
 20
1663.2711668436
 30
0.0
 11
1137.5483361571
 21
1558.2711626713
 31
0.0
  0
LINE
  5
122
330
1F
100
AcDbEntity
  8
0
  6
Continuous
 62
     7
 48
10.0
370
    15
100
AcDbLine
 10
1145.8956332444
 20
1663.2711668436
 30
0.0
 11
1145.8956332444
 21
1558.2711626713
 31
0.0
  0
ARC
  5
123
330
1F
100
AcDbEntity
  8
0
  6
Continuous
 62
     7
 48
100.0
370
    15
100
AcDbCircle
 10
1121.7219842165
 20
1558.2711678762
 30
0.0
 40
15.0
100
AcDbArc
 50
294.064079631
 51
0.0
  0
LINE
  5
124
330
1F
100
AcDbEntity
  8
0
  6
Continuous
 62
     7
 48
10.0
370
    15
100
AcDbLine
 10
1137.5483361571
 20
1558.2711626713
 30
0.0
 11
1136.7219838812
 21
1558.2711626713
 31
0.0
  0
LINE
  5
125
330
1F
100
AcDbEntity
  8
0
  6
Continuous
 62
     7
 48
10.0
370
    15
100
AcDbLine
 10
1105.8956322758
 20
1558.2711626713
 30
0.0
 11
1106.7219845517
 21
1558.2711626713
 31
0.0
  0
ARC
  5
126
330
1F
100
AcDbEntity
  8
0
  6
Continuous
 62
     7
 48
100.0
370
    15
100
AcDbCircle
 10
1121.7219842165
 20
1558.2711678762
 30
0.0
 40
15.0
100
AcDbArc
 50
180.0
 51
245.935920369
  0
LINE
  5
127
330
1F
100
AcDbEntity
  8
0
  6
Continuous
 62
     7
 48
10.0
370
    15
100
AcDbLine
 10
1146.721984589
 20
1558.2711626713
 30
0.0
 11
1145.8956332444
 21
1558.2711626713
 31
0.0
  0
ARC
  5
128
330
1F
100
AcDbEntity
  8
0
  6
Continuous
 62
     7
 48
100.0
370
    15
100
AcDbCircle
 10
1121.7219842165
 20
1558.2711678762
 30
0.0
 40
25.00000000000006
100
AcDbArc
 50
284.1614378887
 51
0.0
  0
ARC
  5
129
330
1F
100
AcDbEntity
  8
0
  6
Continuous
 62
     7
 48
100.0
370
    15
100
AcDbCircle
 10
1121.7219842165
 20
1558.2711678762
 30
0.0
 40
25.00000000000006
100
AcDbArc
 50
180.0
 51
255.8385621113
  0
LINE
  5
12A
330
1F
100
AcDbEntity
  8
0
  6
Continuous
 62
     7
 48
10.0
370
    15
100
AcDbLine
 10
1096.7219838439
 20
1558.2711626713
 30
0.0
 11
1097.5483351885
 21
1558.2711626713
 31
0.0
  0
LINE
  5
12B
330
1F
100
AcDbEntity
  8
0
  6
Continuous
 62
     7
 48
10.0
370
    15
100
AcDbLine
 10
1136.7219838812
 20
1614.0837450449
 30
0.0
 11
1136.7219838812
 21
1558.2711626713
 31
0.0
  0
SPLINE
  5
12C
330
1F
100
AcDbEntity
  8
0
  6
Continuous
 62
     7
 48
10.0
370
    15
100
AcDbSpline
210
0.0
220
0.0
230
1.0
 70
     8
 71
     3
 72
    11
 73
     7
 74
     0
 42
0.00000001
 43
0.00000001
 40
0.0
 40
0.0
 40
0.0
 40
0.0
 40
0.252723659516585
 40
0.5750785842955428
 40
0.9053383794327741
 40
1.0
 40
1.0
 40
1.0
 40
1.0
 10
1136.721983881184
 20
1616.458602708988
 30
0.0
 10
1136.730373558469
 20
1616.268128031954
 30
0.0
 10
1136.749464464895
 20
1615.834698459819
 30
0.0
 10
1136.783959918927
 20
1615.074812342219
 30
0.0
 10
1136.729071900061
 20
1614.465730718574
 30
0.0
 10
1136.723275230798
 20
1614.153338123139
 30
0.0
 10
1136.721983881184
 20
1614.08374504488
 30
0.0
  0
LINE
  5
12D
330
1F
100
AcDbEntity
  8
0
  6
Continuous
 62
     7
 48
10.0
370
    15
100
AcDbLine
 10
1136.7219838812
 20
1659.70865683
 30
0.0
 11
1136.7219838812
 21
1616.458602709
 31
0.0
  0
LINE
  5
12E
330
1F
100
AcDbEntity
  8
0
  6
Continuous
 62
     7
 48
10.0
370
    15
100
AcDbLine
 10
1096.7219838439
 20
1663.2711668436
 30
0.0
 11
1097.5483351885
 21
1663.2711668436
 31
0.0
  0
ARC
  5
12F
330
1F
100
AcDbEntity
  8
0
  6
Continuous
 62
     7
 48
100.0
370
    15
100
AcDbCircle
 10
1121.7219842165
 20
1663.2711678762
 30
0.0
 40
25.0
100
AcDbArc
 50
0.0
 51
40.0306228097
  0
ARC
  5
130
330
1F
100
AcDbEntity
  8
0
  6
Continuous
 62
     7
 48
100.0
370
    15
100
AcDbCircle
 10
1121.7219842165
 20
1663.2711678762
 30
0.0
 40
25.00000000000011
100
AcDbArc
 50
57.670610054
 51
180.0
  0
LINE
  5
131
330
1F
100
AcDbEntity
  8
0
  6
Continuous
 62
     7
 48
10.0
370
    15
100
AcDbLine
 10
1146.721984589
 20
1663.2711668436
 30
0.0
 11
1145.8956332444
 21
1663.2711668436
 31
0.0
  0
LINE
  5
132
330
1F
100
AcDbEntity
  8
0
  6
Continuous
 62
     7
 48
10.0
370
    15
100
AcDbLine
 10
1105.8956322758
 20
1663.2711668436
 30
0.0
 11
1106.7219845517
 21
1663.2711668436
 31
0.0
  0
LINE
  5
133
330
1F
100
AcDbEntity
  8
0
  6
Continuous
 62
     7
 48
10.0
370
    15
100
AcDbLine
 10
1106.7219845517
 20
1616.458602709
 30
0.0
 11
1106.7219845517
 21
1663.2711668436
 31
0.0
  0
SPLINE
  5
134
330
1F
100
AcDbEntity
  8
0
  6
Continuous
 62
     7
 48
10.0
370
    15
100
AcDbSpline
210
0.0
220
0.0
230
1.0
 70
     8
 71
     3
 72
    11
 73
     7
 74
     0
 42
0.00000001
 43
0.00000001
 40
0.0
 40
0.0
 40
0.0
 40
0.0
 40
0.2527124248184493
 40
0.5750793998382717
 40
0.905327491839853
 40
1.0
 40
1.0
 40
1.0
 40
1.0
 10
1106.721984551736
 20
1614.08374504488
 30
0.0
 10
1106.713594786871
 20
1614.274209548458
 30
0.0
 10
1106.694502805358
 20
1614.707635853028
 30
0.0
 10
1106.660007857085
 20
1615.467519579004
 30
0.0
 10
1106.714897922305
 20
1616.076598288495
 30
0.0
 10
1106.720693331795
 20
1616.388999559837
 30
0.0
 10
1106.721984551736
 20
1616.458602708988
 30
0.0
  0
LINE
  5
135
330
1F
100
AcDbEntity
  8
0
  6
Continuous
 62
     7
 48
10.0
370
    15
100
AcDbLine
 10
1106.7219845517
 20
1558.2711626713
 30
0.0
 11
1106.7219845517
 21
1614.0837450449
 31
0.0
  0
ARC
  5
136
330
1F
100
AcDbEntity
  8
0
  6
Continuous
 62
     7
 48
100.0
370
    15
100
AcDbCircle
 10
1121.7219842165
 20
1663.2711678762
 30
0.0
 40
14.99999999999993
100
AcDbArc
 50
42.4318365743
 51
85.4595847674
  0
SPLINE
  5
137
330
1F
100
AcDbEntity
  8
0
  6
Continuous
 62
     7
 48
10.0
370
    15
100
AcDbSpline
210
0.0
220
0.0
230
1.0
 70
     8
 71
     3
 72
    10
 73
     6
 74
     0
 42
0.00000001
 43
0.00000001
 40
0.0
 40
0.0
 40
0.0
 40
0.0
 40
0.3363296558676908
 40
0.6763264865251332
 40
1.0
 40
1.0
 40
1.0
 40
1.0
 10
1120.534550029301
 20
1678.224094671421
 30
0.0
 10
1120.790178642547
 20
1678.255461101661
 30
0.0
 10
1121.304223118959
 20
1678.318535966422
 30
0.0
 10
1122.160678010172
 20
1678.315317861613
 30
0.0
 10
1122.663964469855
 20
1678.253999683998
 30
0.0
 10
1122.909418403619
 20
1678.224094671421
 30
0.0
  0
ARC
  5
138
330
1F
100
AcDbEntity
  8
0
  6
Continuous
 62
     7
 48
100.0
370
    15
100
AcDbCircle
 10
1121.7219842165
 20
1663.2711678762
 30
0.0
 40
15.0
100
AcDbArc
 50
94.5404152326
 51
180.0
  0
LINE
  5
139
330
1F
100
AcDbEntity
  8
0
  6
Continuous
 62
     7
 48
10.0
370
    15
100
AcDbLine
 10
1096.7219838439
 20
1558.2711626713
 30
0.0
 11
1096.7219838439
 21
1663.2711668436
 31
0.0
  0
LINE
  5
13A
330
1F
100
AcDbEntity
  8
0
  6
Continuous
 62
     7
 48
10.0
370
    15
100
AcDbLine
 10
1146.721984589
 20
1663.2711668436
 30
0.0
 11
1146.721984589
 21
1558.2711626713
 31
0.0
  0
LINE
  5
13B
330
1F
100
AcDbEntity
  8
0
  6
Continuous
 62
     7
 48
10.0
370
    15
100
AcDbLine
 10
1126.2209446668
 20
1118.7938977901
 30
0.0
 11
1064.7219841867
 21
1118.7938977901
 31
0.0
  0
LINE
  5
13C
330
1F
100
AcDbEntity
  8
0
  6
Continuous
 62
     7
 48
10.0
370
    15
100
AcDbLine
 10
1178.7219842463
 20
1118.7938977901
 30
0.0
 11
1126.2209446668
 21
1118.7938977901
 31
0.0
  0
LINE
  5
13D
330
1F
100
AcDbEntity
  8
0
  6
Continuous
 62
     7
 48
10.0
370
    15
100
AcDbLine
 10
1126.2998737893
 20
1119.7938998167
 30
0.0
 11
1179.7219825475
 21
1119.7938998167
 31
0.0
  0
LINE
  5
13E
330
1F
100
AcDbEntity
  8
0
  6
Continuous
 62
     7
 48
10.0
370
    15
100
AcDbLine
 10
1063.7219858854
 20
1119.7938998167
 30
0.0
 11
1126.2998737893
 21
1119.7938998167
 31
0.0
  0
LINE
  5
13F
330
1F
100
AcDbEntity
  8
0
  6
Continuous
 62
     7
 48
10.0
370
    15
100
AcDbLine
 10
1126.2998737893
 20
1121.7939038698
 30
0.0
 11
1063.7219858854
 21
1121.7939038698
 31
0.0
  0
LINE
  5
140
330
1F
100
AcDbEntity
  8
0
  6
Continuous
 62
     7
 48
10.0
370
    15
100
AcDbLine
 10
1179.7219825475
 20
1121.7939038698
 30
0.0
 11
1126.2998737893
 21
1121.7939038698
 31
0.0
  0
LINE
  5
141
330
1F
100
AcDbEntity
  8
0
  6
Continuous
 62
     7
 48
10.0
370
    15
100
AcDbLine
 10
1121.7219842165
 20
1519.2711730425
 30
0.0
 11
1179.7219825475
 21
1519.2711730425
 31
0.0
  0
LINE
  5
142
330
1F
100
AcDbEntity
  8
0
  6
Continuous
 62
     7
 48
10.0
370
    15
100
AcDbLine
 10
1063.7219858854
 20
1519.2711730425
 30
0.0
 11
1121.7219842165
 21
1519.2711730425
 31
0.0
  0
LINE
  5
143
330
1F
100
AcDbEntity
  8
0
  6
Continuous
 62
     7
 48
10.0
370
    15
100
AcDbLine
 10
1121.7219842165
 20
1521.2711621944
 30
0.0
 11
1063.7219858854
 21
1521.2711621944
 31
0.0
  0
LINE
  5
144
330
1F
100
AcDbEntity
  8
0
  6
Continuous
 62
     7
 48
10.0
370
    15
100
AcDbLine
 10
1179.7219825475
 20
1521.2711621944
 30
0.0
 11
1121.7219842165
 21
1521.2711621944
 31
0.0
  0
LINE
  5
145
330
1F
100
AcDbEntity
  8
0
  6
Continuous
 62
     7
 48
10.0
370
    15
100
AcDbLine
 10
1121.7219842165
 20
1522.271164221
 30
0.0
 11
1178.7219842463
 21
1522.271164221
 31
0.0
  0
LINE
  5
146
330
1F
100
AcDbEntity
  8
0
  6
Continuous
 62
     7
 48
10.0
370
    15
100
AcDbLine
 10
1064.7219841867
 20
1522.271164221
 30
0.0
 11
1121.7219842165
 21
1522.271164221
 31
0.0
  0
LINE
  5
147
330
1F
100
AcDbEntity
  8
0
  6
Continuous
 62
     7
 48
10.0
370
    15
100
AcDbLine
 10
1070.2219841569
 20
1518.6835755531
 30
0.0
 11
1173.2219842761
 21
1518.6835755531
 31
0.0
  0
LINE
  5
148
330
1F
100
AcDbEntity
  8
0
  6
Continuous
 62
     7
 48
10.0
370
    15
100
AcDbLine
 10
1174.2219825773
 20
1517.6835735266
 30
0.0
 11
1069.2219858556
 21
1517.6835735266
 31
0.0
  0
LINE
  5
149
330
1F
100
AcDbEntity
  8
0
  6
Continuous
 62
     7
 48
10.0
370
    15
100
AcDbLine
 10
1121.7219842165
 20
1124.6835668508
 30
0.0
 11
1174.2219825773
 21
1124.6835668508
 31
0.0
  0
LINE
  5
14A
330
1F
100
AcDbEntity
  8
0
  6
Continuous
 62
     7
 48
10.0
370
    15
100
AcDbLine
 10
1069.2219858556
 20
1124.6835668508
 30
0.0
 11
1121.7219842165
 21
1124.6835668508
 31
0.0
  0
LINE
  5
14B
330
1F
100
AcDbEntity
  8
0
  6
Continuous
 62
     7
 48
10.0
370
    15
100
AcDbLine
 10
1121.7219842165
 20
1123.6835648243
 30
0.0
 11
1070.2219841569
 21
1123.6835648243
 31
0.0
  0
LINE
  5
14C
330
1F
100
AcDbEntity
  8
0
  6
Continuous
 62
     7
 48
10.0
370
    15
100
AcDbLine
 10
1173.2219842761
 20
1123.6835648243
 30
0.0
 11
1121.7219842165
 21
1123.6835648243
 31
0.0
  0
LINE
  5
150
330
1F
100
AcDbEntity
  8
0
  6
Continuous
 62
     8
 48
10.0
370
    15
100
AcDbLine
 10
1121.7219842165
 20
1523.7711747114
 30
0.0
 11
1128.2219843506
 21
1523.7711747114
 31
0.0
  0
LINE
  5
151
330
1F
100
AcDbEntity
  8
0
  6
Continuous
 62
     8
 48
10.0
370
    15
100
AcDbLine
 10
1115.2219840823
 20
1523.7711747114
 30
0.0
 11
1121.7219842165
 21
1523.7711747114
 31
0.0
  0
LINE
  5
152
330
1F
100
AcDbEntity
  8
0
  6
Continuous
 62
     8
 48
10.0
370
    15
100
AcDbLine
 10
1121.7219842165
 20
1548.271172208
 30
0.0
 11
1115.2219840823
 21
1548.271172208
 31
0.0
  0
LINE
  5
153
330
1F
100
AcDbEntity
  8
0
  6
Continuous
 62
     8
 48
10.0
370
    15
100
AcDbLine
 10
1128.2219843506
 20
1548.271172208
 30
0.0
 11
1121.7219842165
 21
1548.271172208
 31
0.0
  0
LWPOLYLINE
  5
154
330
1F
100
AcDbEntity
  8
0
  6
Continuous
 62
     8
 48
10.0
370
    15
100
AcDbPolyline
 90
        3
 70
   128
 43
0.0
 10
1137.5483361571
 20
1663.2711668436
 10
1137.3715692698
 20
1665.6299610559
 10
1137.2183396979
 20
1666.4861817781
  0
ARC
  5
155
330
1F
100
AcDbEntity
  8
0
  6
Continuous
 62
     8
 48
100.0
370
    15
100
AcDbCircle
 10
1121.7219842165
 20
1663.2711678762
 30
0.0
 40
15.82635182233321
100
AcDbArc
 50
40.4542863067
 51
180.0
  0
ARC
  5
156
330
1F
100
AcDbEntity
  8
0
  6
Continuous
 62
     8
 48
100.0
370
    15
100
AcDbCircle
 10
1121.7219842165
 20
1663.2711678762
 30
0.0
 40
24.17364817766685
100
AcDbArc
 50
0.0
 51
41.2536424064
  0
ARC
  5
157
330
1F
100
AcDbEntity
  8
0
  6
Continuous
 62
     8
 48
100.0
370
    15
100
AcDbCircle
 10
1121.7219842165
 20
1663.2711678762
 30
0.0
 40
24.17364817766702
100
AcDbArc
 50
54.5694273452
 51
180.0
  0
LINE
  5
158
330
1F
100
AcDbEntity
  8
0
  6
Continuous
 62
     8
 48
10.0
370
    15
100
AcDbLine
 10
1137.5483361571
 20
1663.2711668436
 30
0.0
 11
1136.9485048144
 21
1663.2711668436
 31
0.0
  0
DIMENSION
  5
168
330
1F
100
AcDbEntity
  8
0
  6
Continuous
 62
     7
 48
10.0
370
     0
100
AcDbDimension
  2
*D1
 10
1371.7219842165
 20
930.713226659
 30
0.0
 11
1108.8127502622
 21
930.713226659
 31
0.0
 70
    32
  1
%%c<>
 71
     2
 42
-1.0
 73
     0
 74
     0
 75
     0
  3
SLDDIMSTYLE0
100
AcDbAlignedDimension
 13
871.7219842165
 23
1236.0585487795
 33
0.0
 14
1371.7219842165
 24
1236.0585487795
 34
0.0
100
AcDbRotatedDimension
  0
DIMENSION
  5
174
330
1F
100
AcDbEntity
  8
0
  6
Continuous
 62
     7
 48
10.0
370
     0
100
AcDbDimension
  2
*D2
 10
771.7219842165
 20
1118.7938983922
 30
0.0
 11
771.7219842165
 21
1403.518482755
 31
0.0
 70
    32
  1
570
 71
     2
 42
-1.0
 73
     0
 74
     0
 75
     0
  3
SLDDIMSTYLE1
100
AcDbAlignedDimension
 13
1105.5222604584
 23
1688.2711678762
 33
0.0
 14
1064.7219842165
 24
1118.7938983922
 34
0.0
 50
90.0
100
AcDbRotatedDimension
  0
DIMENSION
  5
17F
330
1F
100
AcDbEntity
  8
0
  6
Continuous
 62
     7
 48
10.0
370
     0
100
AcDbDimension
  2
*D3
 10
1471.7219842165
 20
1118.7938983922
 30
0.0
 11
1471.7219842165
 21
1346.3563436106
 31
0.0
 70
    32
  1
400
 71
     2
 42
-1.0
 73
     0
 74
     0
 75
     0
  3
SLDDIMSTYLE1
100
AcDbAlignedDimension
 13
1178.7219842165
 23
1522.2711678762
 33
0.0
 14
1178.7219842165
 24
1118.7938983922
 34
0.0
 50
90.0
100
AcDbRotatedDimension
  0
DIMENSION
  5
189
330
1F
100
AcDbEntity
  8
0
  6
Continuous
 62
     7
 48
10.0
370
     0
100
AcDbDimension
  2
*D4
 10
1063.7219842165
 20
1018.7938983922
 30
0.0
 11
1108.8127502622
 21
1018.7938983922
 31
0.0
 70
    32
  1
%%c<>
 71
     2
 42
-1.0
 73
     0
 74
     0
 75
     0
  3
SLDDIMSTYLE2
100
AcDbAlignedDimension
 13
1179.7219842165
 23
1119.7938983922
 33
0.0
 14
1063.7219842165
 24
1119.7938983922
 34
0.0
100
AcDbRotatedDimension
  0
DIMENSION
  5
197
330
1F
100
AcDbEntity
  8
0
  6
Continuous
 62
     7
 48
10.0
370
     0
100
AcDbDimension
  2
*D5
 10
1191.7219842165
 20
2430.8313342299
 30
0.0
 11
1116.3971656186
 21
2430.8313342299
 31
0.0
 70
    32
  1
%%c<>
 71
     2
 42
-1.0
 73
     0
 74
     0
 75
     0
  3
SLDDIMSTYLE2
100
AcDbAlignedDimension
 13
1051.7219842165
 23
2313.8177935579
 33
0.0
 14
1191.7219842165
 24
2313.8177935579
 34
0.0
100
AcDbRotatedDimension
  0
DIMENSION
  5
1A4
330
1F
100
AcDbEntity
  8
0
  6
Continuous
 62
     7
 48
10.0
370
     0
100
AcDbDimension
  2
*D6
 10
1313.969520992
 20
2273.8177935579
 30
0.0
 11
1313.969520992
 21
2221.5551955905
 31
0.0
 70
    32
 71
     2
 42
-1.0
 73
     0
 74
     0
 75
     0
  3
SLDDIMSTYLE2
100
AcDbAlignedDimension
 13
1191.7219842165
 23
2313.8177935579
 33
0.0
 14
1188.7219842165
 24
2273.8177935579
 34
0.0
 50
90.0
100
AcDbRotatedDimension
  0
DIMENSION
  5
1B0
330
1F
100
AcDbEntity
  8
0
  6
Continuous
 62
     7
 48
10.0
370
     0
100
AcDbDimension
  2
*D7
 10
1471.7219842165
 20
1522.2711678762
 30
0.0
 11
1471.7219842165
 21
1905.9371986625
 31
0.0
 70
    32
  1
max.250
 71
     2
 42
-1.0
 73
     0
 74
     0
 75
     0
  3
SLDDIMSTYLE0
100
AcDbAlignedDimension
 13
1188.7219842165
 23
2273.8177935579
 33
0.0
 14
1178.7219842165
 24
1522.2711678762
 34
0.0
 50
90.0
100
AcDbRotatedDimension
  0
ENDSEC
  0
SECTION
  2
OBJECTS
  0
DICTIONARY
  5
C
330
0
100
AcDbDictionary
281
     1
  3
ACAD_COLOR
350
6C
  3
ACAD_GROUP
350
D
  3
ACAD_IMAGE_DICT
350
40
  3
ACAD_LAYOUT
350
1A
  3
ACAD_MATERIAL
350
6B
  3
ACAD_MLEADERSTYLE
350
1BC
  3
ACAD_MLINESTYLE
350
17
  3
ACAD_PLOTSETTINGS
350
19
  3
ACAD_PLOTSTYLENAME
350
E
  3
ACAD_SCALELIST
350
99
  3
ACAD_TABLESTYLE
350
92
  3
ACAD_VISUALSTYLE
350
2A
  3
AcDbVariableDictionary
350
59
  0
DICTIONARY
  5
1FD
330
1F
100
AcDbDictionary
280
     1
281
     1
  0
DICTIONARY
  5
6C
102
{ACAD_REACTORS
330
C
102
}
330
C
100
AcDbDictionary
281
     1
  0
DICTIONARY
  5
D
102
{ACAD_REACTORS
330
C
102
}
330
C
100
AcDbDictionary
281
     1
  0
DICTIONARY
  5
40
102
{ACAD_REACTORS
330
C
102
}
330
C
100
AcDbDictionary
281
     1
  3
G:\JSL\PARACHILNA\PRODUCTOS\BAI\BAI MA MA\CAD\DXF58DA.BMP
350
41
  0
DICTIONARY
  5
1A
102
{ACAD_REACTORS
330
C
102
}
330
C
100
AcDbDictionary
281
     1
  3
Layout1
350
74
  3
Layout2
350
26
  3
Model
350
22
  0
DICTIONARY
  5
6B
102
{ACAD_REACTORS
330
C
102
}
330
C
100
AcDbDictionary
281
     1
  0
DICTIONARY
  5
1BC
102
{ACAD_REACTORS
330
C
102
}
330
C
100
AcDbDictionary
281
     1
  0
DICTIONARY
  5
17
102
{ACAD_REACTORS
330
C
102
}
330
C
100
AcDbDictionary
281
     1
  3
Standard
350
18
  0
DICTIONARY
  5
19
102
{ACAD_REACTORS
330
C
102
}
330
C
100
AcDbDictionary
281
     1
  0
ACDBDICTIONARYWDFLT
  5
E
102
{ACAD_REACTORS
330
C
102
}
330
C
100
AcDbDictionary
281
     1
  3
Normal
350
F
100
AcDbDictionaryWithDefault
340
F
  0
DICTIONARY
  5
99
102
{ACAD_REACTORS
330
C
102
}
330
C
100
AcDbDictionary
281
     1
  3
A0
350
66
  3
A1
350
67
  3
A2
350
68
  3
A3
350
69
  3
A4
350
6A
  3
A5
350
1CD
  3
A6
350
1CE
  3
A7
350
6D
  3
A8
350
6E
  3
A9
350
6F
  3
B0
350
70
  3
B1
350
71
  3
B2
350
72
  3
B3
350
1CF
  3
B4
350
1D0
  3
B5
350
1D1
  3
B6
350
1D2
  3
B7
350
77
  3
B8
350
78
  3
B9
350
79
  3
C0
350
7A
  3
C1
350
7B
  3
C2
350
7C
  3
C3
350
7D
  3
C4
350
7E
  3
C5
350
7F
  3
C6
350
80
  3
C7
350
81
  3
C8
350
82
  3
C9
350
83
  3
D0
350
84
  3
D1
350
85
  3
D2
350
86
  0
DICTIONARY
  5
92
102
{ACAD_REACTORS
330
C
102
}
330
C
100
AcDbDictionary
281
     1
  3
Standard
350
93
  0
DICTIONARY
  5
2A
102
{ACAD_REACTORS
330
C
102
}
330
C
100
AcDbDictionary
281
     1
  3
2DWIREFRAME
350
2F
  3
3D HIDDEN
350
31
  3
3DWIREFRAME
350
30
  3
BASIC
350
32
  3
BRIGHTEN
350
36
  3
COLORCHANGE
350
3A
  3
CONCEPTUAL
350
34
  3
DIM
350
35
  3
FACEPATTERN
350
39
  3
FLAT
350
2B
  3
FLATWITHEDGES
350
2C
  3
GOURAUD
350
2D
  3
GOURAUDWITHEDGES
350
2E
  3
LINEPATTERN
350
38
  3
REALISTIC
350
33
  3
THICKEN
350
37
  0
DICTIONARY
  5
59
102
{ACAD_REACTORS
330
C
102
}
330
C
100
AcDbDictionary
281
     1
  3
CANNOSCALE
350
1FE
  3
CTABLESTYLE
350
98
  3
DIMASSOC
350
1C0
  3
HIDETEXT
350
1C1
  0
IMAGEDEF
  5
41
102
{ACAD_REACTORS
330
40
102
}
330
40
100
AcDbRasterImageDef
 90
        0
  1
G:\JSL\PARACHILNA\PRODUCTOS\BAI\BAI MA MA\CAD\dxf58DA.bmp
 10
468.0
 20
40.0
 11
0.002136752136752137
 21
0.002136752136752137
280
     1
281
     0
  0
LAYOUT
  5
74
102
{ACAD_REACTORS
330
1A
102
}
330
1A
100
AcDbPlotSettings
  1

  2
none_device
  4
ISO_C5_(229.00_x_162.00_MM)
  6

 40
0.0
 41
0.0
 42
0.0
 43
0.0
 44
229.0
 45
162.0
 46
0.0
 47
0.0
 48
0.0
 49
0.0
140
0.0
141
0.0
142
1.0
143
1.0
 70
   688
 72
     1
 73
     0
 74
     5
  7

 75
    16
 76
     0
 77
     2
 78
   300
147
1.0
148
0.0
149
0.0
100
AcDbLayout
  1
Layout1
 70
     1
 71
     1
 10
0.0
 20
0.0
 11
420.0
 21
297.0
 12
0.0
 22
0.0
 32
0.0
 14
1.000000000000000E+20
 24
1.000000000000000E+20
 34
1.000000000000000E+20
 15
-1.000000000000000E+20
 25
-1.000000000000000E+20
 35
-1.000000000000000E+20
146
0.0
 13
0.0
 23
0.0
 33
0.0
 16
1.0
 26
0.0
 36
0.0
 17
0.0
 27
1.0
 37
0.0
 76
     0
330
73
  0
LAYOUT
  5
26
102
{ACAD_REACTORS
330
1A
102
}
330
1A
100
AcDbPlotSettings
  1

  2
none_device
  4
ISO_C5_(229.00_x_162.00_MM)
  6

 40
0.0
 41
0.0
 42
0.0
 43
0.0
 44
229.0
 45
162.0
 46
0.0
 47
0.0
 48
0.0
 49
0.0
140
0.0
141
0.0
142
1.0
143
1.0
 70
   688
 72
     1
 73
     0
 74
     5
  7

 75
    16
 76
     0
 77
     2
 78
   300
147
1.0
148
0.0
149
0.0
100
AcDbLayout
  1
Layout2
 70
     1
 71
     2
 10
0.0
 20
0.0
 11
0.0
 21
0.0
 12
0.0
 22
0.0
 32
0.0
 14
0.0
 24
0.0
 34
0.0
 15
0.0
 25
0.0
 35
0.0
146
0.0
 13
0.0
 23
0.0
 33
0.0
 16
1.0
 26
0.0
 36
0.0
 17
0.0
 27
1.0
 37
0.0
 76
     0
330
23
  0
LAYOUT
  5
22
102
{ACAD_REACTORS
330
1A
102
}
330
1A
100
AcDbPlotSettings
  1

  2
none_device
  4
ISO_C5_(229.00_x_162.00_MM)
  6

 40
0.0
 41
0.0
 42
0.0
 43
0.0
 44
229.0
 45
162.0
 46
0.0
 47
0.0
 48
0.0
 49
0.0
140
0.0
141
0.0
142
1.0
143
1.0
 70
 11952
 72
     1
 73
     0
 74
     0
  7

 75
    16
 76
     0
 77
     2
 78
   300
147
1.0
148
0.0
149
0.0
100
AcDbLayout
  1
Model
 70
     1
 71
     0
 10
0.0
 20
0.0
 11
2100.0
 21
2970.0
 12
0.0
 22
0.0
 32
0.0
 14
176.8264998564
 24
49.9980727422
 34
0.0
 15
2049.4323743066
 25
4182.346709532
 35
0.0
146
0.0
 13
0.0
 23
0.0
 33
0.0
 16
1.0
 26
0.0
 36
0.0
 17
0.0
 27
1.0
 37
0.0
 76
     0
330
1F
331
97
  0
MLINESTYLE
  5
18
102
{ACAD_REACTORS
330
17
102
}
330
17
100
AcDbMlineStyle
  2
Standard
 70
     0
  3

 62
   256
 51
90.0
 52
90.0
 71
     2
 49
0.5
 62
   256
  6
BYLAYER
 49
-0.5
 62
   256
  6
BYLAYER
  0
ACDBPLACEHOLDER
  5
F
102
{ACAD_REACTORS
330
E
102
}
330
E
  0
SCALE
  5
66
102
{ACAD_REACTORS
330
99
102
}
330
99
100
AcDbScale
 70
     0
300
1:1
140
1.0
141
1.0
290
     1
  0
SCALE
  5
67
102
{ACAD_REACTORS
330
99
102
}
330
99
100
AcDbScale
 70
     0
300
1:2
140
1.0
141
2.0
290
     0
  0
SCALE
  5
68
102
{ACAD_REACTORS
330
99
102
}
330
99
100
AcDbScale
 70
     0
300
1:4
140
1.0
141
4.0
290
     0
  0
SCALE
  5
69
102
{ACAD_REACTORS
330
99
102
}
330
99
100
AcDbScale
 70
     0
300
1:5
140
1.0
141
5.0
290
     0
  0
SCALE
  5
6A
102
{ACAD_REACTORS
330
99
102
}
330
99
100
AcDbScale
 70
     0
300
1:8
140
1.0
141
8.0
290
     0
  0
SCALE
  5
1CD
102
{ACAD_REACTORS
330
99
102
}
330
99
100
AcDbScale
 70
     0
300
1:10
140
1.0
141
10.0
290
     0
  0
SCALE
  5
1CE
102
{ACAD_REACTORS
330
99
102
}
330
99
100
AcDbScale
 70
     0
300
1:16
140
1.0
141
16.0
290
     0
  0
SCALE
  5
6D
102
{ACAD_REACTORS
330
99
102
}
330
99
100
AcDbScale
 70
     0
300
1:20
140
1.0
141
20.0
290
     0
  0
SCALE
  5
6E
102
{ACAD_REACTORS
330
99
102
}
330
99
100
AcDbScale
 70
     0
300
1:30
140
1.0
141
30.0
290
     0
  0
SCALE
  5
6F
102
{ACAD_REACTORS
330
99
102
}
330
99
100
AcDbScale
 70
     0
300
1:40
140
1.0
141
40.0
290
     0
  0
SCALE
  5
70
102
{ACAD_REACTORS
330
99
102
}
330
99
100
AcDbScale
 70
     0
300
1:50
140
1.0
141
50.0
290
     0
  0
SCALE
  5
71
102
{ACAD_REACTORS
330
99
102
}
330
99
100
AcDbScale
 70
     0
300
1:100
140
1.0
141
100.0
290
     0
  0
SCALE
  5
72
102
{ACAD_REACTORS
330
99
102
}
330
99
100
AcDbScale
 70
     0
300
2:1
140
2.0
141
1.0
290
     0
  0
SCALE
  5
1CF
102
{ACAD_REACTORS
330
99
102
}
330
99
100
AcDbScale
 70
     0
300
4:1
140
4.0
141
1.0
290
     0
  0
SCALE
  5
1D0
102
{ACAD_REACTORS
330
99
102
}
330
99
100
AcDbScale
 70
     0
300
8:1
140
8.0
141
1.0
290
     0
  0
SCALE
  5
1D1
102
{ACAD_REACTORS
330
99
102
}
330
99
100
AcDbScale
 70
     0
300
10:1
140
10.0
141
1.0
290
     0
  0
SCALE
  5
1D2
102
{ACAD_REACTORS
330
99
102
}
330
99
100
AcDbScale
 70
     0
300
100:1
140
100.0
141
1.0
290
     0
  0
SCALE
  5
77
102
{ACAD_REACTORS
330
99
102
}
330
99
100
AcDbScale
 70
     0
300
1/128" = 1'-0"
140
0.0078125
141
12.0
290
     0
  0
SCALE
  5
78
102
{ACAD_REACTORS
330
99
102
}
330
99
100
AcDbScale
 70
     0
300
1/64" = 1'-0"
140
0.015625
141
12.0
290
     0
  0
SCALE
  5
79
102
{ACAD_REACTORS
330
99
102
}
330
99
100
AcDbScale
 70
     0
300
1/32" = 1'-0"
140
0.03125
141
12.0
290
     0
  0
SCALE
  5
7A
102
{ACAD_REACTORS
330
99
102
}
330
99
100
AcDbScale
 70
     0
300
1/16" = 1'-0"
140
0.0625
141
12.0
290
     0
  0
SCALE
  5
7B
102
{ACAD_REACTORS
330
99
102
}
330
99
100
AcDbScale
 70
     0
300
3/32" = 1'-0"
140
0.09375
141
12.0
290
     0
  0
SCALE
  5
7C
102
{ACAD_REACTORS
330
99
102
}
330
99
100
AcDbScale
 70
     0
300
1/8" = 1'-0"
140
0.125
141
12.0
290
     0
  0
SCALE
  5
7D
102
{ACAD_REACTORS
330
99
102
}
330
99
100
AcDbScale
 70
     0
300
3/16" = 1'-0"
140
0.1875
141
12.0
290
     0
  0
SCALE
  5
7E
102
{ACAD_REACTORS
330
99
102
}
330
99
100
AcDbScale
 70
     0
300
1/4" = 1'-0"
140
0.25
141
12.0
290
     0
  0
SCALE
  5
7F
102
{ACAD_REACTORS
330
99
102
}
330
99
100
AcDbScale
 70
     0
300
3/8" = 1'-0"
140
0.375
141
12.0
290
     0
  0
SCALE
  5
80
102
{ACAD_REACTORS
330
99
102
}
330
99
100
AcDbScale
 70
     0
300
1/2" = 1'-0"
140
0.5
141
12.0
290
     0
  0
SCALE
  5
81
102
{ACAD_REACTORS
330
99
102
}
330
99
100
AcDbScale
 70
     0
300
3/4" = 1'-0"
140
0.75
141
12.0
290
     0
  0
SCALE
  5
82
102
{ACAD_REACTORS
330
99
102
}
330
99
100
AcDbScale
 70
     0
300
1" = 1'-0"
140
1.0
141
12.0
290
     0
  0
SCALE
  5
83
102
{ACAD_REACTORS
330
99
102
}
330
99
100
AcDbScale
 70
     0
300
1-1/2" = 1'-0"
140
1.5
141
12.0
290
     0
  0
SCALE
  5
84
102
{ACAD_REACTORS
330
99
102
}
330
99
100
AcDbScale
 70
     0
300
3" = 1'-0"
140
3.0
141
12.0
290
     0
  0
SCALE
  5
85
102
{ACAD_REACTORS
330
99
102
}
330
99
100
AcDbScale
 70
     0
300
6" = 1'-0"
140
6.0
141
12.0
290
     0
  0
SCALE
  5
86
102
{ACAD_REACTORS
330
99
102
}
330
99
100
AcDbScale
 70
     0
300
1'-0" = 1'-0"
140
12.0
141
12.0
290
     0
  0
TABLESTYLE
  5
93
102
{ACAD_REACTORS
330
92
102
}
330
92
100
AcDbTableStyle
  3
Standard
 70
     0
 71
     0
 40
0.06
 41
0.06
280
     0
281
     0
  7
Standard
140
0.18
170
     2
 62
     0
 63
     7
283
     0
 90
      512
 91
        0
  1

274
    -2
284
     1
 64
     0
275
    -2
285
     1
 65
     0
276
    -2
286
     1
 66
     0
277
    -2
287
     1
 67
     0
278
    -2
288
     1
 68
     0
279
    -2
289
     1
 69
     0
  7
Standard
140
0.25
170
     5
 62
     0
 63
     7
283
     0
 90
      512
 91
        0
  1

274
    -2
284
     1
 64
     0
275
    -2
285
     1
 65
     0
276
    -2
286
     1
 66
     0
277
    -2
287
     1
 67
     0
278
    -2
288
     1
 68
     0
279
    -2
289
     1
 69
     0
  7
Standard
140
0.18
170
     5
 62
     0
 63
     7
283
     0
 90
      512
 91
        0
  1

274
    -2
284
     1
 64
     0
275
    -2
285
     1
 65
     0
276
    -2
286
     1
 66
     0
277
    -2
287
     1
 67
     0
278
    -2
288
     1
 68
     0
279
    -2
289
     1
 69
     0
  0
VISUALSTYLE
  5
2F
102
{ACAD_REACTORS
330
2A
102
}
330
2A
100
AcDbVisualStyle
  2
2dWireframe
 70
     4
 71
     0
 72
     2
 73
     0
 90
        0
 40
-0.6
 41
-30.0
 62
     5
 63
     7
 74
     1
 91
        4
 64
     7
 65
   257
 75
     1
175
     1
 42
1.0
 92
        0
 66
   257
 43
1.0
 76
     1
 77
     6
 78
     2
 67
     7
 79
     5
170
     0
171
     0
290
     1
174
     0
 93
        1
 44
0.0
173
     0
291
     1
 45
0.0
  0
VISUALSTYLE
  5
31
102
{ACAD_REACTORS
330
2A
102
}
330
2A
100
AcDbVisualStyle
  2
3D Hidden
 70
     6
 71
     1
 72
     2
 73
     2
 90
        0
 40
-0.6
 41
-30.0
 62
     5
 63
     7
 74
     2
 91
        2
 64
     7
 65
   257
 75
     2
175
     1
 42
40.0
 92
        0
 66
   257
 43
1.0
 76
     1
 77
     6
 78
     2
 67
     7
 79
     3
170
     0
171
     0
290
     1
174
     0
 93
        1
 44
0.0
173
     0
291
     1
 45
0.0
  0
VISUALSTYLE
  5
30
102
{ACAD_REACTORS
330
2A
102
}
330
2A
100
AcDbVisualStyle
  2
3dWireframe
 70
     5
 71
     0
 72
     2
 73
     0
 90
        0
 40
-0.6
 41
-30.0
 62
     5
 63
     7
 74
     1
 91
        4
 64
     7
 65
   257
 75
     1
175
     1
 42
1.0
 92
        0
 66
   257
 43
1.0
 76
     1
 77
     6
 78
     2
 67
     7
 79
     5
170
     0
171
     0
290
     1
174
     0
 93
        1
 44
0.0
173
     0
291
     1
 45
0.0
  0
VISUALSTYLE
  5
32
102
{ACAD_REACTORS
330
2A
102
}
330
2A
100
AcDbVisualStyle
  2
Basic
 70
     7
 71
     1
 72
     0
 73
     1
 90
        0
 40
-0.6
 41
-30.0
 62
     5
 63
     7
 74
     0
 91
        4
 64
     7
 65
   257
 75
     1
175
     1
 42
1.0
 92
        8
 66
     7
 43
1.0
 76
     1
 77
     6
 78
     2
 67
     7
 79
     5
170
     0
171
     0
290
     1
174
     0
 93
        1
 44
0.0
173
     0
291
     1
 45
0.0
  0
VISUALSTYLE
  5
36
102
{ACAD_REACTORS
330
2A
102
}
330
2A
100
AcDbVisualStyle
  2
Brighten
 70
    12
 71
     2
 72
     2
 73
     0
 90
        0
 40
-0.6
 41
-30.0
 62
     5
 63
     7
 74
     1
 91
        4
 64
     7
 65
   257
 75
     1
175
     1
 42
1.0
 92
        8
 66
     7
 43
1.0
 76
     1
 77
     6
 78
     2
 67
     7
 79
     5
170
     0
171
     0
290
     1
174
     0
 93
        1
 44
50.0
173
     0
291
     1
 45
0.0
  0
VISUALSTYLE
  5
3A
102
{ACAD_REACTORS
330
2A
102
}
330
2A
100
AcDbVisualStyle
  2
ColorChange
 70
    16
 71
     2
 72
     2
 73
     3
 90
        0
 40
-0.6
 41
-30.0
 62
     5
 63
     8
 74
     1
 91
        4
 64
     7
 65
   257
 75
     1
175
     1
 42
1.0
 92
        8
 66
     8
 43
1.0
 76
     1
 77
     6
 78
     2
 67
     7
 79
     5
170
     0
171
     0
290
     1
174
     0
 93
        1
 44
0.0
173
     0
291
     1
 45
0.0
  0
VISUALSTYLE
  5
34
102
{ACAD_REACTORS
330
2A
102
}
330
2A
100
AcDbVisualStyle
  2
Conceptual
 70
     9
 71
     3
 72
     2
 73
     0
 90
        0
 40
-0.6
 41
-30.0
 62
     5
 63
     7
 74
     2
 91
        2
 64
     7
 65
   257
 75
     1
175
     1
 42
40.0
 92
        8
 66
     7
 43
1.0
 76
     1
 77
     6
 78
     2
 67
     7
 79
     3
170
     0
171
     0
290
     1
174
     0
 93
        1
 44
0.0
173
     0
291
     1
 45
0.0
  0
VISUALSTYLE
  5
35
102
{ACAD_REACTORS
330
2A
102
}
330
2A
100
AcDbVisualStyle
  2
Dim
 70
    11
 71
     2
 72
     2
 73
     0
 90
        0
 40
-0.6
 41
-30.0
 62
     5
 63
     7
 74
     1
 91
        4
 64
     7
 65
   257
 75
     1
175
     1
 42
1.0
 92
        8
 66
     7
 43
1.0
 76
     1
 77
     6
 78
     2
 67
     7
 79
     5
170
     0
171
     0
290
     1
174
     0
 93
        1
 44
-50.0
173
     0
291
     1
 45
0.0
  0
VISUALSTYLE
  5
39
102
{ACAD_REACTORS
330
2A
102
}
330
2A
100
AcDbVisualStyle
  2
Facepattern
 70
    15
 71
     2
 72
     2
 73
     0
 90
        0
 40
-0.6
 41
-30.0
 62
     5
 63
     7
 74
     1
 91
        4
 64
     7
 65
   257
 75
     1
175
     1
 42
1.0
 92
        8
 66
     7
 43
1.0
 76
     1
 77
     6
 78
     2
 67
     7
 79
     5
170
     0
171
     0
290
     1
174
     0
 93
        1
 44
0.0
173
     0
291
     1
 45
0.0
  0
VISUALSTYLE
  5
2B
102
{ACAD_REACTORS
330
2A
102
}
330
2A
100
AcDbVisualStyle
  2
Flat
 70
     0
 71
     2
 72
     1
 73
     1
 90
        2
 40
-0.6
 41
30.0
 62
     5
 63
     7
 74
     0
 91
        4
 64
     7
 65
   257
 75
     1
175
     1
 42
1.0
 92
        8
 66
     7
 43
1.0
 76
     1
 77
     6
 78
     2
 67
     7
 79
     5
170
     0
171
     0
290
     1
174
     0
 93
       13
 44
0.0
173
     0
291
     1
 45
0.0
  0
VISUALSTYLE
  5
2C
102
{ACAD_REACTORS
330
2A
102
}
330
2A
100
AcDbVisualStyle
  2
FlatWithEdges
 70
     1
 71
     2
 72
     1
 73
     1
 90
        2
 40
-0.6
 41
30.0
 62
     5
 63
     7
 74
     1
 91
        4
 64
     7
 65
   257
 75
     1
175
     1
 42
1.0
 92
        0
 66
   257
 43
1.0
 76
     1
 77
     6
 78
     2
 67
     7
 79
     5
170
     0
171
     0
290
     1
174
     0
 93
       13
 44
0.0
173
     0
291
     1
 45
0.0
  0
VISUALSTYLE
  5
2D
102
{ACAD_REACTORS
330
2A
102
}
330
2A
100
AcDbVisualStyle
  2
Gouraud
 70
     2
 71
     2
 72
     2
 73
     1
 90
        2
 40
-0.6
 41
30.0
 62
     5
 63
     7
 74
     0
 91
        4
 64
     7
 65
   257
 75
     1
175
     1
 42
1.0
 92
        0
 66
     7
 43
1.0
 76
     1
 77
     6
 78
     2
 67
     7
 79
     5
170
     0
171
     0
290
     1
174
     0
 93
       13
 44
0.0
173
     0
291
     1
 45
0.0
  0
VISUALSTYLE
  5
2E
102
{ACAD_REACTORS
330
2A
102
}
330
2A
100
AcDbVisualStyle
  2
GouraudWithEdges
 70
     3
 71
     2
 72
     2
 73
     1
 90
        2
 40
-0.6
 41
30.0
 62
     5
 63
     7
 74
     1
 91
        4
 64
     7
 65
   257
 75
     1
175
     1
 42
1.0
 92
        0
 66
   257
 43
1.0
 76
     1
 77
     6
 78
     2
 67
     7
 79
     5
170
     0
171
     0
290
     1
174
     0
 93
       13
 44
0.0
173
     0
291
     1
 45
0.0
  0
VISUALSTYLE
  5
38
102
{ACAD_REACTORS
330
2A
102
}
330
2A
100
AcDbVisualStyle
  2
Linepattern
 70
    14
 71
     2
 72
     2
 73
     0
 90
        0
 40
-0.6
 41
-30.0
 62
     5
 63
     7
 74
     1
 91
        4
 64
     7
 65
   257
 75
     7
175
     7
 42
1.0
 92
        8
 66
     7
 43
1.0
 76
     1
 77
     6
 78
     2
 67
     7
 79
     5
170
     0
171
     0
290
     1
174
     0
 93
        1
 44
0.0
173
     0
291
     1
 45
0.0
  0
VISUALSTYLE
  5
33
102
{ACAD_REACTORS
330
2A
102
}
330
2A
100
AcDbVisualStyle
  2
Realistic
 70
     8
 71
     2
 72
     2
 73
     0
 90
        0
 40
-0.6
 41
-30.0
 62
     5
 63
     7
 74
     1
 91
        0
 64
     7
 65
   257
 75
     1
175
     1
 42
1.0
 92
        8
 66
     8
 43
1.0
 76
     1
 77
     6
 78
     2
 67
     7
 79
     5
170
     0
171
     0
290
     1
174
     0
 93
       13
 44
0.0
173
     0
291
     1
 45
0.0
  0
VISUALSTYLE
  5
37
102
{ACAD_REACTORS
330
2A
102
}
330
2A
100
AcDbVisualStyle
  2
Thicken
 70
    13
 71
     2
 72
     2
 73
     0
 90
        0
 40
-0.6
 41
-30.0
 62
     5
 63
     7
 74
     1
 91
        4
 64
     7
 65
   257
 75
     1
175
     1
 42
1.0
 92
       12
 66
     7
 43
1.0
 76
     1
 77
     6
 78
     2
 67
     7
 79
     5
170
     0
171
     0
290
     1
174
     0
 93
        1
 44
0.0
173
     0
291
     1
 45
0.0
  0
DICTIONARYVAR
  5
1FE
102
{ACAD_REACTORS
330
59
102
}
330
59
100
DictionaryVariables
280
     0
  1
1:1
  0
DICTIONARYVAR
  5
98
102
{ACAD_REACTORS
330
59
102
}
330
59
100
DictionaryVariables
280
     0
  1
Standard
  0
DICTIONARYVAR
  5
1C0
102
{ACAD_REACTORS
330
59
102
}
330
59
100
DictionaryVariables
280
     0
  1
2
  0
DICTIONARYVAR
  5
1C1
102
{ACAD_REACTORS
330
59
102
}
330
59
100
DictionaryVariables
280
     0
  1
1
  0
ENDSEC
  0
EOF
